osu file format v14

[General]
AudioFilename: audio.mp3
AudioLeadIn: 0
PreviewTime: 113034
Countdown: 0
SampleSet: None
StackLeniency: 0.7
Mode: 2
LetterboxInBreaks: 0
WidescreenStoryboard: 0

[Editor]
DistanceSpacing: 0.8
BeatDivisor: 8
GridSize: 4
TimelineZoom: 2.4

[Metadata]
Title:Gate of Steiner
TitleUnicode:Gate of Steiner
Artist:ChomuP
ArtistUnicode:ChomuP
Creator:-Ken
Version:1.048596%
Source:Steins;gate
Tags:
BeatmapID:1675240
BeatmapSetID:797692

[Difficulty]
HPDrainRate:5
CircleSize:3.8
OverallDifficulty:8.6
ApproachRate:8.6
SliderMultiplier:1.8
SliderTickRate:1

[Events]
//Background and Video events
0,0,"1920x1080.jpg",0,0
//Break Periods
2,58484,71339
//Storyboard Layer 0 (Background)
//Storyboard Layer 1 (Fail)
//Storyboard Layer 2 (Pass)
//Storyboard Layer 3 (Foreground)
//Storyboard Sound Samples

[TimingPoints]
1712.68876145284,428.571428571429,4,2,0,41,1,0
8569,-100,4,2,0,60,0,0
14569,-50,4,2,0,60,0,0
15105,-66.6666666666667,4,2,0,60,0,0
15426,-66.6666666666667,4,2,0,60,0,1
15641,-83.3333333333333,4,2,0,60,0,1
29141,-83.3333333333333,4,2,0,60,0,0
84426,-55.5555555555556,4,2,0,60,0,0
84855,-55.5555555555556,4,2,0,60,0,0
111426,-50,4,2,0,60,0,0
113141,-50,4,2,0,60,0,1
113569,-55.5555555555556,4,2,0,60,0,1
126855,-83.3333333333333,4,2,0,60,0,1
140569,-55.5555555555556,4,2,0,60,0,0

[Colours]
Combo1 : 60,60,255
Combo2 : 149,0,0

[HitObjects]
264,296,1712,5,0,0:0:0:0:
372,256,1926,1,0,0:0:0:0:
200,304,2141,1,0,0:0:0:0:
113,294,2355,1,0,0:0:0:0:
67,220,2569,1,0,0:0:0:0:
95,138,2783,1,0,0:0:0:0:
316,180,2998,5,0,0:0:0:0:
383,108,3212,1,0,0:0:0:0:
349,27,3426,1,0,0:0:0:0:
267,2,3640,1,0,0:0:0:0:
88,156,3855,5,0,0:0:0:0:
220,116,4069,1,0,0:0:0:0:
88,156,4284,2,0,L|64:260,1,90
220,116,4712,2,0,L|256:208,1,90
64,320,5141,5,0,0:0:0:0:
18,246,5355,1,0,0:0:0:0:
50,166,5569,1,0,0:0:0:0:
135,145,5783,1,0,0:0:0:0:
364,240,5998,5,0,0:0:0:0:
428,181,6212,1,0,0:0:0:0:
419,95,6426,1,0,0:0:0:0:
343,52,6640,1,0,0:0:0:0:
128,120,6855,5,0,0:0:0:0:
276,120,7069,1,0,0:0:0:0:
128,120,7284,2,0,L|28:88,1,90
220,128,7712,2,0,L|168:28,1,90
336,148,8141,2,0,L|384:52,1,90
120,184,8569,6,0,L|36:184,2,45
276,184,8998,1,0,0:0:0:0:
120,184,9212,6,0,L|120:160,4,22.5
224,124,9534,1,0,0:0:0:0:
228,156,9641,1,0,0:0:0:0:
48,144,9855,1,0,0:0:0:0:
268,152,10069,5,0,0:0:0:0:
88,144,10284,6,0,L|88:200,2,45
268,152,10712,1,0,0:0:0:0:
72,172,10926,6,0,L|72:148,4,22.5
176,112,11248,1,0,0:0:0:0:
180,144,11355,1,0,0:0:0:0:
0,132,11569,1,0,0:0:0:0:
184,208,11784,1,0,0:0:0:0:
368,208,11998,6,0,L|416:208,2,45
184,208,12426,1,0,0:0:0:0:
368,208,12641,6,0,L|368:184,2,22.5
368,172,12801,2,0,L|368:148,1,22.5
236,152,12962,2,0,L|236:92,1,45
424,108,13284,1,0,0:0:0:0:
248,96,13498,1,0,0:0:0:0:
390,299,13712,5,0,0:0:0:0:
323,299,13819,1,0,0:0:0:0:
259,299,13926,1,0,0:0:0:0:
194,299,14034,1,0,0:0:0:0:
307,239,14141,5,0,0:0:0:0:
240,239,14248,1,0,0:0:0:0:
122,212,14355,1,0,0:0:0:0:
98,152,14463,1,0,0:0:0:0:
358,67,14569,6,0,L|320:44,6,45
408,44,14944,1,0,0:0:0:0:
441,48,14998,1,0,0:0:0:0:
472,65,15051,1,0,0:0:0:0:
493,91,15105,1,0,0:0:0:0:
505,123,15159,1,0,0:0:0:0:
504,156,15212,1,0,0:0:0:0:
490,188,15266,1,0,0:0:0:0:
466,211,15319,1,0,0:0:0:0:
435,225,15373,1,0,0:0:0:0:
402,228,15426,5,0,0:0:0:0:
56,52,15641,2,0,L|56:164,1,107.999996704102
200,160,16069,1,0,0:0:0:0:
200,104,16177,1,0,0:0:0:0:
64,112,16284,1,0,0:0:0:0:
360,208,16498,6,0,L|492:208,2,107.999996704102
360,140,17034,1,0,0:0:0:0:
500,200,17141,1,0,0:0:0:0:
120,208,17355,6,0,L|120:84,1,107.999996704102
264,100,17784,1,0,0:0:0:0:
260,148,17891,1,0,0:0:0:0:
120,196,17998,5,0,0:0:0:0:
504,232,18319,5,0,0:0:0:0:
264,236,18641,1,0,0:0:0:0:
360,232,18748,5,0,0:0:0:0:
360,188,18855,1,0,0:0:0:0:
8,188,19069,2,0,L|140:188,1,107.999996704102
256,168,19498,5,0,0:0:0:0:
160,172,19605,1,0,0:0:0:0:
160,172,19712,1,0,0:0:0:0:
508,172,19926,1,0,0:0:0:0:
380,176,20141,1,0,0:0:0:0:
508,172,20355,5,0,0:0:0:0:
440,172,20462,1,0,0:0:0:0:
508,172,20569,1,0,0:0:0:0:
188,168,20784,2,0,L|188:292,1,107.999996704102
4,172,21212,5,0,0:0:0:0:
80,172,21319,1,0,0:0:0:0:
4,172,21426,1,0,0:0:0:0:
432,212,21748,1,0,0:0:0:0:
184,208,22069,5,0,0:0:0:0:
240,208,22176,1,0,0:0:0:0:
344,164,22284,2,0,L|284:164,1,53.9999983520508
208,120,22498,2,0,L|272:120,1,53.9999983520508
360,112,22712,1,0,0:0:0:0:
208,120,22926,6,0,L|128:120,1,53.9999983520508
284,124,23141,2,0,L|400:124,2,107.999996704102
448,124,23784,6,0,L|384:124,1,53.9999983520508
284,132,23998,2,0,L|348:132,1,53.9999983520508
448,124,24212,2,0,L|384:124,1,53.9999983520508
284,128,24426,1,0,0:0:0:0:
448,124,24641,6,0,L|528:124,1,53.9999983520508
360,124,24855,2,0,L|220:124,2,107.999996704102
252,124,25498,6,0,L|160:124,1,53.9999983520508
60,124,25712,5,0,0:0:0:0:
13,153,25819,1,0,0:0:0:0:
0,207,25926,1,0,0:0:0:0:
29,254,26033,1,0,0:0:0:0:
148,280,26141,5,0,0:0:0:0:
126,230,26248,1,0,0:0:0:0:
105,180,26355,1,0,0:0:0:0:
84,130,26462,1,0,0:0:0:0:
192,148,26569,6,0,L|264:148,3,53.9999983520508
364,144,26998,5,0,0:0:0:0:
410,167,27105,1,0,0:0:0:0:
422,218,27212,1,0,0:0:0:0:
392,261,27319,1,0,0:0:0:0:
264,256,27426,5,0,0:0:0:0:
286,206,27533,1,0,0:0:0:0:
307,156,27640,1,0,0:0:0:0:
328,106,27747,1,0,0:0:0:0:
224,108,27855,6,0,L|168:108,3,53.9999983520508
36,116,28284,5,0,0:0:0:0:
1,155,28391,1,0,0:0:0:0:
0,208,28498,1,0,0:0:0:0:
31,251,28605,1,0,0:0:0:0:
208,248,28712,6,0,L|264:248,1,53.9999983520508
144,244,28926,2,0,L|124:180,1,53.9999983520508
464,172,29141,1,0,0:0:0:0:
120,216,30319,5,0,0:0:0:0:
112,152,30426,1,0,0:0:0:0:
412,120,30641,1,0,0:0:0:0:
224,160,30855,6,0,L|96:160,1,107.999996704102
312,160,31284,5,0,0:0:0:0:
252,160,31391,2,0,L|76:160,1,161.999995056153
328,156,32034,1,0,0:0:0:0:
90,160,32355,1,0,0:0:0:0:
328,220,32569,6,0,L|456:220,1,107.999996704102
212,220,32998,5,0,0:0:0:0:
280,220,33105,2,0,L|456:220,1,161.999995056153
200,212,33748,1,0,0:0:0:0:
442,220,34069,1,0,0:0:0:0:
224,212,34284,6,0,L|224:336,1,107.999996704102
416,208,34712,6,0,L|416:128,1,53.9999983520508
176,168,35141,1,0,0:0:0:0:
416,172,35462,1,0,0:0:0:0:
176,168,35784,1,0,0:0:0:0:
416,180,35998,6,0,L|416:304,1,107.999996704102
224,176,36426,6,0,L|224:96,1,53.9999983520508
444,136,36855,1,0,0:0:0:0:
224,140,37176,1,0,0:0:0:0:
444,136,37498,1,0,0:0:0:0:
224,140,37712,5,0,0:0:0:0:
88,140,37926,1,0,0:0:0:0:
240,140,38141,5,0,0:0:0:0:
296,140,38248,1,0,0:0:0:0:
56,216,38569,1,0,0:0:0:0:
236,200,38784,5,0,0:0:0:0:
277,232,38891,1,0,0:0:0:0:
279,284,38998,1,0,0:0:0:0:
240,320,39105,1,0,0:0:0:0:
180,324,39212,1,0,0:0:0:0:
312,160,39426,5,0,0:0:0:0:
472,168,39640,1,0,0:0:0:0:
296,160,39855,5,0,0:0:0:0:
240,160,39962,1,0,0:0:0:0:
480,236,40283,1,0,0:0:0:0:
300,220,40498,5,0,0:0:0:0:
258,252,40605,1,0,0:0:0:0:
256,304,40712,1,0,0:0:0:0:
295,340,40819,1,0,0:0:0:0:
356,344,40926,1,0,0:0:0:0:
128,308,41141,6,0,L|128:184,1,107.999996704102
344,228,41569,2,0,L|344:172,1,53.9999983520508
104,224,41998,5,0,0:0:0:0:
344,216,42319,1,0,0:0:0:0:
104,224,42641,1,0,0:0:0:0:
220,220,42855,5,0,0:0:0:0:
277,182,42962,1,0,0:0:0:0:
285,114,43069,1,0,0:0:0:0:
237,64,43176,1,0,0:0:0:0:
324,180,43284,5,0,0:0:0:0:
381,142,43391,1,0,0:0:0:0:
389,74,43498,1,0,0:0:0:0:
341,24,43605,1,0,0:0:0:0:
436,160,43712,5,0,0:0:0:0:
493,122,43819,1,0,0:0:0:0:
501,54,43926,1,0,0:0:0:0:
453,4,44033,1,0,0:0:0:0:
72,128,44141,6,0,L|32:72,1,53.9999983520508
120,68,44355,2,0,L|188:68,1,53.9999983520508
384,120,44569,6,0,L|384:240,1,107.999996704102
248,232,44998,5,0,0:0:0:0:
336,232,45105,1,0,0:0:0:0:
112,284,45426,2,0,L|300:284,2,161.999995056153
276,120,46284,6,0,L|276:240,1,107.999996704102
136,224,46713,5,0,0:0:0:0:
224,224,46820,1,0,0:0:0:0:
432,288,47141,2,0,L|244:288,2,161.999995056153
360,288,47891,1,0,0:0:0:0:
148,272,47998,6,0,L|144:148,1,107.999996704102
448,136,48426,1,0,0:0:0:0:
312,136,48641,2,0,L|220:136,1,53.9999983520508
340,136,48855,2,0,L|396:112,1,53.9999983520508
288,84,49069,1,0,0:0:0:0:
464,88,49284,2,0,L|464:228,1,107.999996704102
232,176,49712,6,0,L|372:176,2,107.999996704102
424,92,50355,5,0,0:0:0:0:
469,119,50462,1,0,0:0:0:0:
488,169,50569,1,0,0:0:0:0:
474,220,50676,1,0,0:0:0:0:
431,251,50783,1,0,0:0:0:0:
108,272,50998,2,0,P|88:212|116:152,1,107.999996704102
184,164,51319,1,0,0:0:0:0:
448,168,51426,5,0,0:0:0:0:
464,92,51641,1,0,0:0:0:0:
216,104,51855,1,0,0:0:0:0:
204,44,51962,1,0,0:0:0:0:
272,224,52176,1,0,0:0:0:0:
288,172,52284,1,0,0:0:0:0:
144,192,52498,1,0,0:0:0:0:
76,184,52605,1,0,0:0:0:0:
348,160,52712,2,0,L|348:40,1,107.999996704102
160,160,53141,6,0,L|156:48,1,107.999996704102
340,60,53569,1,0,0:0:0:0:
264,60,53676,1,0,0:0:0:0:
116,176,53891,1,0,0:0:0:0:
192,176,53998,1,0,0:0:0:0:
348,180,54212,1,0,0:0:0:0:
412,176,54319,1,0,0:0:0:0:
348,180,54426,1,0,0:0:0:0:
72,248,54641,1,0,0:0:0:0:
264,256,54855,5,0,0:0:0:0:
313,234,54962,1,0,0:0:0:0:
363,213,55069,1,0,0:0:0:0:
412,192,55176,1,0,0:0:0:0:
296,212,55284,5,0,0:0:0:0:
246,190,55391,1,0,0:0:0:0:
196,169,55498,1,0,0:0:0:0:
147,148,55605,1,0,0:0:0:0:
248,116,55712,6,0,L|320:116,3,53.9999983520508
412,76,56141,6,0,L|340:76,3,53.9999983520508
260,72,56569,5,0,0:0:0:0:
211,92,56676,1,0,0:0:0:0:
191,141,56783,1,0,0:0:0:0:
212,189,56890,1,0,0:0:0:0:
340,192,56998,5,0,0:0:0:0:
388,212,57105,1,0,0:0:0:0:
408,261,57212,1,0,0:0:0:0:
387,309,57319,1,0,0:0:0:0:
296,336,57426,5,0,0:0:0:0:
258,336,57479,1,0,0:0:0:0:
220,336,57533,1,0,0:0:0:0:
182,336,57586,1,0,0:0:0:0:
145,336,57640,1,0,0:0:0:0:
182,336,57694,1,0,0:0:0:0:
220,336,57747,1,0,0:0:0:0:
258,336,57801,1,0,0:0:0:0:
296,336,57855,5,0,0:0:0:0:
258,336,57908,1,0,0:0:0:0:
220,336,57962,1,0,0:0:0:0:
182,336,58015,1,0,0:0:0:0:
145,336,58069,1,0,0:0:0:0:
182,336,58123,1,0,0:0:0:0:
220,336,58176,1,0,0:0:0:0:
258,336,58230,1,0,0:0:0:0:
300,336,58284,1,0,0:0:0:0:
252,200,71998,5,0,0:0:0:0:
84,220,72212,6,0,L|16:224,2,53.9999983520508
280,224,72641,6,0,L|348:228,2,53.9999983520508
192,224,72962,1,0,0:0:0:0:
280,224,73069,2,0,L|348:228,2,53.9999983520508
192,224,73390,1,0,0:0:0:0:
104,224,73498,2,0,L|36:228,2,53.9999983520508
192,224,73819,1,0,0:0:0:0:
280,224,73926,2,0,L|348:232,1,53.9999983520508
228,220,74141,5,0,0:0:0:0:
184,190,74248,1,0,0:0:0:0:
177,138,74355,1,0,0:0:0:0:
209,97,74462,1,0,0:0:0:0:
328,136,74569,5,0,0:0:0:0:
371,106,74676,1,0,0:0:0:0:
378,54,74783,1,0,0:0:0:0:
346,13,74890,1,0,0:0:0:0:
209,97,74998,5,0,0:0:0:0:
243,138,75105,1,0,0:0:0:0:
277,180,75212,1,0,0:0:0:0:
311,222,75319,1,0,0:0:0:0:
182,224,75426,6,0,L|258:224,3,53.9999983520508
116,224,75855,6,0,L|116:328,3,53.9999983520508
236,224,76284,2,0,L|176:224,3,53.9999983520508
308,224,76712,6,0,L|308:328,3,53.9999983520508
208,224,77141,5,0,0:0:0:0:
157,226,77248,1,0,0:0:0:0:
133,181,77355,1,0,0:0:0:0:
165,141,77462,1,0,0:0:0:0:
68,132,77569,6,0,L|8:132,3,53.9999983520508
165,141,77998,5,0,0:0:0:0:
216,143,78105,1,0,0:0:0:0:
240,98,78212,1,0,0:0:0:0:
208,58,78319,1,0,0:0:0:0:
305,49,78426,6,0,L|365:49,3,53.9999983520508
176,352,78855,5,0,0:0:0:0:
105,333,78962,1,0,0:0:0:0:
49,285,79069,1,0,0:0:0:0:
19,218,79176,1,0,0:0:0:0:
21,145,79283,1,0,0:0:0:0:
54,79,79390,1,0,0:0:0:0:
113,35,79497,1,0,0:0:0:0:
184,20,79604,1,0,0:0:0:0:
275,30,79712,6,0,L|359:30,7,53.9999983520508
191,90,80569,6,0,L|119:90,7,53.9999983520508
279,152,81426,6,0,L|225:152,7,53.9999983520508
408,336,82284,5,0,0:0:0:0:
463,298,82391,1,0,0:0:0:0:
500,242,82498,1,0,0:0:0:0:
512,176,82605,1,0,0:0:0:0:
494,111,82712,1,0,0:0:0:0:
453,58,82819,1,0,0:0:0:0:
394,26,82926,1,0,0:0:0:0:
328,20,83033,1,0,0:0:0:0:
104,344,83141,5,0,0:0:0:0:
48,306,83248,1,0,0:0:0:0:
12,250,83355,1,0,0:0:0:0:
0,184,83462,1,0,0:0:0:0:
17,119,83569,1,0,0:0:0:0:
58,66,83676,1,0,0:0:0:0:
117,34,83783,1,0,0:0:0:0:
183,28,83890,1,0,0:0:0:0:
508,160,83998,6,0,L|488:192,7,26.9999991760254
408,140,84426,5,0,0:0:0:0:
375,127,84462,1,0,0:0:0:0:
343,126,84498,1,0,0:0:0:0:
311,137,84534,1,0,0:0:0:0:
286,156,84569,1,0,0:0:0:0:
267,184,84605,1,0,0:0:0:0:
259,216,84641,1,0,0:0:0:0:
260,248,84676,1,0,0:0:0:0:
274,279,84712,1,0,0:0:0:0:
295,300,84748,1,0,0:0:0:0:
323,315,84784,1,0,0:0:0:0:
358,323,84819,1,0,0:0:0:0:
411,324,84855,6,0,L|432:324,32,20.2499993820191
88,260,85926,5,0,0:0:0:0:
264,260,86141,1,0,0:0:0:0:
88,260,86355,6,0,L|76:176,1,80.9999975280763
180,188,86569,2,0,L|200:96,1,80.9999975280763
84,104,86784,1,0,0:0:0:0:
244,144,86998,2,0,L|264:52,1,80.9999975280763
148,60,87213,1,0,0:0:0:0:
432,136,87426,5,0,0:0:0:0:
424,260,87641,5,0,0:0:0:0:
248,260,87856,1,0,0:0:0:0:
424,260,88070,6,0,L|436:176,1,80.9999975280763
332,188,88284,2,0,L|312:96,1,80.9999975280763
428,104,88499,1,0,0:0:0:0:
268,144,88713,2,0,L|248:52,1,80.9999975280763
364,60,88928,1,0,0:0:0:0:
88,212,89141,6,0,L|4:212,2,80.9999975280763
300,212,89569,5,0,0:0:0:0:
192,208,89784,2,0,L|104:208,1,80.9999975280763
228,148,89998,2,0,L|312:148,2,80.9999975280763
368,84,90426,2,0,L|452:84,2,80.9999975280763
48,256,90855,6,0,L|36:152,1,80.9999975280763
156,160,91069,1,0,0:0:0:0:
36,252,91284,5,0,0:0:0:0:
248,240,91498,1,0,0:0:0:0:
368,244,91712,6,0,L|380:140,1,80.9999975280763
260,148,91926,1,0,0:0:0:0:
380,240,92141,5,0,0:0:0:0:
168,228,92355,1,0,0:0:0:0:
20,232,92569,5,0,0:0:0:0:
20,151,92676,1,0,0:0:0:0:
20,70,92783,1,0,0:0:0:0:
216,72,92998,1,0,0:0:0:0:
20,151,93212,6,0,L|120:152,1,80.9999975280763
187,156,93426,1,0,0:0:0:0:
273,156,93534,1,0,0:0:0:0:
187,156,93641,1,0,0:0:0:0:
468,152,93855,1,0,0:0:0:0:
317,159,94069,1,0,0:0:0:0:
481,288,94284,5,0,0:0:0:0:
481,207,94391,1,0,0:0:0:0:
481,126,94498,1,0,0:0:0:0:
295,123,94713,1,0,0:0:0:0:
490,204,94927,6,0,L|393:204,1,80.9999975280763
324,207,95141,1,0,0:0:0:0:
238,207,95249,1,0,0:0:0:0:
324,207,95356,1,0,0:0:0:0:
51,184,95570,2,0,L|51:355,1,161.999995056153
130,342,95891,1,0,0:0:0:0:
404,145,95998,5,0,0:0:0:0:
248,237,96212,1,0,0:0:0:0:
404,145,96426,1,0,0:0:0:0:
404,145,96534,1,0,0:0:0:0:
187,178,96855,5,0,0:0:0:0:
451,302,97176,1,0,0:0:0:0:
187,178,97498,1,0,0:0:0:0:
419,321,97712,5,0,0:0:0:0:
339,322,97819,1,0,0:0:0:0:
273,278,97926,1,0,0:0:0:0:
245,203,98033,1,0,0:0:0:0:
359,209,98141,5,0,0:0:0:0:
403,143,98248,1,0,0:0:0:0:
387,66,98355,1,0,0:0:0:0:
321,24,98462,1,0,0:0:0:0:
139,129,98569,1,0,0:0:0:0:
62,143,98676,1,0,0:0:0:0:
31,214,98783,1,0,0:0:0:0:
72,280,98890,1,0,0:0:0:0:
281,327,98998,5,0,0:0:0:0:
372,329,99105,1,0,0:0:0:0:
450,300,99212,1,0,0:0:0:0:
369,271,99319,1,0,0:0:0:0:
72,280,99426,6,0,P|40:144|64:120,1,161.999995056153
249,161,99855,6,0,L|342:161,2,80.9999975280763
440,140,100284,2,0,L|440:312,1,161.999995056153
236,196,100712,2,0,L|135:196,2,80.9999975280763
436,280,101141,5,0,0:0:0:0:
435,199,101248,1,0,0:0:0:0:
435,118,101355,1,0,0:0:0:0:
261,226,101569,5,0,0:0:0:0:
261,145,101676,1,0,0:0:0:0:
261,64,101783,1,0,0:0:0:0:
455,228,101998,5,0,0:0:0:0:
286,217,102212,1,0,0:0:0:0:
460,311,102426,1,0,0:0:0:0:
379,311,102533,1,0,0:0:0:0:
298,311,102640,1,0,0:0:0:0:
379,311,102748,1,0,0:0:0:0:
120,324,102855,6,0,L|120:152,1,161.999995056153
312,164,103284,1,0,0:0:0:0:
108,248,103498,1,0,0:0:0:0:
47,197,103605,1,0,0:0:0:0:
34,119,103712,1,0,0:0:0:0:
77,52,103819,1,0,0:0:0:0:
154,30,103926,1,0,0:0:0:0:
440,228,104141,5,0,0:0:0:0:
440,228,104248,1,0,0:0:0:0:
372,228,104355,1,0,0:0:0:0:
144,228,104569,5,0,0:0:0:0:
212,216,104676,1,0,0:0:0:0:
305,224,104783,1,0,0:0:0:0:
144,228,104998,5,0,0:0:0:0:
212,216,105105,1,0,0:0:0:0:
305,224,105212,1,0,0:0:0:0:
160,216,105426,5,0,0:0:0:0:
228,204,105533,1,0,0:0:0:0:
321,212,105640,1,0,0:0:0:0:
40,168,105855,5,0,0:0:0:0:
120,168,106069,5,0,0:0:0:0:
40,168,106176,1,0,0:0:0:0:
328,184,106284,2,0,L|500:180,1,161.999995056153
296,124,106712,5,0,0:0:0:0:
356,124,106819,1,0,0:0:0:0:
296,124,106926,1,0,0:0:0:0:
356,124,107034,1,0,0:0:0:0:
280,196,107141,2,0,L|112:196,2,161.999995056153
0,304,107784,1,0,0:0:0:0:
164,192,107998,6,0,L|-8:188,1,161.999995056153
204,120,108426,5,0,0:0:0:0:
144,120,108533,1,0,0:0:0:0:
204,120,108640,1,0,0:0:0:0:
144,120,108748,1,0,0:0:0:0:
220,192,108855,2,0,L|388:192,2,161.999995056153
512,304,109498,1,0,0:0:0:0:
332,320,109712,5,0,0:0:0:0:
253,311,109819,1,0,0:0:0:0:
210,246,109926,1,0,0:0:0:0:
233,171,110033,1,0,0:0:0:0:
305,141,110140,1,0,0:0:0:0:
476,144,110355,6,0,L|388:144,1,80.9999975280763
320,168,110569,2,0,L|412:168,1,80.9999975280763
476,144,110784,1,0,0:0:0:0:
184,264,110998,2,0,L|8:264,1,161.999995056153
104,264,111319,1,0,0:0:0:0:
184,264,111426,5,0,0:0:0:0:
268,246,111533,1,0,0:0:0:0:
305,167,111640,1,0,0:0:0:0:
263,91,111747,1,0,0:0:0:0:
160,208,111855,5,0,0:0:0:0:
75,190,111962,1,0,0:0:0:0:
38,111,112069,1,0,0:0:0:0:
80,35,112176,1,0,0:0:0:0:
196,67,112284,5,0,0:0:0:0:
239,67,112337,1,0,0:0:0:0:
283,67,112391,1,0,0:0:0:0:
327,67,112444,1,0,0:0:0:0:
370,67,112498,1,0,0:0:0:0:
327,67,112552,1,0,0:0:0:0:
283,67,112605,1,0,0:0:0:0:
239,67,112659,1,0,0:0:0:0:
196,67,112713,5,0,0:0:0:0:
239,67,112766,1,0,0:0:0:0:
283,67,112820,1,0,0:0:0:0:
327,67,112873,1,0,0:0:0:0:
370,67,112927,1,0,0:0:0:0:
327,67,112981,1,0,0:0:0:0:
283,67,113034,1,0,0:0:0:0:
20,242,113141,6,0,L|20:41,1,180
184,158,113569,1,0,0:0:0:0:
28,244,113784,1,0,0:0:0:0:
421,251,113998,5,0,0:0:0:0:
259,260,114212,2,0,L|259:86,1,161.999995056153
421,251,114641,1,0,0:0:0:0:
91,251,114855,5,0,0:0:0:0:
253,260,115069,2,0,L|253:86,1,161.999995056153
91,251,115498,1,0,0:0:0:0:
391,306,115712,5,0,0:0:0:0:
468,259,115926,1,0,0:0:0:0:
148,203,116141,1,0,0:0:0:0:
285,173,116355,1,0,0:0:0:0:
213,173,116462,1,0,0:0:0:0:
41,184,116569,6,0,L|42:17,1,161.999995056153
206,183,116998,2,0,L|34:183,1,161.999995056153
471,184,117426,6,0,L|470:17,1,161.999995056153
306,183,117855,2,0,L|478:183,1,161.999995056153
167,274,118284,5,0,0:0:0:0:
5,275,118498,1,0,0:0:0:0:
167,274,118712,5,0,0:0:0:0:
5,275,118926,1,0,0:0:0:0:
393,271,119141,6,0,L|475:124,1,161.999995056153
179,149,119569,1,0,0:0:0:0:
36,140,119784,5,0,0:0:0:0:
106,138,119891,1,0,0:0:0:0:
464,205,119998,5,0,0:0:0:0:
303,202,120212,1,0,0:0:0:0:
303,202,120426,1,0,0:0:0:0:
464,205,120641,1,0,0:0:0:0:
48,205,120855,5,0,0:0:0:0:
209,202,121069,1,0,0:0:0:0:
209,202,121283,1,0,0:0:0:0:
48,205,121498,1,0,0:0:0:0:
339,314,121712,5,0,0:0:0:0:
502,247,121926,1,0,0:0:0:0:
339,314,122140,1,0,0:0:0:0:
502,247,122354,1,0,0:0:0:0:
226,316,122569,5,0,0:0:0:0:
70,257,122784,1,0,0:0:0:0:
234,319,122998,1,0,0:0:0:0:
70,257,123212,1,0,0:0:0:0:
129,231,123319,1,0,0:0:0:0:
394,290,123426,6,0,L|414:113,1,161.999995056153
248,110,123855,1,0,0:0:0:0:
410,260,124069,1,0,0:0:0:0:
53,258,124284,6,0,L|33:81,1,161.999995056153
200,76,124713,1,0,0:0:0:0:
35,227,124927,1,0,0:0:0:0:
417,233,125141,5,0,0:0:0:0:
297,231,125355,1,0,0:0:0:0:
175,230,125569,1,0,0:0:0:0:
53,230,125783,1,0,0:0:0:0:
406,229,125998,6,0,L|483:78,1,161.999995056153
108,200,126426,2,0,L|47:46,1,161.999995056153
128,45,126748,1,0,0:0:0:0:
243,51,126855,5,0,0:0:0:0:
56,52,127070,2,0,L|56:164,1,107.999996704102
200,160,127498,1,0,0:0:0:0:
165,118,127606,1,0,0:0:0:0:
64,112,127713,1,0,0:0:0:0:
360,208,127927,6,0,L|492:208,2,107.999996704102
400,173,128463,1,0,0:0:0:0:
500,200,128570,1,0,0:0:0:0:
120,208,128784,6,0,L|120:84,1,107.999996704102
264,100,129213,1,0,0:0:0:0:
231,148,129320,1,0,0:0:0:0:
120,196,129427,5,0,0:0:0:0:
504,232,129748,5,0,0:0:0:0:
249,242,130069,5,0,0:0:0:0:
284,200,130177,1,0,0:0:0:0:
385,194,130284,1,0,0:0:0:0:
49,185,130498,2,0,L|49:304,1,107.999996704102
211,227,130926,5,0,0:0:0:0:
177,185,131034,1,0,0:0:0:0:
76,179,131141,1,0,0:0:0:0:
373,142,131355,1,0,0:0:0:0:
512,101,131570,1,0,0:0:0:0:
372,220,131784,5,0,0:0:0:0:
411,205,131891,1,0,0:0:0:0:
512,186,131998,1,0,0:0:0:0:
188,168,132213,2,0,L|188:292,1,107.999996704102
0,111,132641,5,0,0:0:0:0:
84,115,132748,1,0,0:0:0:0:
0,111,132855,1,0,0:0:0:0:
432,212,133177,1,0,0:0:0:0:
184,208,133498,5,0,0:0:0:0:
253,205,133605,1,0,0:0:0:0:
45,215,133712,2,0,L|45:140,1,53.9999983520508
138,161,133926,2,0,L|138:86,1,53.9999983520508
40,106,134141,1,0,0:0:0:0:
208,120,134355,6,0,L|128:120,1,53.9999983520508
284,124,134570,2,0,L|400:124,2,107.999996704102
328,208,135212,5,0,0:0:0:0:
259,205,135319,1,0,0:0:0:0:
467,215,135426,2,0,L|467:140,1,53.9999983520508
374,161,135640,2,0,L|374:86,1,53.9999983520508
472,106,135855,1,0,0:0:0:0:
304,120,136069,6,0,L|384:120,1,53.9999983520508
228,124,136284,2,0,L|112:124,2,107.999996704102
252,124,136927,6,0,L|160:124,1,53.9999983520508
60,124,137141,5,0,0:0:0:0:
13,153,137248,1,0,0:0:0:0:
0,207,137355,1,0,0:0:0:0:
29,254,137462,1,0,0:0:0:0:
162,223,137570,5,0,0:0:0:0:
210,198,137677,1,0,0:0:0:0:
259,174,137784,1,0,0:0:0:0:
308,151,137891,1,0,0:0:0:0:
154,119,137998,5,0,0:0:0:0:
108,142,138105,1,0,0:0:0:0:
96,193,138212,1,0,0:0:0:0:
126,236,138319,1,0,0:0:0:0:
251,215,138426,5,0,0:0:0:0:
299,190,138533,1,0,0:0:0:0:
348,166,138640,1,0,0:0:0:0:
397,143,138747,1,0,0:0:0:0:
117,195,138855,5,0,0:0:0:0:
64,196,138962,1,0,0:0:0:0:
26,160,139069,1,0,0:0:0:0:
27,107,139176,1,0,0:0:0:0:
275,258,139284,5,0,0:0:0:0:
327,259,139391,1,0,0:0:0:0:
365,223,139498,1,0,0:0:0:0:
364,170,139605,1,0,0:0:0:0:
59,133,139713,5,0,0:0:0:0:
24,172,139820,1,0,0:0:0:0:
23,225,139927,1,0,0:0:0:0:
54,268,140034,1,0,0:0:0:0:
231,265,140141,6,0,L|287:265,1,53.9999983520508
176,200,140355,2,0,L|124:153,1,53.9999983520508
487,189,140570,1,0,0:0:0:0:
