osu file format v14

[General]
AudioFilename: audio.mp3
AudioLeadIn: 0
PreviewTime: 30040
Countdown: 0
SampleSet: Normal
StackLeniency: 0.7
Mode: 0
LetterboxInBreaks: 0
WidescreenStoryboard: 0

[Editor]
DistanceSpacing: 4.2
BeatDivisor: 6
GridSize: 8
TimelineZoom: 1

[Metadata]
Title:ID (cut)
TitleUnicode:ID (cut)
Artist:ChodeGang
ArtistUnicode:ChodeGang
Creator:DJHisnikTv
Version:Demon.
Source:
Tags:
BeatmapID:1389262
BeatmapSetID:655596

[Difficulty]
HPDrainRate:2
CircleSize:4
OverallDifficulty:5
ApproachRate:10
SliderMultiplier:1.4
SliderTickRate:1

[Events]
//Background and Video events
0,0,"65041FFE-C69D-ABEC-C01EA3D69DA9E794.png",0,0
//Break Periods
//Storyboard Layer 0 (Background)
//Storyboard Layer 1 (Fail)
//Storyboard Layer 2 (Pass)
//Storyboard Layer 3 (Foreground)
//Storyboard Sound Samples

[TimingPoints]
440.236506995271,400,4,1,0,100,1,0

[Colours]
Combo1 : 0,0,255
Combo2 : 255,0,0
Combo3 : 255,0,204
Combo4 : 0,244,0

[HitObjects]
256,192,4440,5,0,0:0:0:0:
168,120,5240,6,0,P|232:224|240:224,1,140
344,112,6040,5,0,0:0:0:0:
120,256,6440,1,0,0:0:0:0:
168,112,6840,2,0,P|88:184|88:192,1,93.3333333333333
384,232,7240,2,0,P|320:312|312:312,1,93.3333333333333
160,112,7640,2,0,P|80:168|80:184,1,93.3333333333333
368,232,8040,2,0,P|288:312|280:312,1,93.3333333333333
256,192,8440,12,0,9240,0:0:0:0:
120,104,9640,5,0,0:0:0:0:
336,272,9773,1,0,0:0:0:0:
120,8,10040,6,0,P|40:72|40:80,1,93.3333333333333
488,288,10440,2,0,P|424:360|416:360,1,93.3333333333333
128,16,10840,2,0,P|40:56|40:80,1,93.3333333333333
312,224,11240,1,0,0:0:0:0:
328,240,11306,1,0,0:0:0:0:
344,256,11373,1,0,0:0:0:0:
360,272,11440,1,0,0:0:0:0:
256,192,11640,12,0,12440,0:0:0:0:
280,88,12640,5,0,0:0:0:0:
112,272,12840,1,0,0:0:0:0:
320,208,12973,1,0,0:0:0:0:
344,192,13040,1,0,0:0:0:0:
368,176,13106,1,0,0:0:0:0:
24,272,13240,2,0,P|64:336|80:336,1,93.3333333333333
352,32,13640,2,0,P|408:96|400:104,1,116.666666666667
64,248,14040,2,0,P|72:320|96:336,1,93.3333333333333
352,40,14440,2,0,P|392:112|376:120,1,116.666666666667
144,120,14840,1,0,0:0:0:0:
328,304,15240,1,0,0:0:0:0:
240,72,15440,1,0,0:0:0:0:
32,248,15640,2,0,P|88:304|96:304,1,93.3333333333333
392,136,16040,1,0,0:0:0:0:
32,248,16240,1,0,0:0:0:0:
136,56,16440,1,0,0:0:0:0:
280,304,16840,1,0,0:0:0:0:
256,192,17240,12,0,17973,0:0:0:0:
384,192,18040,6,0,P|272:304|264:304,1,140
384,56,18840,1,0,0:0:0:0:
120,280,19040,1,0,0:0:0:0:
376,200,19240,1,0,0:0:0:0:
128,120,19440,1,0,0:0:0:0:
368,96,19640,1,0,0:0:0:0:
40,256,20040,2,0,P|72:312|96:312,1,93.3333333333333
352,80,20440,1,0,0:0:0:0:
96,208,20840,1,0,0:0:0:0:
96,232,20906,1,0,0:0:0:0:
96,256,20973,1,0,0:0:0:0:
96,280,21040,1,0,0:0:0:0:
344,88,21240,1,0,0:0:0:0:
136,320,21440,1,0,0:0:0:0:
384,304,21640,1,0,0:0:0:0:
112,96,22040,1,0,0:0:0:0:
280,256,22440,1,0,0:0:0:0:
224,72,22640,1,0,0:0:0:0:
80,280,22840,1,0,0:0:0:0:
368,216,23040,1,0,0:0:0:0:
144,144,23240,1,0,0:0:0:0:
240,256,23440,1,0,0:0:0:0:
240,224,23506,1,0,0:0:0:0:
240,192,23573,1,0,0:0:0:0:
256,192,23640,12,0,24440,0:0:0:0:
352,40,25240,6,0,P|400:96|392:104,1,93.3333333333333
48,240,25640,2,0,P|72:312|80:312,1,93.3333333333333
120,24,26040,2,0,P|64:72|72:88,1,93.3333333333333
416,248,26440,2,0,P|368:312|360:312,1,93.3333333333333
336,32,26840,2,0,P|392:96|384:104,1,116.666666666667
256,192,27240,12,0,27640,0:0:0:0:
304,112,27640,5,0,0:0:0:0:
272,160,27773,1,0,0:0:0:0:
240,208,27906,1,0,0:0:0:0:
208,256,28040,1,0,0:0:0:0:
176,304,28173,1,0,0:0:0:0:
144,352,28306,1,0,0:0:0:0:
200,96,28440,2,0,P|288:96|296:104,1,93.3333333333333
72,288,28840,1,0,0:0:0:0:
376,104,29040,1,0,0:0:0:0:
184,304,29240,2,0,P|264:304|272:296,1,93.3333333333333
376,104,29640,1,0,0:0:0:0:
96,280,29840,1,0,0:0:0:0:
256,192,30040,12,0,30773,0:0:0:0:
184,112,30840,6,0,P|152:256|152:264,1,140
40,56,31640,1,0,0:0:0:0:
88,56,31773,1,0,0:0:0:0:
136,56,31906,1,0,0:0:0:0:
184,56,32040,1,0,0:0:0:0:
232,56,32173,1,0,0:0:0:0:
280,56,32306,1,0,0:0:0:0:
376,112,32440,1,0,0:0:0:0:
344,160,32573,1,0,0:0:0:0:
312,208,32706,1,0,0:0:0:0:
280,264,32840,1,0,0:0:0:0:
248,320,32973,1,0,0:0:0:0:
208,368,33106,1,0,0:0:0:0:
56,168,33240,1,0,0:0:0:0:
136,168,33373,1,0,0:0:0:0:
216,168,33506,1,0,0:0:0:0:
296,168,33640,1,0,0:0:0:0:
376,168,33773,1,0,0:0:0:0:
456,168,33906,1,0,0:0:0:0:
136,96,34040,5,0,0:0:0:0:
312,288,34240,1,0,0:0:0:0:
328,128,34440,1,0,0:0:0:0:
160,256,34640,1,0,0:0:0:0:
104,56,34840,2,0,P|56:112|64:120,1,93.3333333333333
408,248,35240,2,0,P|376:312|352:304,1,93.3333333333333
120,48,35640,2,0,P|56:104|56:120,1,93.3333333333333
424,240,36040,2,0,P|376:312|368:312,1,93.3333333333333
128,32,36440,2,0,P|64:80|64:88,1,93.3333333333333
96,128,36840,1,0,0:0:0:0:
96,152,36906,1,0,0:0:0:0:
96,176,36973,1,0,0:0:0:0:
96,200,37040,1,0,0:0:0:0:
256,192,37240,12,0,38040,0:0:0:0:
344,72,38440,6,0,P|392:128|384:144,1,93.3333333333333
40,256,38840,2,0,P|72:328|88:328,1,93.3333333333333
344,56,39240,2,0,P|384:128|376:144,1,93.3333333333333
56,224,39640,2,0,P|72:304|80:304,1,116.666666666667
336,48,40040,2,0,P|376:120|360:128,1,116.666666666667
136,256,40440,5,0,0:0:0:0:
384,56,41240,1,0,0:0:0:0:
104,168,41640,1,0,0:0:0:0:
400,296,42040,1,0,0:0:0:0:
88,256,42240,1,0,0:0:0:0:
368,176,42440,1,0,0:0:0:0:
256,192,42840,12,0,43640,0:0:0:0:
344,128,44040,5,0,0:0:0:0:
112,160,44440,5,0,0:0:0:0:
128,192,44540,1,0,0:0:0:0:
144,224,44640,1,0,0:0:0:0:
160,256,44740,1,0,0:0:0:0:
176,288,44840,1,0,0:0:0:0:
400,280,45240,1,0,0:0:0:0:
384,240,45340,1,0,0:0:0:0:
368,200,45440,1,0,0:0:0:0:
352,168,45540,1,0,0:0:0:0:
336,136,45640,1,0,0:0:0:0:
104,64,46040,1,0,0:0:0:0:
160,64,46140,1,0,0:0:0:0:
208,64,46240,1,0,0:0:0:0:
256,64,46340,1,0,0:0:0:0:
304,64,46440,1,0,0:0:0:0:
336,280,46840,5,0,0:0:0:0:
152,144,47040,1,0,0:0:0:0:
328,160,47240,1,0,0:0:0:0:
152,272,47440,1,0,0:0:0:0:
40,80,47640,1,0,0:0:0:0:
256,208,47840,1,0,0:0:0:0:
344,64,48040,1,0,0:0:0:0:
104,304,48240,1,0,0:0:0:0:
208,80,48440,5,0,0:0:0:0:
272,112,48540,1,0,0:0:0:0:
312,176,48640,1,0,0:0:0:0:
312,248,48740,1,0,0:0:0:0:
256,288,48840,1,0,0:0:0:0:
184,288,48940,1,0,0:0:0:0:
128,248,49040,1,0,0:0:0:0:
112,184,49140,1,0,0:0:0:0:
144,128,49240,1,0,0:0:0:0:
368,296,49440,5,0,0:0:0:0:
112,72,49640,1,0,0:0:0:0:
408,232,49840,1,0,0:0:0:0:
256,192,50040,12,0,50840,0:0:0:0:
304,120,51140,5,0,0:0:0:0:
176,256,51440,1,0,0:0:0:0:
152,112,51640,1,0,0:0:0:0:
304,256,51940,1,0,0:0:0:0:
96,184,52240,1,0,0:0:0:0:
112,48,52506,5,0,0:0:0:0:
128,72,52573,1,0,0:0:0:0:
144,96,52640,1,0,0:0:0:0:
160,120,52706,1,0,0:0:0:0:
176,144,52773,1,0,0:0:0:0:
184,264,52840,1,0,0:0:0:0:
232,232,52973,1,0,0:0:0:0:
272,208,53040,1,0,0:0:0:0:
96,64,53240,5,0,0:0:0:0:
392,288,53640,1,0,0:0:0:0:
352,48,54440,1,0,0:0:0:0:
64,328,54840,1,0,0:0:0:0:
432,256,55240,1,0,0:0:0:0:
64,72,55640,1,0,0:0:0:0:
344,216,56040,1,0,0:0:0:0:
344,232,56106,1,0,0:0:0:0:
344,248,56173,1,0,0:0:0:0:
344,264,56240,1,0,0:0:0:0:
256,192,56440,5,0,0:0:0:0:
