osu file format v14

[General]
AudioFilename: Cho-E - Amputator.mp3
AudioLeadIn: 0
PreviewTime: 79522
Countdown: 0
SampleSet: None
StackLeniency: 0.3
Mode: 0
LetterboxInBreaks: 1
WidescreenStoryboard: 1

[Editor]
DistanceSpacing: 1
BeatDivisor: 8
GridSize: 4
TimelineZoom: 1.5

[Metadata]
Title:Amputator
TitleUnicode:Amputator
Artist:Cho-E
ArtistUnicode:Cho-E
Creator:Skystar
Version:juliet
Source:TouchMix HD
Tags:r300k TOMIX Android Gamevil
BeatmapID:2436183
BeatmapSetID:329375

[Difficulty]
HPDrainRate:6
CircleSize:4
OverallDifficulty:8.3
ApproachRate:9.3
SliderMultiplier:3
SliderTickRate:1

[Events]
//Background and Video events
0,0,"BG_Amputator.jpg",0,0
//Break Periods
2,9718,25215
//Storyboard Layer 0 (Background)
//Storyboard Layer 1 (Fail)
//Storyboard Layer 2 (Pass)
//Storyboard Layer 3 (Foreground)
//Storyboard Layer 4 (Overlay)
//Storyboard Sound Samples

[TimingPoints]
75,555.555555555556,4,2,1,60,1,0
3269,-125,4,2,1,60,0,0
5491,-187.96992481203,4,2,1,60,0,0
7713,-125,4,2,1,60,0,0
8963,-187.617260787992,4,2,1,60,0,0
25769,-208.333333333333,4,2,1,60,0,0
26741,-75.187969924812,4,2,1,60,0,0
27158,-75.187969924812,4,2,1,60,0,0
33408,-83.3333333333333,4,2,1,60,0,0
35630,-75.187969924812,4,2,1,60,0,0
42297,-62.5,4,2,1,60,0,0
42575,-75.187969924812,4,2,1,60,0,0
43963,-95.2380952380952,4,2,1,60,0,0
44519,-75.187969924812,4,2,1,60,0,0
60075,-186.915887850467,4,2,1,60,0,0
62297,-150.375939849624,4,2,1,60,0,0
79519,-75.187969924812,4,2,1,60,0,0
80075,-77.8210116731517,4,2,1,60,0,0
87297,-62.5,4,2,1,60,0,0
88408,-149.253731343284,4,2,1,60,0,0
88963,-77.8210116731517,4,2,1,60,0,0
97852,-117.647058823529,4,2,1,60,0,0
113408,-114.942528735632,4,2,1,60,0,0
114519,-53.763440860215,4,2,1,60,0,0
115630,-75.187969924812,4,2,1,60,0,0
136741,-62.5,4,2,1,60,0,0
137852,-75.187969924812,4,2,1,60,0,0
140075,-58.8235294117647,4,2,1,60,0,0
141186,-75.187969924812,4,2,1,60,0,0
145630,-62.5,4,2,1,60,0,0
146741,-75.187969924812,4,2,1,60,0,0
148963,-58.8235294117647,4,2,1,60,0,0
150908,-47.0588235294118,4,2,1,60,0,0

[Colours]
Combo1 : 255,0,0
Combo2 : 255,255,0
Combo3 : 176,39,205

[HitObjects]
280,88,75,5,0,0:0:0:0:
280,88,213,1,0,0:0:0:0:
304,180,491,1,0,0:0:0:0:
304,180,630,1,0,0:0:0:0:
328,272,908,1,0,0:0:0:0:
328,272,1047,5,0,0:0:0:0:
478,343,1325,1,0,0:0:0:0:
478,343,1463,1,0,0:0:0:0:
424,264,1602,1,0,0:0:0:0:
465,177,1741,1,0,0:0:0:0:
465,177,1880,1,0,0:0:0:0:
328,272,2158,5,0,0:0:0:0:
424,264,2297,1,0,0:0:0:0:
328,272,2713,1,0,0:0:0:0:
328,272,2851,1,0,0:0:0:0:
232,280,3130,1,0,0:0:0:0:
232,280,3269,2,0,L|104:292,2,120,0|0|0,0:0|0:0|0:0,0:0:0:0:
424,264,3963,5,0,0:0:0:0:
322,137,4380,1,0,0:0:0:0:
322,137,4519,5,0,0:0:0:0:
424,264,4936,1,0,0:0:0:0:
424,264,5075,1,0,0:0:0:0:
322,137,5352,1,0,0:0:0:0:
322,137,5491,2,0,L|320:240,1,80,0|0,0:0|0:0,0:0:0:0:
320,252,5908,1,0,0:0:0:0:
276,372,6186,5,0,0:0:0:0:
276,372,6325,1,0,0:0:0:0:
168,272,6602,1,0,0:0:0:0:
168,272,6741,5,0,0:0:0:0:
44,332,7158,1,0,0:0:0:0:
44,332,7297,1,0,0:0:0:0:
96,107,7575,1,0,0:0:0:0:
96,107,7713,6,0,L|175:101,1,60,0|0,0:0|0:0,0:0:0:0:
237,126,7991,1,0,0:0:0:0:
237,126,8130,2,0,L|316:120,1,60,0|0,0:0|0:0,0:0:0:0:
372,84,8408,1,0,0:0:0:0:
256,316,8825,5,0,0:0:0:0:
256,200,8963,2,0,B|251:170|268:148|268:148|231:166|224:214|248:247,1,160,0|0,0:0|0:0,0:0:0:0:
40,144,25769,6,0,L|58:99,1,36.0000013732911,0|0,0:0|0:0,0:0:0:0:
72,124,26186,6,0,L|92:76,1,36.0000013732911,0|0,0:0|0:0,0:0:0:0:
104,104,26463,6,0,L|124:56,1,36.0000013732911,0|0,0:0|0:0,0:0:0:0:
220,213,26741,6,0,B|164:200|116:248|116:248|120:231|120:208,1,150,0|0,0:0|0:0,0:0:0:0:
132,136,27019,2,0,P|184:124|240:132,1,100,0|0,0:0|0:0,0:0:0:0:
196,300,27297,1,0,0:0:0:0:
40,220,27436,1,0,0:0:0:0:
224,312,27575,1,0,0:0:0:0:
229,128,27713,5,0,0:0:0:0:
220,100,27783,1,0,0:0:0:0:
208,72,27852,1,0,0:0:0:0:
336,124,27991,5,0,0:0:0:0:
464,176,28130,2,0,L|488:68,1,100,0|0,0:0|0:0,0:0:0:0:
376,208,28409,5,0,0:0:0:0:
248,260,28548,1,0,0:0:0:0:
120,312,28686,2,0,L|96:204,1,100,0|0,0:0|0:0,0:0:0:0:
92,184,28894,1,0,0:0:0:0:
85,154,28963,6,0,P|128:120|224:124,1,150,0|0,0:0|0:0,0:0:0:0:
312,96,29241,2,0,P|272:120|219:121,1,100,0|0,0:0|0:0,0:0:0:0:
56,40,29519,1,0,0:0:0:0:
220,120,29658,1,0,0:0:0:0:
4,192,29797,1,0,0:0:0:0:
120,312,29936,5,0,0:0:0:0:
132,284,30006,1,0,0:0:0:0:
144,256,30075,1,0,0:0:0:0:
236,360,30213,1,0,0:0:0:0:
264,224,30352,2,0,P|308:212|376:232,1,100,0|0,0:0|0:0,0:0:0:0:
494,290,30630,6,0,L|360:222,1,150,0|0,0:0|0:0,0:0:0:0:
320,292,30908,2,0,L|409:336,1,100,0|0,0:0|0:0,0:0:0:0:
360,222,31116,1,0,0:0:0:0:
360,222,31186,6,0,P|292:216|240:292,1,150,0|0,0:0|0:0,0:0:0:0:
192,336,31463,2,0,L|76:356,1,100,0|0,0:0|0:0,0:0:0:0:
176,212,31740,1,0,0:0:0:0:
20,240,31880,1,0,0:0:0:0:
164,184,32019,1,0,0:0:0:0:
284,312,32158,5,0,0:0:0:0:
272,284,32228,1,0,0:0:0:0:
260,256,32297,1,0,0:0:0:0:
416,300,32436,1,0,0:0:0:0:
492,160,32575,2,0,P|448:148|376:176,1,100,0|0,0:0|0:0,0:0:0:0:
260,256,32853,5,0,0:0:0:0:
412,328,32991,1,0,0:0:0:0:
504,188,33130,2,0,L|468:72,1,100,0|0,0:0|0:0,0:0:0:0:
290,275,33408,54,0,L|290:231,1,44.999998626709,0|0,0:0|0:0,0:0:0:0:
290,166,33547,1,0,0:0:0:0:
333,339,33686,1,0,0:0:0:0:
136,319,33825,1,0,0:0:0:0:
201,277,33963,54,0,L|200:232,1,44.999998626709,0|0,0:0|0:0,0:0:0:0:
200,167,34102,1,0,0:0:0:0:
244,341,34241,1,0,0:0:0:0:
46,320,34380,1,0,0:0:0:0:
111,278,34519,54,0,L|110:233,1,44.999998626709,0|0,0:0|0:0,0:0:0:0:
110,168,34658,1,0,0:0:0:0:
110,168,34936,5,0,0:0:0:0:
224,369,35075,54,0,L|194:335,1,44.999998626709,0|0,0:0|0:0,0:0:0:0:
271,254,35213,2,0,L|254:211,1,44.999998626709,0|0,0:0|0:0,0:0:0:0:
354,162,35352,2,0,L|352:116,1,44.999998626709,0|0,0:0|0:0,0:0:0:0:
463,103,35491,2,0,L|477:60,1,44.999998626709,0|0,0:0|0:0,0:0:0:0:
329,188,35630,6,0,B|304:224|256:236|256:236|248:204|255:175,1,150,0|0,0:0|0:0,0:0:0:0:
182,240,35908,2,0,P|201:285|244:309,1,100,0|0,0:0|0:0,0:0:0:0:
396,224,36186,2,0,P|404:176|368:120,1,100,0|0,0:0|0:0,0:0:0:0:
184,152,36463,1,0,0:0:0:0:
244,309,36602,5,0,0:0:0:0:
273,318,36672,1,0,0:0:0:0:
301,327,36741,1,0,0:0:0:0:
388,200,36880,1,0,0:0:0:0:
256,120,37019,2,0,L|136:140,1,100,0|0,0:0|0:0,0:0:0:0:
112,308,37297,5,0,0:0:0:0:
128,144,37436,1,0,0:0:0:0:
240,320,37575,2,0,L|140:320,1,100,0|0,0:0|0:0,0:0:0:0:
32,316,37783,1,0,0:0:0:0:
32,316,37852,6,0,P|64:243|140:232,1,150,0|0,0:0|0:0,0:0:0:0:
212,308,38130,2,0,L|112:308,1,100,0|0,0:0|0:0,0:0:0:0:
128,144,38408,1,0,0:0:0:0:
264,240,38547,1,0,0:0:0:0:
156,132,38686,1,0,0:0:0:0:
264,24,38825,6,0,L|336:28,1,50,0|0,0:0|0:0,0:0:0:0:
427,22,38963,2,0,L|332:52,1,100,0|0,0:0|0:0,0:0:0:0:
184,120,39241,2,0,P|128:128|72:80,1,100,0|0,0:0|0:0,0:0:0:0:
264,24,39519,6,0,L|292:196,1,150,0|0,0:0|0:0,0:0:0:0:
306,279,39797,2,0,L|316:180,1,100,0|0,0:0|0:0,0:0:0:0:
228,288,40005,1,0,0:0:0:0:
228,288,40075,6,0,P|260:344|356:340,1,150,0|0,0:0|0:0,0:0:0:0:
410,378,40352,2,0,P|411:329|384:287,1,100,0|0,0:0|0:0,0:0:0:0:
260,172,40630,1,0,0:0:0:0:
276,352,40769,1,0,0:0:0:0:
165,182,40908,2,0,P|211:163|260:172,1,100,0|0,0:0|0:0,0:0:0:0:
288,188,41116,1,0,0:0:0:0:
308,212,41186,5,0,0:0:0:0:
152,264,41325,1,0,0:0:0:0:
208,108,41463,2,0,L|224:220,1,100,0|0,0:0|0:0,0:0:0:0:
276,352,41741,5,0,0:0:0:0:
380,224,41880,1,0,0:0:0:0:
402,383,42019,2,0,L|304:364,1,100,0|0,0:0|0:0,0:0:0:0:
99,161,42297,6,0,B|80:127|80:127|88:32,1,119.999996337891,0|0,0:0|0:0,0:0:0:0:
233,303,42575,2,0,L|241:375,2,50,0|0|0,0:0|0:0|0:0,0:0:0:0:
266,87,42852,5,0,0:0:0:0:
196,228,42991,1,0,0:0:0:0:
332,296,43130,2,0,B|356:268|356:268|360:192,1,100,0|0,0:0|0:0,0:0:0:0:
359,204,43338,1,0,0:0:0:0:
359,204,43408,5,0,0:0:0:0:
248,328,43547,1,0,0:0:0:0:
348,184,43686,5,0,0:0:0:0:
459,308,43825,1,0,0:0:0:0:
344,100,43963,6,0,L|268:108,1,40,0|0,0:0|0:0,0:0:0:0:
260,308,44102,2,0,L|184:300,1,40,0|0,0:0|0:0,0:0:0:0:
156,96,44241,6,0,L|80:104,1,40,0|0,0:0|0:0,0:0:0:0:
72,304,44380,2,0,L|-4:296,1,40,0|0,0:0|0:0,0:0:0:0:
35,44,44519,5,0,0:0:0:0:
176,119,45075,1,0,0:0:0:0:
313,38,45491,1,0,0:0:0:0:
446,126,45908,1,0,0:0:0:0:
412,198,46186,1,0,0:0:0:0:
452,267,46741,5,0,0:0:0:0:
295,301,47297,1,0,0:0:0:0:
260,144,47713,1,0,0:0:0:0:
102,169,48130,1,0,0:0:0:0:
260,144,48408,5,0,0:0:0:0:
260,144,48825,1,0,0:0:0:0:
260,144,48964,1,0,0:0:0:0:
194,289,49519,1,0,0:0:0:0:
179,129,49936,1,0,0:0:0:0:
335,98,50352,1,0,0:0:0:0:
378,164,50630,1,0,0:0:0:0:
341,235,51186,5,0,0:0:0:0:
466,333,51741,1,0,0:0:0:0:
480,173,52158,1,0,0:0:0:0:
390,306,52436,5,0,0:0:0:0:
352,318,52575,1,0,0:0:0:0:
314,330,52852,1,0,0:0:0:0:
276,342,52991,1,0,0:0:0:0:
127,319,53269,1,0,0:0:0:0:
127,319,53408,5,0,0:0:0:0:
242,207,53963,1,0,0:0:0:0:
93,146,54380,1,0,0:0:0:0:
240,83,54797,1,0,0:0:0:0:
307,125,55075,1,0,0:0:0:0:
374,82,55630,5,0,0:0:0:0:
408,238,56186,1,0,0:0:0:0:
459,86,56602,1,0,0:0:0:0:
408,238,56880,5,0,0:0:0:0:
412,276,57019,1,0,0:0:0:0:
444,299,57297,1,0,0:0:0:0:
482,292,57436,1,0,0:0:0:0:
468,180,57713,1,0,0:0:0:0:
468,180,57852,5,0,0:0:0:0:
317,125,58408,1,0,0:0:0:0:
225,256,58825,1,0,0:0:0:0:
155,216,59241,1,0,0:0:0:0:
93,267,59519,1,0,0:0:0:0:
93,267,60075,6,0,P|111:214|89:141,1,120,0|0,0:0|0:0,0:0:0:0:
78,117,60630,1,0,0:0:0:0:
267,37,61047,2,0,P|327:65|347:142,1,120,0|0,0:0|0:0,0:0:0:0:
329,146,61741,1,0,0:0:0:0:
315,182,61880,1,0,0:0:0:0:
330,218,62019,1,0,0:0:0:0:
366,234,62158,1,0,0:0:0:0:
464,96,62297,6,0,L|352:104,1,100,0|0,0:0|0:0,0:0:0:0:
200,64,62713,2,0,L|299:56,1,100,0|0,0:0|0:0,0:0:0:0:
428,204,63130,2,0,L|316:212,1,100,0|0,0:0|0:0,0:0:0:0:
256,264,63547,2,0,L|252:328,1,50,0|0,0:0|0:0,0:0:0:0:
172,288,63825,1,0,0:0:0:0:
72,200,63963,2,0,L|56:92,1,100,0|0,0:0|0:0,0:0:0:0:
148,52,64380,1,0,0:0:0:0:
148,52,64519,6,0,P|192:44|248:88,1,100,0|0,0:0|0:0,0:0:0:0:
288,152,64936,1,0,0:0:0:0:
416,312,65213,1,0,0:0:0:0:
332,280,65351,2,0,P|276:272|220:304,1,100,0|0,0:0|0:0,0:0:0:0:
168,344,65769,2,0,L|104:340,1,50,0|0,0:0|0:0,0:0:0:0:
9,275,66047,1,0,0:0:0:0:
98,266,66186,2,0,P|110:246|103:204,1,50,0|0,0:0|0:0,0:0:0:0:
58,145,66463,1,0,0:0:0:0:
200,260,66602,1,0,0:0:0:0:
200,260,66672,1,0,0:0:0:0:
200,260,66741,6,0,L|308:268,1,100,0|0,0:0|0:0,0:0:0:0:
414,317,67158,2,0,B|404:368|404:368|372:332,1,100,0|0,0:0|0:0,0:0:0:0:
320,172,67575,2,0,B|309:121|309:121|277:157,1,100,0|0,0:0|0:0,0:0:0:0:
200,260,67991,2,0,L|144:264,2,50,0|0|0,0:0|0:0|0:0,0:0:0:0:
304,296,68408,2,0,L|296:360,1,50,0|0,0:0|0:0,0:0:0:0:
252,116,68686,2,0,L|244:52,1,50,0|0,0:0|0:0,0:0:0:0:
420,68,68963,6,0,P|380:95|332:88,1,100,0|0,0:0|0:0,0:0:0:0:
80,88,69380,2,0,P|128:80|168:107,1,100,0|0,0:0|0:0,0:0:0:0:
204,184,69797,1,0,0:0:0:0:
372,12,70075,1,0,0:0:0:0:
396,88,70213,2,0,P|348:88|296:40,1,100,0|0,0:0|0:0,0:0:0:0:
224,40,70630,2,0,L|232:100,1,50,0|0,0:0|0:0,0:0:0:0:
204,184,70908,1,0,0:0:0:0:
64,116,71047,1,0,0:0:0:0:
64,116,71116,1,0,0:0:0:0:
64,116,71186,6,0,P|87:154|77:215,1,100,0|0,0:0|0:0,0:0:0:0:
180,232,71602,2,0,P|165:274|112:305,1,100,0|0,0:0|0:0,0:0:0:0:
240,340,72019,2,0,B|268:324|268:324|340:328,1,100,0|0,0:0|0:0,0:0:0:0:
484,260,72436,2,0,B|456:244|456:244|384:248,1,100,0|0,0:0|0:0,0:0:0:0:
308,192,72852,2,0,B|288:144|288:144|304:92,1,100,0|0,0:0|0:0,0:0:0:0:
372,140,73269,1,0,0:0:0:0:
224,176,73408,6,0,B|184:168|184:168|160:176|160:176|112:168,1,100,0|0,0:0|0:0,0:0:0:0:
68,120,73825,1,0,0:0:0:0:
376,268,74102,1,0,0:0:0:0:
304,296,74241,2,0,B|264:304|264:304|240:296|240:296|192:304,1,100,0|0,0:0|0:0,0:0:0:0:
120,300,74658,2,0,L|136:352,1,50,0|0,0:0|0:0,0:0:0:0:
52,240,74936,1,0,0:0:0:0:
119,134,75075,2,0,L|116:184,1,50,0|0,0:0|0:0,0:0:0:0:
172,64,75352,1,0,0:0:0:0:
92,52,75491,1,0,0:0:0:0:
240,112,75630,6,0,P|292:116|328:64,1,100,0|0,0:0|0:0,0:0:0:0:
340,200,76047,2,0,P|392:196|428:248,1,100,0|0,0:0|0:0,0:0:0:0:
456,112,76463,1,0,0:0:0:0:
456,112,76741,1,0,0:0:0:0:
432,204,76880,2,0,L|428:308,1,100,0|0,0:0|0:0,0:0:0:0:
292,128,77297,2,0,L|295:28,1,100,0|0,0:0|0:0,0:0:0:0:
192,192,77713,1,0,0:0:0:0:
192,192,77783,1,0,0:0:0:0:
192,192,77852,6,0,B|152:208|152:208|88:200,1,100,0|0,0:0|0:0,0:0:0:0:
140,124,78269,1,0,0:0:0:0:
356,344,78547,1,0,0:0:0:0:
408,276,78686,2,0,B|368:260|368:260|304:268,1,100,0|0,0:0|0:0,0:0:0:0:
196,328,79102,1,0,0:0:0:0:
208,332,79172,1,0,0:0:0:0:
220,336,79241,1,0,0:0:0:0:
324,260,79380,1,0,0:0:0:0:
180,160,79519,6,0,P|120:204|172:264,1,150,0|0,0:0|0:0,0:0:0:0:
228,252,79797,2,0,P|240:204|200:164,1,100,0|0,0:0|0:0,0:0:0:0:
216,344,80075,6,0,L|416:328,1,191.999994140625,0|0,0:0|0:0,0:0:0:0:
472,176,80491,5,0,0:0:0:0:
440,184,80561,1,0,0:0:0:0:
408,192,80630,1,0,0:0:0:0:
512,256,80769,1,0,0:0:0:0:
400,100,80908,1,0,0:0:0:0:
328,240,81047,1,0,0:0:0:0:
480,56,81186,6,0,P|444:16|380:8,1,95.9999970703126,0|0,0:0|0:0,0:0:0:0:
308,24,81463,1,0,0:0:0:0:
172,160,81602,1,0,0:0:0:0:
172,160,81672,1,0,0:0:0:0:
172,160,81741,2,0,P|124:168|80:152,1,95.9999970703126,0|0,0:0|0:0,0:0:0:0:
232,84,82019,6,0,P|268:152|244:228,1,143.999995605469,0|0,0:0|0:0,0:0:0:0:
244,332,82297,2,0,P|225:289|233:241,1,95.9999970703126,0|0,0:0|0:0,0:0:0:0:
252,80,82575,5,0,0:0:0:0:
304,280,82713,1,0,0:0:0:0:
328,120,82852,5,0,0:0:0:0:
380,260,82991,1,0,0:0:0:0:
404,160,83130,5,0,0:0:0:0:
456,276,83269,1,0,0:0:0:0:
233,241,83408,6,0,P|225:289|244:332,1,95.9999970703126,0|0,0:0|0:0,0:0:0:0:
136,216,83686,1,0,0:0:0:0:
180,72,83825,1,0,0:0:0:0:
212,68,83894,1,0,0:0:0:0:
244,62,83963,2,0,P|235:110|204:144,1,95.9999970703126,0|0,0:0|0:0,0:0:0:0:
108,208,84241,5,0,0:0:0:0:
328,88,84380,1,0,0:0:0:0:
328,88,84450,1,0,0:0:0:0:
328,88,84519,5,0,0:0:0:0:
388,244,84658,1,0,0:0:0:0:
360,88,84797,1,0,0:0:0:0:
440,220,84936,1,0,0:0:0:0:
264,176,85075,6,0,L|208:172,2,47.9999985351563,0|0|0,0:0|0:0|0:0,0:0:0:0:
320,348,85352,1,0,0:0:0:0:
144,304,85491,1,0,0:0:0:0:
112,312,85561,1,0,0:0:0:0:
80,320,85630,5,0,0:0:0:0:
232,320,85769,1,0,0:0:0:0:
32,248,85908,1,0,0:0:0:0:
200,236,86047,1,0,0:0:0:0:
320,348,86186,6,0,P|340:364|368:372,2,47.9999985351563,0|0|0,0:0|0:0|0:0,0:0:0:0:
264,176,86463,1,0,0:0:0:0:
380,32,86602,1,0,0:0:0:0:
492,136,86741,6,0,P|416:160|320:96,1,192.749993235398,0|0,0:0|0:0,0:0:0:0:
224,52,87158,1,0,0:0:0:0:
120,100,87297,6,0,P|80:152|84:208,1,120.000004577637,0|0,0:0|0:0,0:0:0:0:
228,256,87575,2,0,P|202:195|152:170,1,120.000004577637,0|0,0:0|0:0,0:0:0:0:
38,271,87852,1,0,0:0:0:0:
38,271,87991,2,0,P|103:279|149:248,1,120.000004577637,0|0,0:0|0:0,0:0:0:0:
215,91,88269,1,0,0:0:0:0:
215,91,88338,1,0,0:0:0:0:
215,91,88408,6,0,B|264:92,1,50,0|0,0:0|0:0,0:0:0:0:
356,152,88686,6,0,B|408:152,1,50,0|0,0:0|0:0,0:0:0:0:
484,60,88963,6,0,L|264:68,1,192.749993235398,0|0,0:0|0:0,0:0:0:0:
96,116,89380,5,0,0:0:0:0:
64,128,89450,1,0,0:0:0:0:
32,140,89519,2,0,L|132:148,1,95.9999970703126,0|0,0:0|0:0,0:0:0:0:
212,224,89797,1,0,0:0:0:0:
216,72,89936,1,0,0:0:0:0:
176,332,90075,6,0,P|136:360|88:360,1,95.9999970703126,0|0,0:0|0:0,0:0:0:0:
16,272,90352,1,0,0:0:0:0:
96,116,90491,1,0,0:0:0:0:
64,128,90561,1,0,0:0:0:0:
32,140,90630,1,0,0:0:0:0:
112,280,90769,1,0,0:0:0:0:
172,148,90908,6,0,P|172:88|104:32,1,143.999995605469,0|0,0:0|0:0,0:0:0:0:
80,36,91186,2,0,P|128:52|184:40,1,95.9999970703126,0|0,0:0|0:0,0:0:0:0:
288,28,91463,1,0,0:0:0:0:
400,44,91602,1,0,0:0:0:0:
481,202,91741,6,0,P|500:160|492:112,1,95.9999970703126,0|0,0:0|0:0,0:0:0:0:
292,266,92019,2,0,P|336:280|384:268,1,95.9999970703126,0|0,0:0|0:0,0:0:0:0:
216,112,92297,6,0,L|192:268,1,143.999995605469,0|0,0:0|0:0,0:0:0:0:
194,254,92575,1,0,0:0:0:0:
124,120,92713,1,0,0:0:0:0:
120,88,92783,1,0,0:0:0:0:
116,56,92852,1,0,0:0:0:0:
64,188,92991,1,0,0:0:0:0:
244,124,93130,5,0,0:0:0:0:
24,28,93269,1,0,0:0:0:0:
24,28,93338,1,0,0:0:0:0:
24,28,93408,5,0,0:0:0:0:
204,24,93547,1,0,0:0:0:0:
44,168,93686,1,0,0:0:0:0:
192,204,93825,2,0,L|292:208,1,95.9999970703126,0|0,0:0|0:0,0:0:0:0:
328,284,94033,6,0,L|388:272,1,47.9999985351563,0|0,0:0|0:0,0:0:0:0:
492,144,94241,1,0,0:0:0:0:
336,68,94380,2,0,L|296:104,1,47.9999985351563,0|0,0:0|0:0,0:0:0:0:
216,192,94519,5,0,0:0:0:0:
232,44,94658,1,0,0:0:0:0:
64,192,94797,1,0,0:0:0:0:
48,16,94936,2,0,L|148:32,1,95.9999970703126,0|0,0:0|0:0,0:0:0:0:
216,192,95213,1,0,0:0:0:0:
232,44,95352,1,0,0:0:0:0:
336,152,95491,1,0,0:0:0:0:
400,76,95630,5,0,0:0:0:0:
456,196,95769,1,0,0:0:0:0:
364,292,95908,2,0,P|335:300|296:304,2,47.9999985351563,0|0|0,0:0|0:0|0:0,0:0:0:0:
292,180,96186,1,0,0:0:0:0:
160,212,96325,1,0,0:0:0:0:
88,324,96463,2,0,P|96:351|112:376,2,47.9999985351563,0|0|0,0:0|0:0|0:0,0:0:0:0:
42,143,96741,2,0,P|89:146|130:170,1,95.9999970703126,0|0,0:0|0:0,0:0:0:0:
130,170,96950,5,0,0:0:0:0:
130,170,97019,1,0,0:0:0:0:
249,125,97158,2,0,L|243:66,1,47.9999985351563,0|0,0:0|0:0,0:0:0:0:
233,6,97297,1,0,0:0:0:0:
233,6,97436,1,0,0:0:0:0:
233,6,97575,1,0,0:0:0:0:
233,6,97713,2,0,L|220:73,1,47.9999985351563,0|0,0:0|0:0,0:0:0:0:
221,223,97852,5,0,0:0:0:0:
401,228,98130,2,0,L|312:236,1,64,0|0,0:0|0:0,0:0:0:0:
164,292,98408,2,0,L|248:296,1,64,0|0,0:0|0:0,0:0:0:0:
227,295,98616,1,0,0:0:0:0:
227,295,98686,1,0,0:0:0:0:
300,352,98825,1,0,0:0:0:0:
280,128,98963,6,0,P|232:128|152:136,1,128,0|0,0:0|0:0,0:0:0:0:
64,188,99380,1,0,0:0:0:0:
116,368,99519,2,0,P|120:324|112:244,1,96,0|0,0:0|0:0,0:0:0:0:
117,272,99797,1,0,0:0:0:0:
262,363,99936,1,0,0:0:0:0:
262,363,100005,1,0,0:0:0:0:
262,363,100075,6,0,P|258:331|262:291,1,64,0|0,0:0|0:0,0:0:0:0:
320,136,100352,1,0,0:0:0:0:
380,212,100491,2,0,P|388:260|380:348,1,128,0|0,0:0|0:0,0:0:0:0:
382,338,100908,1,0,0:0:0:0:
480,200,101047,6,0,P|476:144|484:60,1,128,0|0,0:0|0:0,0:0:0:0:
296,36,101463,2,0,P|300:68|300:120,1,64,0|0,0:0|0:0,0:0:0:0:
300,99,101672,1,0,0:0:0:0:
224,216,101811,1,0,0:0:0:0:
224,216,101880,6,0,L|144:208,1,64,0|0,0:0|0:0,0:0:0:0:
44,56,102158,1,0,0:0:0:0:
44,56,102227,1,0,0:0:0:0:
44,56,102297,6,0,P|96:48|152:56,1,96,0|0,0:0|0:0,0:0:0:0:
138,52,102575,2,0,L|146:141,1,64,0|0,0:0|0:0,0:0:0:0:
202,289,102852,2,0,L|206:205,1,64,0|0,0:0|0:0,0:0:0:0:
205,226,103061,1,0,0:0:0:0:
205,226,103130,1,0,0:0:0:0:
128,344,103269,1,0,0:0:0:0:
300,248,103408,6,0,P|288:192|288:120,1,128,0|0,0:0|0:0,0:0:0:0:
360,64,103825,1,0,0:0:0:0:
488,180,103963,2,0,P|444:184|364:176,1,96,0|0,0:0|0:0,0:0:0:0:
392,181,104241,1,0,0:0:0:0:
269,295,104380,1,0,0:0:0:0:
269,295,104450,1,0,0:0:0:0:
269,295,104519,6,0,P|273:259|269:207,1,64,0|0,0:0|0:0,0:0:0:0:
148,49,104797,1,0,0:0:0:0:
44,56,104936,2,0,P|36:112|48:196,1,128,0|0,0:0|0:0,0:0:0:0:
44,182,105352,1,0,0:0:0:0:
100,324,105491,6,0,L|192:308,1,64,0|0,0:0|0:0,0:0:0:0:
348,200,105769,1,0,0:0:0:0:
348,200,105908,2,0,L|284:210,1,64,0|0,0:0|0:0,0:0:0:0:
92,332,106186,5,0,0:0:0:0:
212,340,106325,1,0,0:0:0:0:
332,348,106463,1,0,0:0:0:0:
452,356,106602,1,0,0:0:0:0:
504,44,106741,6,0,P|516:104|508:156,1,96,0|0,0:0|0:0,0:0:0:0:
512,138,107019,2,0,L|423:130,1,64,0|0,0:0|0:0,0:0:0:0:
275,74,107297,2,0,L|359:70,1,64,0|0,0:0|0:0,0:0:0:0:
338,71,107505,1,0,0:0:0:0:
338,71,107575,1,0,0:0:0:0:
200,152,107713,1,0,0:0:0:0:
364,192,107852,6,0,P|364:240|372:320,1,128,0|0,0:0|0:0,0:0:0:0:
165,310,108269,1,0,0:0:0:0:
200,152,108408,2,0,P|204:108|196:28,1,96,0|0,0:0|0:0,0:0:0:0:
201,56,108686,1,0,0:0:0:0:
128,231,108825,1,0,0:0:0:0:
128,231,108894,1,0,0:0:0:0:
128,231,108963,6,0,P|160:227|200:231,1,64,0|0,0:0|0:0,0:0:0:0:
320,271,109241,1,0,0:0:0:0:
512,192,109380,2,0,P|448:198|385:189,1,128,0|0,0:0|0:0,0:0:0:0:
385,189,109797,1,0,0:0:0:0:
168,104,109936,6,0,P|231:95|294:101,1,128,0|0,0:0|0:0,0:0:0:0:
420,284,110352,2,0,L|432:364,1,64,0|0,0:0|0:0,0:0:0:0:
429,347,110561,1,0,0:0:0:0:
288,240,110700,1,0,0:0:0:0:
288,240,110769,6,0,L|291:318,1,64,0|0,0:0|0:0,0:0:0:0:
152,224,111047,1,0,0:0:0:0:
152,224,111116,1,0,0:0:0:0:
152,224,111186,6,0,P|168:273|170:330,1,96,0|0,0:0|0:0,0:0:0:0:
171,316,111463,2,0,L|82:324,1,64,0|0,0:0|0:0,0:0:0:0:
20,128,111741,2,0,L|104:132,1,64,0|0,0:0|0:0,0:0:0:0:
83,131,111950,1,0,0:0:0:0:
83,131,112019,1,0,0:0:0:0:
152,224,112158,1,0,0:0:0:0:
272,152,112297,6,0,P|272:92|256:8,1,128,0|0,0:0|0:0,0:0:0:0:
368,176,112713,1,0,0:0:0:0:
236,236,112852,2,0,P|240:280|260:344,1,96,0|0,0:0|0:0,0:0:0:0:
253,329,113130,1,0,0:0:0:0:
162,140,113269,1,0,0:0:0:0:
162,140,113338,1,0,0:0:0:0:
162,140,113408,6,0,L|156:59,1,64.9999970245363,0|0,0:0|0:0,0:0:0:0:
268,43,113686,54,0,L|272:127,1,64.9999970245363,0|0,0:0|0:0,0:0:0:0:
278,183,113963,2,0,L|282:267,1,64.9999970245363,0|0,0:0|0:0,0:0:0:0:
288,323,114241,53,0,0:0:0:0:
292,327,114311,1,0,0:0:0:0:
296,331,114380,1,0,0:0:0:0:
109,365,114519,54,0,B|95:332|95:332|103:275,1,69.9999978637696,0|0,0:0|0:0,0:0:0:0:
288,323,114658,2,0,L|284:242,1,69.9999978637696,0|0,0:0|0:0,0:0:0:0:
86,156,114797,54,0,B|84:123|84:123|108:86,1,69.9999978637696,0|0,0:0|0:0,0:0:0:0:
278,183,114936,2,0,L|274:102,1,69.9999978637696,0|0,0:0|0:0,0:0:0:0:
156,22,115075,54,0,L|230:18,1,69.9999978637696,0|0,0:0|0:0,0:0:0:0:
393,69,115213,2,0,B|407:102|407:102|399:159,1,69.9999978637696,0|0,0:0|0:0,0:0:0:0:
205,198,115352,54,0,L|278:194,1,69.9999978637696,0|0,0:0|0:0,0:0:0:0:
416,278,115491,2,0,B|418:311|418:311|394:348,1,69.9999978637696,0|0,0:0|0:0,0:0:0:0:
172,212,115630,6,0,L|8:200,1,150,0|0,0:0|0:0,0:0:0:0:
23,201,115908,1,0,0:0:0:0:
184,292,116047,2,0,P|232:272|256:216,1,100,0|0,0:0|0:0,0:0:0:0:
176,68,116325,1,0,0:0:0:0:
176,68,116394,1,0,0:0:0:0:
176,68,116463,1,0,0:0:0:0:
100,168,116602,1,0,0:0:0:0:
276,196,116741,6,0,L|392:192,1,100,0|0,0:0|0:0,0:0:0:0:
376,192,116950,1,0,0:0:0:0:
376,192,117019,1,0,0:0:0:0:
480,280,117158,2,0,P|484:332|456:380,1,100,0|0,0:0|0:0,0:0:0:0:
256,296,117436,1,0,0:0:0:0:
228,300,117505,1,0,0:0:0:0:
200,304,117575,1,0,0:0:0:0:
172,308,117644,1,0,0:0:0:0:
144,312,117713,1,0,0:0:0:0:
28,112,117852,6,0,B|16:12|16:12|56:44,1,150,0|0,0:0|0:0,0:0:0:0:
128,80,118130,2,0,L|120:200,1,100,0|0,0:0|0:0,0:0:0:0:
324,348,118408,2,0,P|340:296|320:240,1,100,0|0,0:0|0:0,0:0:0:0:
329,253,118616,1,0,0:0:0:0:
329,253,118686,1,0,0:0:0:0:
160,208,118825,1,0,0:0:0:0:
356,120,118963,5,0,0:0:0:0:
160,208,119102,2,0,L|40:208,1,100,0|0,0:0|0:0,0:0:0:0:
194,61,119380,2,0,B|252:44|292:72|292:72|320:28|376:36,1,200,0|0,0:0|0:0,0:0:0:0:
376,35,119727,1,0,0:0:0:0:
376,35,119797,1,0,0:0:0:0:
329,253,119936,2,0,L|312:332,1,50,0|0,0:0|0:0,0:0:0:0:
240,340,120075,6,0,L|80:336,1,150,0|0,0:0|0:0,0:0:0:0:
91,336,120352,1,0,0:0:0:0:
308,168,120491,2,0,P|364:172|412:232,1,100,0|0,0:0|0:0,0:0:0:0:
168,224,120769,1,0,0:0:0:0:
140,220,120838,1,0,0:0:0:0:
112,216,120908,1,0,0:0:0:0:
192,300,121047,6,0,P|244:256|240:196,1,100,0|0,0:0|0:0,0:0:0:0:
116,48,121325,1,0,0:0:0:0:
88,44,121394,1,0,0:0:0:0:
60,40,121463,2,0,L|72:156,1,100,0|0,0:0|0:0,0:0:0:0:
71,139,121672,1,0,0:0:0:0:
71,139,121741,1,0,0:0:0:0:
213,191,121880,5,0,0:0:0:0:
250,181,121950,1,0,0:0:0:0:
287,170,122019,1,0,0:0:0:0:
324,160,122088,1,0,0:0:0:0:
362,149,122158,1,0,0:0:0:0:
399,138,122227,1,0,0:0:0:0:
436,128,122297,2,0,L|530:106,1,50,0|0,0:0|0:0,0:0:0:0:
424,268,122436,6,0,L|489:252,1,50,0|0,0:0|0:0,0:0:0:0:
388,278,122575,1,0,0:0:0:0:
351,289,122644,1,0,0:0:0:0:
314,299,122713,1,0,0:0:0:0:
277,310,122783,1,0,0:0:0:0:
240,320,122852,2,0,B|204:325|204:325|145:309,1,50,0|0,0:0|0:0,0:0:0:0:
88,272,122991,5,0,0:0:0:0:
88,272,123061,1,0,0:0:0:0:
88,272,123130,2,0,L|80:188,1,50,0|0,0:0|0:0,0:0:0:0:
160,124,123269,2,0,L|168:40,1,50,0|0,0:0|0:0,0:0:0:0:
268,32,123408,6,0,L|388:28,1,100,0|0,0:0|0:0,0:0:0:0:
368,28,123616,1,0,0:0:0:0:
368,28,123686,5,0,0:0:0:0:
464,176,123825,1,0,0:0:0:0:
464,176,123894,1,0,0:0:0:0:
464,176,123963,6,0,L|452:256,1,50,0|0,0:0|0:0,0:0:0:0:
392,340,124102,2,0,B|364:340|364:340|324:324,1,50,0|0,0:0|0:0,0:0:0:0:
272,224,124241,2,0,L|284:152,1,50,0|0,0:0|0:0,0:0:0:0:
160,124,124380,2,0,L|152:56,1,50,0|0,0:0|0:0,0:0:0:0:
304,91,124519,6,0,B|410:106|410:106|450:62,1,150,0|0,0:0|0:0,0:0:0:0:
456,56,124797,1,0,0:0:0:0:
304,184,124936,1,0,0:0:0:0:
436,264,125075,2,0,B|448:316|448:316|436:372,1,100,0|0,0:0|0:0,0:0:0:0:
438,361,125283,1,0,0:0:0:0:
438,361,125352,1,0,0:0:0:0:
276,272,125491,6,0,B|212:264|212:264|160:300|160:300|88:292,1,200,0|0,0:0|0:0,0:0:0:0:
88,292,125838,1,0,0:0:0:0:
88,292,125908,1,0,0:0:0:0:
236,348,126047,2,0,B|308:357|308:357|368:296,1,150,0|0,0:0|0:0,0:0:0:0:
300,248,126325,1,0,0:0:0:0:
288,260,126394,1,0,0:0:0:0:
276,272,126463,2,0,L|188:260,1,50,0|0,0:0|0:0,0:0:0:0:
88,292,126602,2,0,L|0:280,1,50,0|0,0:0|0:0,0:0:0:0:
32,132,126741,6,0,B|24:28|24:28|72:68,1,150,0|0,0:0|0:0,0:0:0:0:
68,72,127019,2,0,L|71:121,1,50,0|0,0:0|0:0,0:0:0:0:
88,292,127158,2,0,B|144:300|144:300|204:280,2,100,0|0|0,0:0|0:0|0:0,0:0:0:0:
88,292,127505,1,0,0:0:0:0:
88,292,127575,1,0,0:0:0:0:
272,228,127713,6,0,B|332:204|332:204|492:224,1,200,0|0,0:0|0:0,0:0:0:0:
466,220,128061,1,0,0:0:0:0:
466,220,128130,1,0,0:0:0:0:
248,304,128269,2,0,P|208:276|200:200,1,100,0|0,0:0|0:0,0:0:0:0:
304,52,128547,1,0,0:0:0:0:
304,52,128616,1,0,0:0:0:0:
304,52,128686,2,0,P|316:80|312:132,1,50,0|0,0:0|0:0,0:0:0:0:
200,136,128825,2,0,P|218:111|265:89,1,50,0|0,0:0|0:0,0:0:0:0:
324,184,128963,6,0,B|272:172|272:172|284:300,1,150,0|0,0:0|0:0,0:0:0:0:
284,288,129241,1,0,0:0:0:0:
148,212,129380,2,0,L|68:212,2,50,0|0|0,0:0|0:0|0:0,0:0:0:0:
324,184,129658,1,0,0:0:0:0:
332,196,129727,1,0,0:0:0:0:
340,208,129797,1,0,0:0:0:0:
196,296,129936,1,0,0:0:0:0:
200,136,130075,6,0,B|256:132|256:132|288:104|288:104|352:100,1,150,0|0,0:0|0:0,0:0:0:0:
360,100,130352,1,0,0:0:0:0:
387,283,130491,1,0,0:0:0:0:
387,283,130561,2,0,B|340:296|340:296|292:280,1,100,0|0,0:0|0:0,0:0:0:0:
248,212,130769,2,0,L|198:215,1,50,0|0,0:0|0:0,0:0:0:0:
152,364,130908,5,0,0:0:0:0:
125,334,130977,1,0,0:0:0:0:
89,317,131047,1,0,0:0:0:0:
49,314,131116,1,0,0:0:0:0:
11,325,131186,2,0,L|19:247,1,50,0|0,0:0|0:0,0:0:0:0:
112,160,131325,2,0,L|120:82,1,50,0|0,0:0|0:0,0:0:0:0:
304,140,131463,5,0,0:0:0:0:
328,170,131533,1,0,0:0:0:0:
338,209,131602,1,0,0:0:0:0:
330,248,131672,1,0,0:0:0:0:
307,280,131741,2,0,P|280:296|228:296,2,50,0|0|0,0:0|0:0|0:0,0:0:0:0:
416,312,131950,1,0,0:0:0:0:
424,300,132019,6,0,L|420:372,1,50,0|0,0:0|0:0,0:0:0:0:
440,216,132158,2,0,L|436:288,1,50,0|0,0:0|0:0,0:0:0:0:
456,132,132297,2,0,L|452:204,1,50,0|0,0:0|0:0,0:0:0:0:
372,64,132436,5,0,0:0:0:0:
368,48,132505,1,0,0:0:0:0:
364,32,132575,1,0,0:0:0:0:
248,212,132713,5,0,0:0:0:0:
252,216,132783,1,0,0:0:0:0:
256,220,132852,5,0,0:0:0:0:
281,250,132922,1,0,0:0:0:0:
289,289,132991,1,0,0:0:0:0:
279,327,133061,1,0,0:0:0:0:
253,357,133130,6,0,P|219:348|188:316,1,50,0|0,0:0|0:0,0:0:0:0:
180,168,133269,2,0,P|204:143|248:132,1,50,0|0,0:0|0:0,0:0:0:0:
129,289,133408,102,0,B|188:304|232:264|232:264|296:288,1,150,0|0,0:0|0:0,0:0:0:0:
340,312,133686,1,0,0:0:0:0:
304,120,133825,1,0,0:0:0:0:
168,208,133963,2,0,B|152:160|152:160|184:112|156:40,1,150,0|0,0:0|0:0,0:0:0:0:
100,16,134241,1,0,0:0:0:0:
236,164,134380,1,0,0:0:0:0:
88,104,134519,6,0,B|144:88|144:88|192:152|280:132,1,200,0|0,0:0|0:0,0:0:0:0:
424,80,134936,1,0,0:0:0:0:
396,68,135005,1,0,0:0:0:0:
368,56,135075,1,0,0:0:0:0:
340,192,135213,1,0,0:0:0:0:
484,172,135352,1,0,0:0:0:0:
500,312,135491,1,0,0:0:0:0:
312,328,135630,6,0,L|128:312,1,150,0|0,0:0|0:0,0:0:0:0:
116,240,135908,2,0,L|-12:264,1,100,0|0,0:0|0:0,0:0:0:0:
140,148,136186,1,0,0:0:0:0:
162,315,136325,1,0,0:0:0:0:
296,212,136463,1,0,0:0:0:0:
204,224,136602,1,0,0:0:0:0:
312,328,136741,54,0,P|364:336|428:292,1,119.999996337891,0|0,0:0|0:0,0:0:0:0:
312,56,137019,2,0,P|364:48|428:92,1,119.999996337891,0|0,0:0|0:0,0:0:0:0:
287,335,137297,2,0,P|337:352|408:320,1,119.999996337891,0|0,0:0|0:0,0:0:0:0:
287,48,137575,2,0,P|337:31|408:63,1,119.999996337891,0|0,0:0|0:0,0:0:0:0:
456,192,137852,54,0,L|284:192,1,150,0|0,0:0|0:0,0:0:0:0:
232,192,138130,1,0,0:0:0:0:
288,336,138269,1,0,0:0:0:0:
147,339,138408,2,0,P|218:359|288:336,1,150,0|0,0:0|0:0,0:0:0:0:
340,272,138686,2,0,P|368:320|360:380,1,100,0|0,0:0|0:0,0:0:0:0:
84,276,138963,6,0,P|32:192|84:96,1,200,0|0,0:0|0:0,0:0:0:0:
208,40,139380,1,0,0:0:0:0:
208,40,139450,1,0,0:0:0:0:
208,40,139519,2,0,L|220:152,1,100,0|0,0:0|0:0,0:0:0:0:
328,324,139797,2,0,L|340:212,1,100,0|0,0:0|0:0,0:0:0:0:
392,40,140075,6,0,B|344:32|312:72|312:72|256:64|256:64|204:88|136:56,1,255.000004863739,0|0,0:0|0:0,0:0:0:0:
120,344,140491,1,0,0:0:0:0:
120,344,140630,2,0,B|168:352|200:312|200:312|256:320|256:320|308:296|376:328,1,255.000004863739,0|0,0:0|0:0,0:0:0:0:
360,321,141047,1,0,0:0:0:0:
444,184,141186,53,0,0:0:0:0:
296,132,141325,1,0,0:0:0:0:
296,132,141394,1,0,0:0:0:0:
296,132,141464,1,0,0:0:0:0:
324,288,141603,1,0,0:0:0:0:
186,345,141741,5,0,0:0:0:0:
103,122,141880,1,0,0:0:0:0:
326,39,142019,1,0,0:0:0:0:
409,262,142158,1,0,0:0:0:0:
86,241,142297,54,0,B|96:188|96:188|64:144|80:92,1,150,0|0,0:0|0:0,0:0:0:0:
109,60,142575,1,0,0:0:0:0:
176,232,142713,1,0,0:0:0:0:
176,232,142852,2,0,L|231:92,1,150,0|0,0:0|0:0,0:0:0:0:
268,64,143130,1,0,0:0:0:0:
272,276,143269,1,0,0:0:0:0:
272,276,143408,6,0,B|320:292|364:252|364:252|400:300|500:296,1,200,0|0,0:0|0:0,0:0:0:0:
462,112,143825,1,0,0:0:0:0:
284,106,143963,2,0,P|276:156|300:196,1,100,0|0,0:0|0:0,0:0:0:0:
440,204,144241,2,0,P|464:168|460:108,1,100,0|0,0:0|0:0,0:0:0:0:
448,84,144450,1,0,0:0:0:0:
428,64,144519,6,0,L|283:105,1,150,0|0,0:0|0:0,0:0:0:0:
208,132,144797,2,0,P|240:176|312:176,1,100,0|0,0:0|0:0,0:0:0:0:
320,260,145005,1,0,0:0:0:0:
340,240,145075,2,0,P|362:190|326:127,1,100,0|0,0:0|0:0,0:0:0:0:
220,52,145352,2,0,P|165:57|129:120,1,100,0|0,0:0|0:0,0:0:0:0:
117,249,145630,54,0,P|148:292|221:292,1,119.999996337891,0|0,0:0|0:0,0:0:0:0:
360,213,145908,2,0,P|382:163|346:100,1,119.999996337891,0|0,0:0|0:0,0:0:0:0:
208,20,146186,2,0,P|153:25|117:88,1,119.999996337891,0|0,0:0|0:0,0:0:0:0:
210,298,146463,2,0,P|152:295|117:249,1,119.999996337891,0|0,0:0|0:0,0:0:0:0:
152,164,146672,1,0,0:0:0:0:
188,160,146741,54,0,L|372:132,1,150,0|0,0:0|0:0,0:0:0:0:
416,124,147019,1,0,0:0:0:0:
384,292,147158,1,0,0:0:0:0:
256,180,147297,2,0,L|440:152,1,150,0|0,0:0|0:0,0:0:0:0:
484,144,147575,1,0,0:0:0:0:
384,292,147713,1,0,0:0:0:0:
188,160,147852,6,0,L|414:125,1,200,0|0,0:0|0:0,0:0:0:0:
384,292,148269,1,0,0:0:0:0:
356,300,148338,1,0,0:0:0:0:
328,308,148408,2,0,L|220:300,1,100,0|0,0:0|0:0,0:0:0:0:
148,40,148686,2,0,L|247:47,1,100,0|0,0:0|0:0,0:0:0:0:
208,312,148963,6,0,B|140:296|56:360|56:360|56:304|124:276,1,255.000004863739,0|0,0:0|0:0,0:0:0:0:
344,192,149380,1,0,0:0:0:0:
344,192,149519,2,0,B|412:176|496:240|496:240|496:184|428:156,1,255.000004863739,0|0,0:0|0:0,0:0:0:0:
208,72,149936,53,0,0:0:0:0:
252,228,150075,1,0,0:0:0:0:
252,228,150145,1,0,0:0:0:0:
252,228,150214,1,0,0:0:0:0:
364,112,150352,1,0,0:0:0:0:
56,296,150630,37,0,0:0:0:0:
148,360,150769,21,0,0:0:0:0:
372,344,150908,22,0,P|436:299|453:216,1,160,0|0,0:0|0:0,0:0:0:0:
400,4,151186,21,0,0:0:0:0:
