osu file format v14

[General]
AudioFilename: audio.mp3
AudioLeadIn: 0
PreviewTime: -1
Countdown: 0
SampleSet: Normal
StackLeniency: 0.2
Mode: 0
LetterboxInBreaks: 0
WidescreenStoryboard: 0

[Editor]
DistanceSpacing: 1.1
BeatDivisor: 4
GridSize: 4
TimelineZoom: 2.4

[Metadata]
Title:Amputator
TitleUnicode:Amputator
Artist:Cho-E
ArtistUnicode:Cho-E
Creator:Mayoi Hachikuji
Version:Jiangshi
Source:TouchMix HD
Tags:r300k TOMIX Android Gamevil
BeatmapID:1027994
BeatmapSetID:481692

[Difficulty]
HPDrainRate:5
CircleSize:4
OverallDifficulty:9.5
ApproachRate:9.7
SliderMultiplier:2.8
SliderTickRate:1

[Events]
//Background and Video events
0,0,"34006885_p0.jpg",0,0
//Break Periods
//Storyboard Layer 0 (Background)
//Storyboard Layer 1 (Fail)
//Storyboard Layer 2 (Pass)
//Storyboard Layer 3 (Foreground)
//Storyboard Sound Samples

[TimingPoints]
127,555.555555555556,4,1,0,100,1,0
8723,-200,4,1,0,100,0,0
26500,-100,4,1,0,100,0,0
44139,-200,4,1,0,100,0,0
60667,-100,4,1,0,100,0,0
61223,-200,4,1,0,100,0,0
70667,-100,4,1,0,100,0,0
71223,-200,4,1,0,100,0,0
76778,-100,4,1,0,100,0,0
77889,-200,4,1,0,100,0,0
80109,-66.6666666666667,4,1,0,100,0,1
95667,-133.333333333333,4,1,0,100,0,1
96223,-100,4,1,0,100,0,1
96778,-66.6666666666667,4,1,0,100,0,1
97889,-100,4,1,0,100,0,0
105667,-50,4,1,0,100,0,0
106778,-100,4,1,0,100,0,0
107889,-200,4,1,0,100,0,0
115667,-50,4,1,0,100,0,1
124278,-200,4,1,0,100,0,1
124556,-50,4,1,0,100,0,1
133445,-100,4,1,0,100,0,0
146099,-66.6666666666667,4,1,0,100,0,0

[HitObjects]
396,264,9015,6,0,L|328:192,1,70
288,72,9432,2,0,L|328:116,1,35
184,120,9849,6,0,P|217:154|248:192,1,70
120,248,10404,2,0,L|160:220,3,35
288,240,10960,2,4,L|240:280,1,35
404,256,11238,6,0,B|342:304|342:304|334:300|334:300|318:302|318:302,1,70
336,168,11654,1,0,0:0:0:0:
420,176,11793,2,0,P|384:104|372:100,1,70
200,88,12349,6,0,L|264:164,1,70
252,244,12765,1,0,0:0:0:0:
368,160,12904,2,0,L|332:184,3,35
196,144,13460,6,0,P|246:136|278:155,1,70
424,172,13877,1,0,0:0:0:0:
384,288,14015,2,0,L|352:320,1,35
512,244,14293,1,0,0:0:0:0:
392,72,14571,6,0,L|392:136,1,35
344,320,14849,2,0,L|344:272,1,35
316,88,15127,2,0,L|316:148,1,35
344,320,15404,1,4,0:0:0:0:
444,192,15682,6,0,P|400:200|376:240,1,70
440,272,16099,1,0,0:0:0:0:
328,136,16238,2,0,L|264:64,1,70
376,204,16654,1,0,0:0:0:0:
240,184,16793,2,0,L|192:224,1,35
296,256,17071,2,0,L|332:296,1,35
424,320,17349,1,0,0:0:0:0:
352,184,17627,5,4,0:0:0:0:
240,72,17904,6,0,L|296:128,1,70
312,24,18321,1,0,0:0:0:0:
248,196,18460,2,0,L|211:159,1,35
160,104,18738,1,0,0:0:0:0:
296,220,19015,6,0,L|344:264,1,35
136,204,19293,2,0,P|92:168|92:168,1,35
320,152,19571,2,0,L|360:188,1,35
136,204,19849,1,4,0:0:0:0:
256,172,20127,6,0,B|213:177|213:177|196:136|196:136,1,70
152,40,20543,1,0,0:0:0:0:
136,244,20682,1,0,0:0:0:0:
260,96,20821,1,0,0:0:0:0:
56,168,20960,1,0,0:0:0:0:
332,308,21238,5,0,0:0:0:0:
392,112,21377,1,0,0:0:0:0:
432,280,21516,1,0,0:0:0:0:
216,208,21654,1,0,0:0:0:0:
360,72,21793,1,0,0:0:0:0:
176,88,21932,1,0,0:0:0:0:
332,224,22071,1,4,0:0:0:0:
256,332,22349,6,0,B|232:332|204:320|184:296,1,70
256,252,22765,5,0,0:0:0:0:
344,120,22904,1,0,0:0:0:0:
208,192,23043,1,0,0:0:0:0:
304,56,23182,1,4,0:0:0:0:
428,200,23460,6,0,L|384:152,1,35
292,92,23738,1,0,0:0:0:0:
428,200,23877,1,0,0:0:0:0:
364,40,24015,1,0,0:0:0:0:
428,200,24154,1,0,0:0:0:0:
248,172,24293,1,4,0:0:0:0:
128,236,24571,6,0,B|136:276|136:276|176:240,1,70
332,104,25127,6,0,L|332:148,1,35
236,192,25404,2,0,L|236:156,1,35
380,224,25682,2,0,L|380:264,1,35
152,128,25960,1,0,0:0:0:0:
288,272,26099,1,0,0:0:0:0:
256,32,26238,1,0,0:0:0:0:
180,336,26377,1,0,0:0:0:0:
368,148,26515,1,0,0:0:0:0:
80,232,26654,1,4,0:0:0:0:
360,92,26793,6,0,P|336:52|272:32,1,70
148,280,27071,6,0,P|172:320|236:340,1,70
96,200,27349,6,0,P|55:224|35:287,1,70
416,160,27627,6,0,P|456:135|476:72,1,70
352,56,27904,5,0,0:0:0:0:
156,220,28043,1,0,0:0:0:0:
432,164,28182,1,0,0:0:0:0:
272,328,28321,5,0,0:0:0:0:
244,72,28460,1,0,0:0:0:0:
416,280,28599,1,0,0:0:0:0:
244,72,28738,1,0,0:0:0:0:
272,328,28877,1,0,0:0:0:0:
344,68,29015,6,0,P|338:125|344:130,1,70
464,200,29293,6,0,P|406:205|402:212,1,70,0|0,0:3|0:3,0:3:0:0:
280,272,29571,6,0,P|312:225|310:216,1,70
372,216,29849,1,0,2:0:0:0:
232,64,29988,1,0,2:0:0:0:
232,272,30127,1,0,0:0:0:0:
372,120,30265,1,0,0:0:0:0:
160,116,30404,1,0,0:0:0:0:
312,288,30542,1,0,0:0:0:0:
272,52,30682,1,0,0:0:0:0:
144,248,30820,1,0,0:0:0:0:
344,136,30960,1,0,0:0:0:0:
212,320,31098,1,4,0:0:0:0:
360,144,31238,6,0,L|373:72,1,70
256,192,31515,5,0,0:0:0:0:
365,221,31654,6,0,L|437:234,1,70
256,192,31931,5,0,0:0:0:0:
146,162,32071,6,0,L|74:149,1,70
256,192,32348,5,0,0:0:0:0:
132,240,32488,6,0,L|119:312,1,70
256,192,32765,5,0,0:0:0:0:
256,192,32904,5,0,0:0:0:0:
256,52,33043,2,0,P|256:172|256:176,1,70
256,192,33321,1,0,0:0:0:0:
124,312,33459,1,0,0:0:0:0:
152,96,33598,1,0,0:0:0:0:
304,276,33738,1,0,0:0:0:0:
320,48,33877,1,0,0:0:0:0:
120,120,34015,1,0,0:0:0:0:
376,216,34154,1,0,0:0:0:0:
76,268,34293,1,0,0:0:0:0:
412,72,34432,1,0,0:0:0:0:
172,252,34571,6,0,L|172:336,1,70
356,140,34849,6,0,L|356:56,1,70
136,56,35127,6,4,L|136:140,1,70
416,316,35404,6,4,L|416:233,1,70
192,192,35682,5,0,0:0:0:0:
312,48,35821,2,0,L|236:48,1,70
320,192,36099,5,0,0:0:0:0:
200,336,36238,2,0,L|276:335,1,70
256,272,36515,1,0,0:0:0:0:
256,116,36654,1,0,0:0:0:0:
256,192,36793,5,0,0:0:0:0:
400,248,36932,2,0,L|400:172,1,70
256,192,37210,5,0,0:0:0:0:
112,136,37349,2,0,L|112:212,1,70
256,192,37627,1,4,0:0:0:0:
256,192,37765,1,4,0:0:0:0:
400,216,37904,6,0,L|400:304,1,70
104,72,38182,1,0,0:0:0:0:
104,72,38321,1,0,0:0:0:0:
400,144,38460,6,0,L|400:56,1,70
104,72,38738,1,0,0:0:0:0:
104,72,38877,1,0,0:0:0:0:
156,176,39015,1,0,0:0:0:0:
104,72,39154,1,0,0:0:0:0:
224,84,39293,1,0,0:0:0:0:
104,72,39432,1,0,0:0:0:0:
284,192,39571,1,0,0:0:0:0:
104,72,39710,1,0,0:0:0:0:
104,72,39849,1,0,0:0:0:0:
104,72,39988,1,4,0:0:0:0:
416,144,40127,6,0,L|352:88,1,70
352,216,40404,1,4,0:0:0:0:
260,252,40543,6,0,L|324:308,1,70
128,144,40820,1,0,0:0:0:0:
192,304,40960,6,0,L|127:248,1,70
196,196,41237,1,0,0:0:0:0:
252,116,41376,6,0,L|188:59,1,70
340,208,41653,1,0,0:0:0:0:
432,120,41793,1,0,0:0:0:0:
328,40,41932,1,0,0:0:0:0:
232,128,42071,1,0,0:0:0:0:
340,208,42210,1,0,0:0:0:0:
384,92,42349,5,0,0:0:0:0:
128,144,42488,1,0,0:0:0:0:
384,92,42627,5,0,0:0:0:0:
124,124,42766,1,0,0:0:0:0:
417,211,42904,5,8,0:0:0:0:
199,67,43043,1,8,0:0:0:0:
360,288,43182,5,0,0:0:0:0:
288,36,43321,1,0,0:0:0:0:
224,216,43460,5,0,0:0:0:0:
432,108,43599,1,0,0:0:0:0:
128,292,43738,5,0,0:0:0:0:
384,240,43877,1,0,0:0:0:0:
94,172,44015,5,0,0:0:0:0:
280,292,44154,1,0,0:0:0:0:
120,88,44293,1,0,0:0:0:0:
376,104,44432,1,0,0:0:0:0:
188,272,44571,1,4,0:0:0:0:
312,136,44849,6,0,L|248:176,1,70
352,216,45404,1,0,0:0:0:0:
180,240,45682,1,0,0:0:0:0:
236,304,46238,2,0,B|280:276|280:212|248:184,1,105
240,176,46793,1,0,0:0:0:0:
152,100,47071,6,0,L|200:136,1,35
120,180,47349,1,0,0:0:0:0:
256,280,47627,1,0,0:0:0:0:
320,232,47904,2,0,B|295:196|251:185|213:200|187:232,1,140
180,296,48738,2,0,L|180:340,1,35
224,212,49015,5,0,0:0:0:0:
152,92,49293,2,0,L|152:144,1,35
168,276,49571,2,0,L|168:236,1,35
264,152,49849,2,0,L|264:192,1,35
296,276,50127,1,0,0:0:0:0:
448,260,50265,1,0,0:0:0:0:
328,336,50404,1,0,0:0:0:0:
420,192,50543,1,0,0:0:0:0:
256,212,50682,1,4,0:0:0:0:
196,64,50960,6,0,L|272:116,1,70
220,224,51515,2,0,L|172:192,2,35
124,136,52071,1,0,0:0:0:0:
44,280,52210,1,0,0:0:0:0:
180,172,52349,1,0,0:0:0:0:
104,324,52488,1,0,0:0:0:0:
232,208,52627,1,4,0:0:0:0:
400,136,52904,6,0,L|368:164,1,35
264,312,53182,2,0,L|312:272,1,35
200,236,53460,1,0,0:0:0:0:
248,160,53738,6,0,L|280:132,2,35
348,72,54293,1,0,0:0:0:0:
384,240,54432,1,0,0:0:0:0:
228,200,54571,1,0,0:0:0:0:
332,172,54849,6,0,L|300:208,1,35
196,72,55127,1,4,0:0:0:0:
200,212,55404,6,0,L|264:276,1,70
352,128,55960,1,0,0:0:0:0:
392,244,56099,1,0,0:0:0:0:
408,60,56238,1,0,0:0:0:0:
336,312,56377,1,0,0:0:0:0:
304,56,56515,1,4,0:0:0:0:
256,160,56793,6,0,P|225:145|200:98,1,70,0|0,0:3|0:0,0:0:0:0:
144,48,57210,1,0,0:0:0:0:
312,103,57349,1,0,0:0:0:0:
200,228,57488,2,8,L|174:253,1,35,8|8,2:0|2:0,2:0:0:0:
208,128,57765,2,0,L|248:80,1,35
212,296,58182,5,0,0:0:0:0:
244,192,58321,1,0,0:0:0:0:
352,108,58460,1,0,0:0:0:0:
384,8,58599,1,0,0:0:0:0:
348,264,58738,1,0,0:0:0:0:
244,192,58877,1,0,0:0:0:0:
196,96,59015,1,0,0:0:0:0:
104,24,59154,1,0,0:0:0:0:
92,140,59293,1,0,0:0:0:0:
144,240,59432,1,0,0:0:0:0:
200,148,59571,6,0,L|240:184,1,35
256,272,59849,2,0,L|256:312,1,35
300,96,60127,2,0,L|300:56,1,35
348,312,60404,2,0,L|348:352,1,35
384,92,60682,2,0,L|384:16,1,70
184,184,60960,2,0,B|184:280|184:280|180:288,1,70
272,104,61238,1,0,0:0:0:0:
364,152,61377,1,0,0:0:0:0:
452,200,61515,1,0,0:0:0:0:
316,260,61654,5,0,0:0:0:0:
216,288,61793,1,0,0:0:0:0:
120,316,61932,1,0,0:0:0:0:
40,236,62071,1,0,0:0:0:0:
72,136,62210,1,0,0:0:0:0:
112,28,62349,2,0,L|212:136,1,140
152,268,63043,1,0,0:0:0:0:
192,236,63182,1,0,0:0:0:0:
232,208,63321,1,4,0:0:0:0:
392,116,63460,6,0,L|392:156,1,35
392,288,63738,2,0,L|392:236,1,35
248,288,64015,2,0,L|248:248,1,35
248,120,64293,2,0,L|248:160,1,35
400,356,64571,2,0,L|300:248,1,140
360,116,65265,1,0,0:0:0:0:
320,148,65404,1,0,0:0:0:0:
280,176,65543,1,4,0:0:0:0:
120,268,65682,6,0,L|120:228,1,35
120,96,65960,2,0,L|119:148,1,35
264,268,66238,2,0,L|264:308,1,35
264,96,66515,2,4,L|264:57,1,35
188,128,66793,6,0,B|192:172|196:172|196:172|248:188|248:188|260:236|260:236,1,140
184,288,67627,6,0,L|184:236,1,35
208,68,67904,2,0,L|208:116,1,35
68,100,68182,1,0,0:0:0:0:
108,232,68321,1,0,0:0:0:0:
268,144,68460,1,0,0:0:0:0:
136,152,68599,1,0,0:0:0:0:
244,268,68738,1,0,0:0:0:0:
328,80,69015,2,0,B|376:144|376:144|336:192,1,140
256,272,69710,1,0,0:0:0:0:
148,108,69849,1,0,0:0:0:0:
332,148,69988,1,0,0:0:0:0:
380,44,70127,6,0,L|376:108,1,35
328,232,70404,2,0,L|328:184,1,35
232,88,70682,2,0,L|232:168,1,70
140,316,70960,2,0,L|140:228,1,70
116,152,71238,6,0,L|116:80,1,70
208,152,71654,1,0,0:0:0:0:
116,152,71793,1,0,0:0:0:0:
116,60,71932,1,0,0:0:0:0:
208,60,72071,1,0,0:0:0:0:
304,60,72210,1,0,0:0:0:0:
304,148,72349,2,0,P|304:188|304:188,2,35
420,312,72904,6,0,L|360:312,1,35
192,292,73182,2,0,L|236:292,1,35
392,148,73460,2,0,L|296:148,1,70
156,148,73877,1,0,0:0:0:0:
392,76,74015,2,0,L|432:76,1,35
216,276,74293,2,0,L|164:276,1,35
368,220,74571,2,0,L|408:219,1,35
228,128,74849,2,0,L|176:127,1,35
288,56,75127,5,0,0:0:0:0:
392,144,75265,1,0,0:0:0:0:
260,180,75404,5,0,0:0:0:0:
368,264,75542,1,0,0:0:0:0:
212,272,75682,2,0,L|244:296,1,35
120,296,75960,2,0,L|160:324,1,35
116,204,76238,2,0,L|156:232,1,35
212,272,76515,5,0,0:0:0:0:
244,64,76654,1,0,0:0:0:0:
384,160,76793,2,0,L|469:216,1,70
248,176,77071,2,0,L|164:120,1,70
456,136,77349,2,0,L|376:196,1,70
292,312,77627,2,0,L|220:236,1,70
124,120,77904,2,0,B|176:180|176:180|112:228|112:228,1,140
72,304,78599,5,0,0:0:0:0:
128,200,78738,1,0,0:0:0:0:
176,312,78877,1,0,0:0:0:0:
236,204,79016,1,0,0:0:0:0:
296,100,79154,5,0,0:0:0:0:
340,248,79293,1,0,0:0:0:0:
160,144,79432,1,0,0:0:0:0:
224,40,79571,5,0,0:0:0:0:
184,296,79710,1,0,0:0:0:0:
292,40,79849,5,0,0:0:0:0:
320,296,79988,1,0,0:0:0:0:
168,124,80127,2,0,B|170:200|170:200|205:221|204:217,1,105.000004005432
392,116,80404,1,0,0:0:0:0:
220,296,80543,1,0,0:0:0:0:
344,256,80682,2,0,B|341:179|341:179|306:158|307:162,1,105.000004005432
108,176,80960,1,0,0:0:0:0:
364,84,81099,1,0,0:0:0:0:
108,56,81238,1,0,0:0:0:0:
360,296,81377,1,0,0:0:0:0:
212,48,81515,1,0,0:0:0:0:
232,332,81654,1,0,0:0:0:0:
424,92,81793,6,0,L|352:172,1,105.000004005432
80,228,82071,2,0,L|164:148,1,105.000004005432
392,144,82349,5,0,0:0:0:0:
156,248,82488,1,0,0:0:0:0:
328,80,82627,1,0,0:0:0:0:
216,308,82765,1,0,0:0:0:0:
144,112,82904,1,0,0:0:0:0:
384,236,83043,1,0,0:0:0:0:
256,36,83182,1,0,0:0:0:0:
220,272,83321,1,0,0:0:0:0:
88,44,83460,6,0,L|188:148,1,105.000004005432
324,104,83738,6,0,L|220:204,1,105.000004005432
476,252,84015,6,0,L|376:148,1,105.000004005432
80,268,84293,6,0,L|184:168,1,105.000004005432
363,84,84571,5,0,0:0:0:0:
145,302,84710,1,0,0:0:0:0:
408,192,84849,1,0,0:0:0:0:
100,192,84988,1,0,0:0:0:0:
363,299,85127,1,0,0:0:0:0:
145,81,85266,1,0,0:0:0:0:
256,344,85404,1,0,0:0:0:0:
256,36,85543,1,0,0:0:0:0:
256,344,85682,5,0,0:0:0:0:
255,36,85821,1,0,0:0:0:0:
364,300,85960,5,0,0:0:0:0:
146,82,86099,1,0,0:0:0:0:
408,192,86238,5,0,0:0:0:0:
100,191,86377,1,0,0:0:0:0:
364,85,86515,5,0,0:0:0:0:
146,303,86654,1,0,0:0:0:0:
256,124,86793,2,0,B|288:72|288:72|348:48|348:48,1,105.000004005432
256,244,87071,2,0,B|224:296|224:296|164:320|164:320,1,105.000004005432
416,132,87349,2,0,B|468:164|468:164|492:224|492:224,1,105.000004005432
96,251,87627,2,0,B|44:220|44:220|20:159|20:159,1,105.000004005432
168,104,87904,5,0,0:0:0:0:
344,280,88043,1,0,0:0:0:0:
209,76,88182,1,0,0:0:0:0:
302,307,88321,1,0,0:0:0:0:
379,181,88460,5,0,0:0:0:0:
132,202,88599,1,0,0:0:0:0:
375,230,88738,1,0,0:0:0:0:
138,153,88877,1,0,0:0:0:0:
72,128,89015,6,0,B|92:72|92:72|140:60|140:60,1,105.000004005432
256,192,89293,1,0,0:0:0:0:
424,304,89432,1,0,0:0:0:0:
440,128,89571,6,0,B|420:72|420:72|372:60|372:60,1,105.000004005432
256,192,89849,1,0,0:0:0:0:
88,304,89988,1,0,0:0:0:0:
170,70,90127,5,0,0:0:0:0:
377,106,90265,1,0,0:0:0:0:
341,313,90404,1,0,0:0:0:0:
134,277,90543,1,0,0:0:0:0:
200,48,90682,1,0,0:0:0:0:
370,171,90820,1,0,0:0:0:0:
247,342,90959,1,0,0:0:0:0:
77,218,91098,1,0,0:0:0:0:
364,52,91238,6,0,B|388:53|409:63|427:81|441:96|447:115,1,105.000004005432
256,192,91515,1,0,0:0:0:0:
256,192,91654,1,0,0:0:0:0:
148,52,91793,6,0,B|123:53|102:63|84:81|70:96|64:115,1,105.000004005432
256,192,92071,1,0,0:0:0:0:
123,210,92210,1,0,0:0:0:0:
305,68,92349,1,0,0:0:0:0:
338,297,92488,1,0,0:0:0:0:
216,108,92627,1,0,0:0:0:0:
208,296,92765,1,0,0:0:0:0:
380,200,92904,1,0,0:0:0:0:
164,192,93043,1,0,0:0:0:0:
360,96,93182,1,0,0:0:0:0:
360,296,93321,1,0,0:0:0:0:
60,268,93460,6,0,L|156:356,1,105.000004005432
68,120,93738,1,0,0:0:0:0:
236,268,93877,1,0,0:0:0:0:
452,268,94015,6,0,L|356:356,1,105.000004005432
444,120,94293,1,0,0:0:0:0:
276,268,94432,1,0,0:0:0:0:
200,160,94571,6,0,L|292:228,1,105.000004005432
428,40,94849,1,0,0:0:0:0:
132,108,94988,1,0,0:0:0:0:
200,336,95127,6,0,L|292:268,1,105.000004005432
428,176,95405,1,0,0:0:0:0:
148,240,95544,1,0,0:0:0:0:
292,28,95682,2,0,P|284:56|292:80,1,52.5000020027161
196,88,95960,2,0,P|204:116|196:140,1,52.5000020027161,0|0,2:0|2:0,2:0:0:0:
364,112,96238,2,0,B|348:128|356:136|368:136|380:144|384:152|360:176,1,70
144,200,96515,2,0,B|160:216|152:224|140:224|128:232|124:240|148:264,1,70
400,240,96793,2,0,B|380:260|376:272|384:280|396:284|420:288|436:296|380:340,1,105.000004005432
248,268,97071,2,0,B|268:288|272:300|264:308|252:312|228:316|212:324|268:368,1,105.000004005432
60,64,97349,6,0,L|40:172,1,105.000004005432
452,208,97627,2,0,L|484:332,1,105.000004005432
256,296,97904,2,0,L|256:96,1,140
256,32,98321,1,0,0:0:0:0:
256,148,98460,1,0,0:0:0:0:
156,328,98599,1,0,0:0:0:0:
156,215,98738,1,0,0:0:0:0:
124,56,98877,1,0,0:0:0:0:
196,132,99016,1,0,0:0:0:0:
420,240,99154,1,0,0:0:0:0:
352,172,99293,1,0,0:0:0:0:
64,151,99432,2,0,L|160:151,1,70
248,276,99710,2,0,L|152:277,1,70
324,192,100127,5,0,0:0:0:0:
408,228,100266,1,0,0:0:0:0:
188,192,100404,1,0,0:0:0:0:
108,152,100543,1,0,0:0:0:0:
312,0,100682,1,0,0:0:0:0:
264,96,100821,1,0,0:0:0:0:
240,284,100959,1,0,0:0:0:0:
200,376,101099,1,0,0:0:0:0:
256,35,101237,2,0,L|256:132,1,70
256,348,101515,2,0,L|256:252,1,70
366,81,101793,2,0,L|298:149,1,70
145,302,102071,2,0,L|213:234,1,70
208,44,102349,6,0,B|226:92|226:92|169:88|169:88|164:154|164:154|113:144|113:144|139:211|139:211,1,280
232,192,103182,1,0,0:0:0:0:
272,84,103460,1,0,0:0:0:0:
288,276,103599,1,0,0:0:0:0:
168,108,103738,1,0,0:0:0:0:
192,304,103877,1,0,0:0:0:0:
192,64,104015,2,0,L|272:144,1,70
380,48,104293,2,0,L|444:108,1,70
224,132,104571,6,0,B|149:107|135:100|124:104|117:109|117:118|114:125|123:143|125:148|141:161|161:175|175:182|200:194|218:203|212:200|232:200,1,210
256,192,105127,1,0,0:0:0:0:
256,192,105404,1,0,0:0:0:0:
316,156,105682,6,0,B|328:108|324:104|324:87|316:76|300:80|292:88|284:91|276:104|264:116|260:128|256:127|224:192|236:168|224:208|228:196,1,140
220,131,105960,6,0,B|172:120|168:124|152:124|140:132|144:148|152:156|156:163|168:172|180:183|192:188|192:191|256:224|232:212|272:224|260:220,1,140
196,228,106238,6,0,B|184:276|188:280|188:296|196:308|212:304|220:296|228:292|236:280|248:268|252:256|256:256|288:192|276:216|288:176|284:188,1,140
292,252,106515,6,0,B|340:264|344:260|360:260|372:252|368:236|360:228|356:220|344:212|332:200|320:196|320:192|256:160|280:172|240:160|252:164,1,140
128,88,106793,6,0,B|128:168|128:168|224:168|224:168,1,140
272,168,107210,1,0,0:0:0:0:
128,88,107349,1,0,0:0:0:0:
120,260,107488,1,0,0:0:0:0:
272,168,107627,1,0,0:0:0:0:
456,116,107904,6,0,L|412:80,1,35
336,276,108182,2,0,L|308:308,1,35
172,20,108460,2,0,L|208:56,1,35
40,208,108738,2,0,L|0:244,1,35,8|0,0:0|0:0,0:0:0:0:
68,120,109015,6,0,L|152:160,1,70
224,204,109571,1,0,0:0:0:0:
288,108,109849,2,0,L|160:40,1,140
360,156,110682,5,0,0:0:0:0:
200,64,110821,1,0,0:0:0:0:
288,220,110960,1,0,0:0:0:0:
436,324,111099,1,0,0:0:0:0:
236,288,111238,2,0,B|172:235|172:235|217:176|217:176,1,140
214,267,112349,1,0,0:0:0:0:
180,150,112488,1,0,0:0:0:0:
297,116,112627,1,0,0:0:0:0:
331,233,112765,1,0,0:0:0:0:
157,214,112904,1,0,0:0:0:0:
233,93,113043,1,0,0:0:0:0:
354,169,113182,1,0,0:0:0:0:
278,290,113321,1,0,0:0:0:0:
248,160,113460,2,0,B|242:231|242:231|298:185|298:185,1,140
256,192,114571,5,0,0:0:0:0:
256,192,114710,1,0,0:0:0:0:
256,192,114849,1,0,0:0:0:0:
256,192,114988,1,0,0:0:0:0:
136,192,115127,5,4,0:0:0:0:
408,44,115265,1,4,0:0:0:0:
404,332,115404,1,4,0:0:0:0:
172,192,115543,1,4,0:0:0:0:
164,40,115682,6,0,L|48:144,1,140
200,344,115960,1,0,0:0:0:0:
448,168,116099,1,0,0:0:0:0:
348,40,116238,6,0,L|464:144,1,140
312,344,116516,1,0,0:0:0:0:
52,316,116654,2,0,L|184:200,1,140
60,56,116932,2,0,B|320:212|320:212|316:208,1,280
456,48,117349,1,0,0:0:0:0:
376,336,117488,1,0,0:0:0:0:
56,48,117627,1,0,0:0:0:0:
136,336,117766,1,0,0:0:0:0:
384,36,117904,6,0,L|260:168,1,140
60,192,118182,1,0,0:0:0:0:
444,192,118321,1,0,0:0:0:0:
128,347,118460,6,0,L|252:216,1,140
422,295,118738,1,0,0:0:0:0:
96,92,118877,1,0,0:0:0:0:
412,320,119015,6,0,L|280:196,1,140
100,64,119293,6,0,L|232:188,1,140
412,316,119571,1,0,0:0:0:0:
100,64,119710,1,0,0:0:0:0:
476,356,119849,1,0,0:0:0:0:
36,28,119988,1,0,0:0:0:0:
360,176,120127,6,0,L|480:32,1,140
304,20,120404,1,0,0:0:0:0:
208,364,120543,1,0,0:0:0:0:
168,36,120682,1,0,0:0:0:0:
343,347,120821,1,0,0:0:0:0:
84,144,120960,1,0,0:0:0:0:
428,239,121099,1,0,0:0:0:0:
100,279,121238,1,0,0:0:0:0:
411,104,121377,1,0,0:0:0:0:
416,192,121515,6,0,L|516:304,1,140
256,96,121793,6,0,L|368:-4,1,140
92,192,122071,6,0,L|-76:0,1,140
256,288,122349,6,0,L|144:388,1,140
0,64,122627,2,0,L|136:180,1,140
432,0,122904,2,0,L|296:104,1,140
512,384,123182,2,0,L|392:232,1,140
56,384,123459,2,0,L|216:256,1,140
496,52,123738,5,0,0:0:0:0:
56,160,123877,1,0,0:0:0:0:
352,0,124015,1,0,0:0:0:0:
320,384,124154,1,0,0:0:0:0:
232,192,124293,2,4,L|284:192,1,35
224,24,124571,5,0,0:0:0:0:
292,360,124710,1,0,0:0:0:0:
292,24,124849,1,0,0:0:0:0:
224,360,124988,1,0,0:0:0:0:
64,264,125127,5,0,0:0:0:0:
448,120,125265,5,0,0:0:0:0:
88,176,125405,1,0,0:0:0:0:
424,207,125544,1,0,0:0:0:0:
376,364,125682,6,0,L|512:256,1,140
136,20,125960,6,0,L|0:128,1,140
96,248,126238,6,0,L|204:384,1,140
415,135,126515,6,0,L|308:0,1,140
315,364,126793,1,0,0:0:0:0:
175,356,126932,1,0,0:0:0:0:
83,251,127071,1,0,0:0:0:0:
91,111,127210,1,0,0:0:0:0:
196,19,127349,1,0,0:0:0:0:
336,27,127488,1,0,0:0:0:0:
428,132,127627,1,0,0:0:0:0:
420,272,127765,1,0,0:0:0:0:
108,152,127904,6,0,L|-12:256,1,140
404,188,128182,6,0,L|524:85,1,140
120,8,128460,6,0,L|0:112,1,140
404,368,128738,6,0,L|524:264,1,140
188,192,129015,5,0,0:0:0:0:
324,192,129154,5,0,0:0:0:0:
168,96,129293,5,0,0:0:0:0:
344,288,129432,5,0,0:0:0:0:
408,44,129571,5,0,0:0:0:0:
104,340,129710,5,0,0:0:0:0:
64,40,129849,5,0,0:0:0:0:
448,344,129988,5,0,0:0:0:0:
332,300,130127,6,0,L|332:124,1,140
180,84,130404,6,0,L|180:260,1,140
448,344,130682,6,0,L|448:168,1,140
64,40,130960,6,0,L|64:216,1,140
205,310,131238,1,0,0:0:0:0:
137,141,131377,1,0,0:0:0:0:
306,73,131515,1,0,0:0:0:0:
374,242,131654,1,0,0:0:0:0:
431,121,131793,1,0,0:0:0:0:
327,366,131932,1,0,0:0:0:0:
82,262,132071,1,0,0:0:0:0:
186,16,132210,1,0,0:0:0:0:
305,312,132349,1,0,0:0:0:0:
137,241,132488,1,0,0:0:0:0:
208,73,132626,1,0,0:0:0:0:
375,144,132765,1,0,0:0:0:0:
64,48,132904,2,4,L|216:192,1,140
432,332,133182,2,4,L|292:176,1,140
256,192,133460,1,4,0:0:0:0:
256,192,135682,5,0,0:0:0:0:
256,192,137904,5,0,0:0:0:0:
256,192,140127,5,0,0:0:0:0:
200,80,141793,5,0,0:0:0:0:
312,304,141932,1,0,0:0:0:0:
368,136,142071,1,0,0:0:0:0:
144,247,142210,1,0,0:0:0:0:
256,192,142349,1,0,0:0:0:0:
256,192,144571,5,0,0:0:0:0:
124,88,146238,6,0,L|264:220,1,105.000004005432
388,295,146515,6,0,L|248:164,1,105.000004005432
256,192,146793,5,0,0:0:0:0:
