osu file format v14

[General]
AudioFilename: audio.mp3
AudioLeadIn: 0
PreviewTime: 63349
Countdown: 0
SampleSet: None
StackLeniency: 0.7
Mode: 3
LetterboxInBreaks: 0
SpecialStyle: 0
WidescreenStoryboard: 1

[Editor]
DistanceSpacing: 0.7
BeatDivisor: 4
GridSize: 4
TimelineZoom: 1.4

[Metadata]
Title:Last Christmas (Speed Up Ver.)
TitleUnicode:Last Christmas (Speed Up Ver.)
Artist:Chloe Adams
ArtistUnicode:Chloe Adams
Creator:Asherz007
Version:Hard
Source:
Tags:nightcore cover
BeatmapID:1459960
BeatmapSetID:689729

[Difficulty]
HPDrainRate:8
CircleSize:4
OverallDifficulty:8.2
ApproachRate:5
SliderMultiplier:1.4
SliderTickRate:1

[Events]
//Background and Video events
0,0,"b310865ba2069ef08ad5fc120e2815b1.jpg",0,0
//Break Periods
//Storyboard Layer 0 (Background)
//Storyboard Layer 1 (Fail)
//Storyboard Layer 2 (Pass)
//Storyboard Layer 3 (Foreground)
//Storyboard Sound Samples

[TimingPoints]
3993,314.762354422411,4,3,1,25,1,0
3993,-104.438356523766,4,3,1,25,0,0
27914,333.333333333333,4,3,1,25,1,0
27914,-98.6301369863014,4,3,1,25,0,0
30555,328.767123287671,4,3,1,40,1,0
63431,-100,4,3,1,40,0,1
84472,-100,4,3,1,40,0,0
105513,-100,4,3,1,40,0,1
126554,329.67032967033,4,3,1,40,1,0
129191,-100,4,3,1,32,0,0
131828,-100,4,3,1,24,0,0
134466,-100,4,3,1,16,0,0

[HitObjects]
320,192,3992,1,0,0:0:0:0:
448,192,3992,1,0,0:0:0:0:
64,192,4307,1,0,0:0:0:0:
192,192,4622,1,0,0:0:0:0:
448,192,4622,1,0,0:0:0:0:
320,192,4937,1,0,0:0:0:0:
64,192,5252,1,0,0:0:0:0:
192,192,5252,1,0,0:0:0:0:
448,192,5566,1,0,0:0:0:0:
64,192,5881,1,0,0:0:0:0:
320,192,5881,1,0,0:0:0:0:
192,192,6196,1,0,0:0:0:0:
320,192,6511,1,0,0:0:0:0:
448,192,6511,1,0,0:0:0:0:
64,192,6825,1,0,0:0:0:0:
192,192,7140,1,0,0:0:0:0:
320,192,7140,1,0,0:0:0:0:
448,192,7455,1,0,0:0:0:0:
64,192,7770,1,0,0:0:0:0:
320,192,7770,1,0,0:0:0:0:
64,192,8084,1,0,0:0:0:0:
192,192,8399,1,0,0:0:0:0:
448,192,8399,1,0,0:0:0:0:
448,192,8714,1,0,0:0:0:0:
64,192,9029,1,0,0:0:0:0:
192,192,9029,1,0,0:0:0:0:
320,192,9343,1,0,0:0:0:0:
64,192,9658,1,0,0:0:0:0:
448,192,9658,1,0,0:0:0:0:
192,192,9973,1,0,0:0:0:0:
320,192,10288,1,0,0:0:0:0:
448,192,10288,1,0,0:0:0:0:
64,192,10603,1,0,0:0:0:0:
192,192,10917,1,0,0:0:0:0:
448,192,10917,1,0,0:0:0:0:
320,192,11232,1,0,0:0:0:0:
64,192,11547,1,0,0:0:0:0:
192,192,11547,1,0,0:0:0:0:
448,192,11862,1,0,0:0:0:0:
64,192,12176,1,0,0:0:0:0:
320,192,12176,1,0,0:0:0:0:
192,192,12491,1,0,0:0:0:0:
64,192,12806,1,0,0:0:0:0:
448,192,12806,1,0,0:0:0:0:
448,192,13121,1,0,0:0:0:0:
192,192,13435,1,0,0:0:0:0:
320,192,13435,1,0,0:0:0:0:
192,192,13750,1,0,0:0:0:0:
64,192,14065,1,0,0:0:0:0:
448,192,14065,1,0,0:0:0:0:
320,192,14380,1,0,0:0:0:0:
64,192,14694,1,0,0:0:0:0:
192,192,14694,1,0,0:0:0:0:
448,192,15009,1,0,0:0:0:0:
64,192,15324,1,0,0:0:0:0:
320,192,15324,1,0,0:0:0:0:
192,192,15639,1,0,0:0:0:0:
320,192,15953,1,0,0:0:0:0:
448,192,15953,1,0,0:0:0:0:
192,192,16268,1,0,0:0:0:0:
64,192,16583,1,0,0:0:0:0:
320,192,16583,1,0,0:0:0:0:
448,192,16898,1,0,0:0:0:0:
192,192,17213,1,0,0:0:0:0:
320,192,17213,1,0,0:0:0:0:
64,192,17527,1,0,0:0:0:0:
192,192,17842,1,0,0:0:0:0:
448,192,17842,1,0,0:0:0:0:
192,192,18157,1,0,0:0:0:0:
64,192,18472,1,0,0:0:0:0:
320,192,18472,1,0,0:0:0:0:
320,192,18786,1,0,0:0:0:0:
192,192,19101,1,0,0:0:0:0:
448,192,19101,1,0,0:0:0:0:
64,192,19416,1,0,0:0:0:0:
320,192,19731,1,0,0:0:0:0:
448,192,19731,1,0,0:0:0:0:
64,192,20045,1,0,0:0:0:0:
192,192,20360,1,0,0:0:0:0:
320,192,20360,1,0,0:0:0:0:
448,192,20675,1,0,0:0:0:0:
64,192,20990,1,0,0:0:0:0:
320,192,20990,1,0,0:0:0:0:
192,192,21304,1,0,0:0:0:0:
64,192,21619,1,0,0:0:0:0:
448,192,21619,1,0,0:0:0:0:
320,192,23193,1,0,0:0:0:0:
448,192,23193,1,0,0:0:0:0:
64,192,23508,1,0,0:0:0:0:
192,192,23508,1,0,0:0:0:0:
320,192,23823,1,0,0:0:0:0:
448,192,23823,1,0,0:0:0:0:
64,192,24137,1,0,0:0:0:0:
192,192,24137,1,0,0:0:0:0:
448,192,24452,1,0,0:0:0:0:
64,192,24767,1,0,0:0:0:0:
320,192,24767,1,0,0:0:0:0:
192,192,25082,1,0,0:0:0:0:
320,192,25396,1,0,0:0:0:0:
448,192,25396,1,0,0:0:0:0:
64,192,25711,1,0,0:0:0:0:
192,192,26026,1,0,0:0:0:0:
448,192,26026,1,0,0:0:0:0:
320,192,26341,1,0,0:0:0:0:
64,192,26655,1,0,0:0:0:0:
192,192,26655,1,0,0:0:0:0:
448,192,26970,1,0,0:0:0:0:
64,192,27285,1,0,0:0:0:0:
320,192,27285,1,0,0:0:0:0:
192,192,27600,1,0,0:0:0:0:
320,192,27914,1,0,0:0:0:0:
448,192,27914,1,0,0:0:0:0:
448,192,28247,1,0,0:0:0:0:
64,192,28580,1,0,0:0:0:0:
192,192,28580,1,0,0:0:0:0:
64,192,28914,1,0,0:0:0:0:
320,192,29247,1,0,0:0:0:0:
448,192,29247,1,0,0:0:0:0:
64,192,30555,128,4,33185:0:0:0:0:
192,192,30555,1,8,0:0:0:0:
448,192,30555,1,0,0:0:0:0:
320,192,30883,1,0,0:0:0:0:
320,192,31541,1,0,0:0:0:0:
320,192,32198,1,0,0:0:0:0:
320,192,32856,1,0,0:0:0:0:
192,192,33185,1,4,0:0:0:0:
320,192,33185,1,8,0:0:0:0:
448,192,33185,128,0,35815:0:0:0:0:
64,192,33513,1,0,0:0:0:0:
64,192,34171,1,0,0:0:0:0:
64,192,34828,1,0,0:0:0:0:
64,192,35486,1,0,0:0:0:0:
64,192,35815,1,8,0:0:0:0:
192,192,35815,128,4,38445:0:0:0:0:
320,192,35815,1,0,0:0:0:0:
448,192,36144,1,0,0:0:0:0:
448,192,36801,1,0,0:0:0:0:
448,192,37459,1,0,0:0:0:0:
448,192,38116,1,0,0:0:0:0:
64,192,38445,1,8,0:0:0:0:
320,192,38445,128,4,41404:0:0:0:0:
448,192,38445,1,0,0:0:0:0:
192,192,38774,1,0,0:0:0:0:
192,192,39431,1,0,0:0:0:0:
192,192,40089,1,0,0:0:0:0:
192,192,40746,1,0,0:0:0:0:
192,192,41404,1,0,0:0:0:0:
64,192,41733,1,2,0:0:0:0:
448,192,41733,1,0,0:0:0:0:
192,192,41897,1,2,0:0:0:0:
448,192,41897,1,0,0:0:0:0:
192,192,42061,1,2,0:0:0:0:
320,192,42061,1,0,0:0:0:0:
64,192,42226,1,2,0:0:0:0:
320,192,42226,1,0,0:0:0:0:
64,192,42390,1,8,0:0:0:0:
192,192,42390,1,4,0:0:0:0:
448,192,42390,1,0,0:0:0:0:
320,192,42719,1,2,0:0:0:0:
448,192,42719,1,0,0:0:0:0:
192,192,42883,1,2,0:0:0:0:
320,192,42883,1,0,0:0:0:0:
64,192,43212,1,8,0:0:0:0:
192,192,43212,1,0,0:0:0:0:
320,192,43376,1,2,0:0:0:0:
448,192,43376,1,0,0:0:0:0:
64,192,43705,1,8,0:0:0:0:
448,192,43705,1,0,0:0:0:0:
192,192,44034,1,2,0:0:0:0:
320,192,44034,1,0,0:0:0:0:
192,192,44198,1,2,0:0:0:0:
448,192,44198,1,0,0:0:0:0:
64,192,44527,1,8,0:0:0:0:
320,192,44527,1,0,0:0:0:0:
192,192,44691,1,2,0:0:0:0:
448,192,44691,1,0,0:0:0:0:
64,192,44856,1,8,0:0:0:0:
320,192,44856,1,0,0:0:0:0:
192,192,45020,1,8,0:0:0:0:
448,192,45020,1,0,0:0:0:0:
64,192,45349,1,2,0:0:0:0:
320,192,45349,1,0,0:0:0:0:
64,192,45513,1,2,0:0:0:0:
192,192,45513,1,0,0:0:0:0:
320,192,45842,1,8,0:0:0:0:
448,192,45842,1,0,0:0:0:0:
64,192,46007,1,2,0:0:0:0:
192,192,46007,1,0,0:0:0:0:
64,192,46335,1,8,0:0:0:0:
320,192,46335,1,0,0:0:0:0:
192,192,46664,1,2,0:0:0:0:
448,192,46664,1,0,0:0:0:0:
320,192,46828,1,2,0:0:0:0:
448,192,46828,1,0,0:0:0:0:
64,192,47157,1,8,0:0:0:0:
192,192,47157,1,0,0:0:0:0:
320,192,47322,1,2,0:0:0:0:
448,192,47322,1,0,0:0:0:0:
64,192,47486,1,8,0:0:0:0:
192,192,47486,1,0,0:0:0:0:
320,192,47650,1,8,0:0:0:0:
448,192,47650,1,0,0:0:0:0:
64,192,47979,1,2,0:0:0:0:
192,192,47979,1,0,0:0:0:0:
64,192,48144,1,2,0:0:0:0:
448,192,48144,1,0,0:0:0:0:
192,192,48472,1,8,0:0:0:0:
320,192,48472,1,0,0:0:0:0:
64,192,48637,1,2,0:0:0:0:
448,192,48637,1,0,0:0:0:0:
64,192,48965,1,8,0:0:0:0:
320,192,48965,1,0,0:0:0:0:
192,192,49294,1,2,0:0:0:0:
448,192,49294,1,0,0:0:0:0:
64,192,49459,1,2,0:0:0:0:
448,192,49459,1,0,0:0:0:0:
192,192,49787,1,8,0:0:0:0:
320,192,49787,1,0,0:0:0:0:
64,192,49952,1,2,0:0:0:0:
448,192,49952,1,0,0:0:0:0:
192,192,50116,1,8,0:0:0:0:
320,192,50116,1,0,0:0:0:0:
64,192,50281,1,8,0:0:0:0:
448,192,50281,1,0,0:0:0:0:
64,192,50609,1,2,0:0:0:0:
192,192,50609,1,0,0:0:0:0:
192,192,50774,1,2,0:0:0:0:
448,192,50774,1,0,0:0:0:0:
64,192,51102,1,8,0:0:0:0:
320,192,51102,1,0,0:0:0:0:
192,192,51267,1,2,0:0:0:0:
448,192,51267,1,0,0:0:0:0:
320,192,51596,1,8,0:0:0:0:
448,192,51596,1,0,0:0:0:0:
64,192,51760,1,0,0:0:0:0:
192,192,51924,1,2,0:0:0:0:
448,192,51924,1,0,0:0:0:0:
448,192,52089,1,2,0:0:0:0:
320,192,52089,128,0,52418:0:0:0:0:
64,192,52418,1,8,0:0:0:0:
192,192,52418,1,0,0:0:0:0:
320,192,52582,1,2,0:0:0:0:
448,192,52582,1,0,0:0:0:0:
64,192,52746,1,8,0:0:0:0:
192,192,52746,1,0,0:0:0:0:
64,192,52911,1,4,0:0:0:0:
320,192,52911,1,8,0:0:0:0:
448,192,52911,1,0,0:0:0:0:
192,192,53239,1,2,0:0:0:0:
448,192,53239,1,0,0:0:0:0:
320,192,53404,1,2,0:0:0:0:
448,192,53404,1,0,0:0:0:0:
64,192,53733,1,8,0:0:0:0:
192,192,53733,1,0,0:0:0:0:
320,192,53897,1,2,0:0:0:0:
448,192,53897,1,0,0:0:0:0:
64,192,54226,1,8,0:0:0:0:
320,192,54226,1,0,0:0:0:0:
192,192,54554,1,2,0:0:0:0:
448,192,54554,1,0,0:0:0:0:
192,192,54719,1,2,0:0:0:0:
320,192,54719,1,0,0:0:0:0:
64,192,55048,1,8,0:0:0:0:
448,192,55048,1,0,0:0:0:0:
192,192,55212,1,2,0:0:0:0:
320,192,55212,1,0,0:0:0:0:
64,192,55376,1,8,0:0:0:0:
448,192,55376,1,0,0:0:0:0:
192,192,55541,1,8,0:0:0:0:
320,192,55541,1,0,0:0:0:0:
192,192,55870,1,2,0:0:0:0:
448,192,55870,1,0,0:0:0:0:
64,192,56034,1,2,0:0:0:0:
448,192,56034,1,0,0:0:0:0:
192,192,56363,1,8,0:0:0:0:
320,192,56363,1,0,0:0:0:0:
64,192,56527,1,2,0:0:0:0:
448,192,56527,1,0,0:0:0:0:
192,192,56856,1,8,0:0:0:0:
320,192,56856,1,0,0:0:0:0:
64,192,57185,1,2,0:0:0:0:
448,192,57185,1,0,0:0:0:0:
64,192,57349,1,2,0:0:0:0:
320,192,57349,1,0,0:0:0:0:
192,192,57678,1,8,0:0:0:0:
448,192,57678,1,0,0:0:0:0:
64,192,57842,1,2,0:0:0:0:
320,192,57842,1,0,0:0:0:0:
192,192,58007,1,8,0:0:0:0:
448,192,58007,1,0,0:0:0:0:
64,192,58171,1,8,0:0:0:0:
320,192,58171,1,0,0:0:0:0:
192,192,58500,1,2,0:0:0:0:
320,192,58500,1,0,0:0:0:0:
192,192,58664,1,2,0:0:0:0:
448,192,58664,1,0,0:0:0:0:
64,192,58993,1,8,0:0:0:0:
320,192,58993,1,0,0:0:0:0:
192,192,59157,1,2,0:0:0:0:
448,192,59157,1,0,0:0:0:0:
64,192,59486,1,8,0:0:0:0:
192,192,59486,1,0,0:0:0:0:
320,192,59815,1,2,0:0:0:0:
448,192,59815,1,0,0:0:0:0:
64,192,59979,1,2,0:0:0:0:
448,192,59979,1,0,0:0:0:0:
192,192,60308,1,8,0:0:0:0:
320,192,60308,1,0,0:0:0:0:
64,192,60472,1,2,0:0:0:0:
448,192,60472,1,0,0:0:0:0:
192,192,60637,1,8,0:0:0:0:
320,192,60637,1,0,0:0:0:0:
64,192,60801,1,8,0:0:0:0:
448,192,60801,1,0,0:0:0:0:
192,192,61130,1,2,0:0:0:0:
320,192,61130,1,0,0:0:0:0:
192,192,61294,1,2,0:0:0:0:
448,192,61294,1,0,0:0:0:0:
64,192,61623,1,8,0:0:0:0:
320,192,61623,1,0,0:0:0:0:
192,192,61787,1,2,0:0:0:0:
448,192,61787,1,0,0:0:0:0:
320,192,62116,1,8,0:0:0:0:
448,192,62116,1,0,0:0:0:0:
64,192,62445,1,2,0:0:0:0:
192,192,62445,1,0,0:0:0:0:
64,192,62609,1,2,0:0:0:0:
448,192,62609,1,0,0:0:0:0:
320,192,62774,1,0,0:0:0:0:
64,192,62938,1,8,0:0:0:0:
192,192,62938,1,0,0:0:0:0:
320,192,63020,1,8,0:0:0:0:
448,192,63020,1,0,0:0:0:0:
64,192,63102,1,2,0:0:0:0:
192,192,63102,1,0,0:0:0:0:
320,192,63267,1,8,0:0:0:0:
448,192,63267,1,0,0:0:0:0:
64,192,63431,1,8,0:0:0:0:
192,192,63431,1,4,0:0:0:0:
448,192,63431,1,0,0:0:0:0:
320,192,63596,1,0,0:0:0:0:
64,192,63760,1,10,0:0:0:0:
192,192,63760,1,0,0:0:0:0:
448,192,63924,1,0,0:0:0:0:
64,192,64089,1,8,0:0:0:0:
320,192,64089,1,0,0:0:0:0:
192,192,64253,1,0,0:0:0:0:
320,192,64418,1,10,0:0:0:0:
448,192,64418,1,0,0:0:0:0:
64,192,64582,1,0,0:0:0:0:
192,192,64746,1,8,0:0:0:0:
320,192,64746,1,0,0:0:0:0:
448,192,64911,1,0,0:0:0:0:
64,192,65075,1,10,0:0:0:0:
320,192,65075,1,0,0:0:0:0:
192,192,65239,1,0,0:0:0:0:
320,192,65322,1,0,0:0:0:0:
64,192,65404,1,8,0:0:0:0:
448,192,65404,1,0,0:0:0:0:
64,192,65568,1,0,0:0:0:0:
192,192,65733,1,10,0:0:0:0:
320,192,65733,1,0,0:0:0:0:
320,192,65897,1,0,0:0:0:0:
64,192,66061,1,8,0:0:0:0:
448,192,66061,1,0,0:0:0:0:
192,192,66226,1,0,0:0:0:0:
320,192,66390,1,10,0:0:0:0:
448,192,66390,1,0,0:0:0:0:
192,192,66554,1,0,0:0:0:0:
64,192,66719,1,8,0:0:0:0:
320,192,66719,1,0,0:0:0:0:
448,192,66883,1,0,0:0:0:0:
64,192,67048,1,10,0:0:0:0:
192,192,67048,1,0,0:0:0:0:
320,192,67212,1,0,0:0:0:0:
64,192,67376,1,8,0:0:0:0:
448,192,67376,1,0,0:0:0:0:
192,192,67541,1,0,0:0:0:0:
320,192,67705,1,10,0:0:0:0:
448,192,67705,1,0,0:0:0:0:
64,192,67870,1,0,0:0:0:0:
192,192,67952,1,0,0:0:0:0:
320,192,68034,1,8,0:0:0:0:
448,192,68034,1,0,0:0:0:0:
448,192,68198,1,0,0:0:0:0:
64,192,68363,1,10,0:0:0:0:
192,192,68363,1,0,0:0:0:0:
192,192,68527,1,0,0:0:0:0:
64,192,68691,1,8,0:0:0:0:
320,192,68691,1,4,0:0:0:0:
448,192,68691,1,0,0:0:0:0:
192,192,68856,1,0,0:0:0:0:
320,192,69020,1,10,0:0:0:0:
448,192,69020,1,0,0:0:0:0:
64,192,69185,1,0,0:0:0:0:
192,192,69349,1,8,0:0:0:0:
448,192,69349,1,0,0:0:0:0:
320,192,69513,1,0,0:0:0:0:
64,192,69678,1,10,0:0:0:0:
192,192,69678,1,0,0:0:0:0:
320,192,69842,1,0,0:0:0:0:
64,192,70007,1,8,0:0:0:0:
448,192,70007,1,0,0:0:0:0:
192,192,70171,1,0,0:0:0:0:
320,192,70335,1,10,0:0:0:0:
448,192,70335,1,0,0:0:0:0:
192,192,70500,1,0,0:0:0:0:
320,192,70582,1,0,0:0:0:0:
64,192,70664,1,8,0:0:0:0:
448,192,70664,1,0,0:0:0:0:
448,192,70828,1,0,0:0:0:0:
192,192,70993,1,10,0:0:0:0:
320,192,70993,1,0,0:0:0:0:
192,192,71157,1,0,0:0:0:0:
64,192,71322,1,8,0:0:0:0:
448,192,71322,1,0,0:0:0:0:
320,192,71486,1,0,0:0:0:0:
64,192,71650,1,10,0:0:0:0:
192,192,71650,1,0,0:0:0:0:
448,192,71815,1,0,0:0:0:0:
64,192,71979,1,8,0:0:0:0:
320,192,71979,1,0,0:0:0:0:
192,192,72144,1,0,0:0:0:0:
320,192,72308,1,10,0:0:0:0:
448,192,72308,1,0,0:0:0:0:
64,192,72472,1,0,0:0:0:0:
192,192,72637,1,8,0:0:0:0:
448,192,72637,1,0,0:0:0:0:
320,192,72801,1,0,0:0:0:0:
64,192,72965,1,10,0:0:0:0:
192,192,72965,1,0,0:0:0:0:
448,192,73130,1,0,0:0:0:0:
320,192,73212,1,0,0:0:0:0:
64,192,73294,1,8,0:0:0:0:
192,192,73294,1,0,0:0:0:0:
192,192,73459,1,0,0:0:0:0:
320,192,73623,1,10,0:0:0:0:
448,192,73623,1,0,0:0:0:0:
448,192,73787,1,0,0:0:0:0:
64,192,73952,1,4,0:0:0:0:
192,192,73952,1,8,0:0:0:0:
320,192,73952,1,0,0:0:0:0:
448,192,74116,1,0,0:0:0:0:
64,192,74281,1,10,0:0:0:0:
192,192,74281,1,0,0:0:0:0:
320,192,74445,1,0,0:0:0:0:
192,192,74609,1,8,0:0:0:0:
448,192,74609,1,0,0:0:0:0:
64,192,74774,1,0,0:0:0:0:
320,192,74938,1,10,0:0:0:0:
448,192,74938,1,0,0:0:0:0:
64,192,75102,1,0,0:0:0:0:
192,192,75267,1,8,0:0:0:0:
320,192,75267,1,0,0:0:0:0:
448,192,75431,1,0,0:0:0:0:
64,192,75596,1,10,0:0:0:0:
320,192,75596,1,0,0:0:0:0:
192,192,75760,1,0,0:0:0:0:
320,192,75842,1,0,0:0:0:0:
64,192,75924,1,8,0:0:0:0:
448,192,75924,1,0,0:0:0:0:
64,192,76089,1,0,0:0:0:0:
192,192,76253,1,10,0:0:0:0:
320,192,76253,1,0,0:0:0:0:
320,192,76418,1,0,0:0:0:0:
64,192,76582,1,8,0:0:0:0:
448,192,76582,1,0,0:0:0:0:
192,192,76746,1,0,0:0:0:0:
64,192,76911,1,10,0:0:0:0:
320,192,76911,1,0,0:0:0:0:
448,192,77075,1,0,0:0:0:0:
192,192,77239,1,8,0:0:0:0:
320,192,77239,1,0,0:0:0:0:
64,192,77404,1,0,0:0:0:0:
320,192,77568,1,10,0:0:0:0:
448,192,77568,1,0,0:0:0:0:
64,192,77733,1,0,0:0:0:0:
192,192,77897,1,8,0:0:0:0:
448,192,77897,1,0,0:0:0:0:
320,192,78061,1,0,0:0:0:0:
64,192,78226,1,10,0:0:0:0:
192,192,78226,1,0,0:0:0:0:
448,192,78390,1,0,0:0:0:0:
320,192,78472,1,0,0:0:0:0:
64,192,78554,1,8,0:0:0:0:
192,192,78554,1,0,0:0:0:0:
192,192,78719,1,0,0:0:0:0:
320,192,78883,1,10,0:0:0:0:
448,192,78883,1,0,0:0:0:0:
448,192,79048,1,0,0:0:0:0:
64,192,79212,1,4,0:0:0:0:
192,192,79212,1,8,0:0:0:0:
320,192,79212,1,0,0:0:0:0:
448,192,79376,1,0,0:0:0:0:
64,192,79541,1,10,0:0:0:0:
192,192,79541,1,0,0:0:0:0:
320,192,79705,1,0,0:0:0:0:
192,192,79870,1,8,0:0:0:0:
448,192,79870,1,0,0:0:0:0:
64,192,80034,1,0,0:0:0:0:
320,192,80198,1,10,0:0:0:0:
448,192,80198,1,0,0:0:0:0:
192,192,80363,1,0,0:0:0:0:
64,192,80527,1,8,0:0:0:0:
448,192,80527,1,0,0:0:0:0:
320,192,80691,1,0,0:0:0:0:
64,192,80856,1,10,0:0:0:0:
192,192,80856,1,0,0:0:0:0:
448,192,81020,1,0,0:0:0:0:
320,192,81102,1,0,0:0:0:0:
64,192,81185,1,8,0:0:0:0:
192,192,81185,1,0,0:0:0:0:
64,192,81349,1,0,0:0:0:0:
320,192,81513,1,10,0:0:0:0:
448,192,81513,1,0,0:0:0:0:
448,192,81678,1,0,0:0:0:0:
192,192,81842,1,8,0:0:0:0:
320,192,81842,1,0,0:0:0:0:
64,192,82007,1,0,0:0:0:0:
192,192,82171,1,10,0:0:0:0:
448,192,82171,1,0,0:0:0:0:
320,192,82335,1,0,0:0:0:0:
64,192,82500,1,8,0:0:0:0:
448,192,82500,1,0,0:0:0:0:
192,192,82664,1,0,0:0:0:0:
320,192,82828,1,10,0:0:0:0:
448,192,82828,1,0,0:0:0:0:
64,192,82993,1,0,0:0:0:0:
192,192,83157,1,8,0:0:0:0:
448,192,83157,1,0,0:0:0:0:
320,192,83322,1,0,0:0:0:0:
64,192,83486,1,10,0:0:0:0:
448,192,83486,1,0,0:0:0:0:
192,192,83650,1,0,0:0:0:0:
64,192,83733,1,0,0:0:0:0:
320,192,83815,1,8,0:0:0:0:
448,192,83815,1,0,0:0:0:0:
320,192,83979,1,0,0:0:0:0:
64,192,84144,1,10,0:0:0:0:
192,192,84144,1,0,0:0:0:0:
192,192,84308,1,0,0:0:0:0:
64,192,84472,1,8,0:0:0:0:
320,192,84472,1,4,0:0:0:0:
448,192,84472,1,0,0:0:0:0:
192,192,84801,1,2,0:0:0:0:
320,192,84801,1,0,0:0:0:0:
192,192,84965,1,2,0:0:0:0:
448,192,84965,1,0,0:0:0:0:
64,192,85294,1,8,0:0:0:0:
320,192,85294,1,0,0:0:0:0:
192,192,85459,1,2,0:0:0:0:
448,192,85459,1,0,0:0:0:0:
64,192,85787,1,8,0:0:0:0:
448,192,85787,1,0,0:0:0:0:
192,192,86116,1,2,0:0:0:0:
320,192,86116,1,0,0:0:0:0:
320,192,86281,1,2,0:0:0:0:
448,192,86281,1,0,0:0:0:0:
64,192,86609,1,8,0:0:0:0:
192,192,86609,1,0,0:0:0:0:
320,192,86774,1,2,0:0:0:0:
448,192,86774,1,0,0:0:0:0:
64,192,86938,1,8,0:0:0:0:
192,192,86938,1,0,0:0:0:0:
320,192,87102,1,8,0:0:0:0:
448,192,87102,1,0,0:0:0:0:
64,192,87431,1,2,0:0:0:0:
192,192,87431,1,0,0:0:0:0:
64,192,87596,1,2,0:0:0:0:
320,192,87596,1,0,0:0:0:0:
192,192,87924,1,8,0:0:0:0:
448,192,87924,1,0,0:0:0:0:
64,192,88089,1,2,0:0:0:0:
320,192,88089,1,0,0:0:0:0:
192,192,88418,1,8,0:0:0:0:
320,192,88418,1,0,0:0:0:0:
64,192,88746,1,2,0:0:0:0:
448,192,88746,1,0,0:0:0:0:
192,192,88911,1,2,0:0:0:0:
448,192,88911,1,0,0:0:0:0:
64,192,89239,1,8,0:0:0:0:
320,192,89239,1,0,0:0:0:0:
192,192,89404,1,2,0:0:0:0:
448,192,89404,1,0,0:0:0:0:
64,192,89568,1,8,0:0:0:0:
320,192,89568,1,0,0:0:0:0:
192,192,89733,1,8,0:0:0:0:
448,192,89733,1,0,0:0:0:0:
64,192,90061,1,2,0:0:0:0:
320,192,90061,1,0,0:0:0:0:
64,192,90226,1,2,0:0:0:0:
192,192,90226,1,0,0:0:0:0:
320,192,90554,1,8,0:0:0:0:
448,192,90554,1,0,0:0:0:0:
64,192,90719,1,2,0:0:0:0:
192,192,90719,1,0,0:0:0:0:
192,192,91048,1,8,0:0:0:0:
448,192,91048,1,0,0:0:0:0:
64,192,91376,1,2,0:0:0:0:
320,192,91376,1,0,0:0:0:0:
192,192,91541,1,2,0:0:0:0:
320,192,91541,1,0,0:0:0:0:
64,192,91870,1,8,0:0:0:0:
448,192,91870,1,0,0:0:0:0:
192,192,92034,1,2,0:0:0:0:
320,192,92034,1,0,0:0:0:0:
64,192,92198,1,8,0:0:0:0:
448,192,92198,1,0,0:0:0:0:
192,192,92363,1,8,0:0:0:0:
320,192,92363,1,0,0:0:0:0:
64,192,92691,1,2,0:0:0:0:
448,192,92691,1,0,0:0:0:0:
64,192,92856,1,2,0:0:0:0:
320,192,92856,1,0,0:0:0:0:
192,192,93185,1,8,0:0:0:0:
448,192,93185,1,0,0:0:0:0:
64,192,93349,1,2,0:0:0:0:
320,192,93349,1,0,0:0:0:0:
64,192,93678,1,8,0:0:0:0:
192,192,93678,1,0,0:0:0:0:
320,192,94007,1,2,0:0:0:0:
448,192,94007,1,0,0:0:0:0:
192,192,94171,1,2,0:0:0:0:
448,192,94171,1,0,0:0:0:0:
64,192,94335,1,0,0:0:0:0:
320,192,94500,1,8,0:0:0:0:
448,192,94500,1,0,0:0:0:0:
64,192,94582,1,8,0:0:0:0:
192,192,94582,1,0,0:0:0:0:
320,192,94664,1,2,0:0:0:0:
448,192,94664,1,0,0:0:0:0:
64,192,94828,1,8,0:0:0:0:
192,192,94828,1,0,0:0:0:0:
64,192,94993,1,8,0:0:0:0:
320,192,94993,1,4,0:0:0:0:
448,192,94993,1,0,0:0:0:0:
192,192,95157,1,0,0:0:0:0:
320,192,95322,1,10,0:0:0:0:
448,192,95322,1,0,0:0:0:0:
64,192,95486,1,0,0:0:0:0:
192,192,95650,1,8,0:0:0:0:
448,192,95650,1,0,0:0:0:0:
320,192,95815,1,0,0:0:0:0:
64,192,95979,1,10,0:0:0:0:
192,192,95979,1,0,0:0:0:0:
448,192,96144,1,0,0:0:0:0:
64,192,96308,1,8,0:0:0:0:
320,192,96308,1,0,0:0:0:0:
192,192,96472,1,0,0:0:0:0:
320,192,96637,1,10,0:0:0:0:
448,192,96637,1,0,0:0:0:0:
192,192,96801,1,0,0:0:0:0:
64,192,96965,1,8,0:0:0:0:
320,192,96965,1,0,0:0:0:0:
448,192,97130,1,0,0:0:0:0:
64,192,97294,1,10,0:0:0:0:
192,192,97294,1,0,0:0:0:0:
320,192,97459,128,0,97623:0:0:0:0:
192,192,97623,1,8,0:0:0:0:
448,192,97623,1,0,0:0:0:0:
64,192,97787,1,0,0:0:0:0:
192,192,97952,1,10,0:0:0:0:
320,192,97952,1,0,0:0:0:0:
448,192,98116,1,0,0:0:0:0:
64,192,98281,1,8,0:0:0:0:
320,192,98281,1,0,0:0:0:0:
192,192,98445,1,0,0:0:0:0:
64,192,98609,1,10,0:0:0:0:
448,192,98609,1,0,0:0:0:0:
320,192,98774,1,0,0:0:0:0:
192,192,98938,1,8,0:0:0:0:
448,192,98938,1,0,0:0:0:0:
64,192,99102,1,0,0:0:0:0:
192,192,99267,1,10,0:0:0:0:
320,192,99267,1,0,0:0:0:0:
448,192,99431,1,0,0:0:0:0:
64,192,99596,1,8,0:0:0:0:
192,192,99596,1,0,0:0:0:0:
320,192,99760,1,0,0:0:0:0:
64,192,99924,1,10,0:0:0:0:
448,192,99924,1,0,0:0:0:0:
192,192,100007,1,0,0:0:0:0:
320,192,100089,128,0,100253:0:0:0:0:
64,192,100253,1,8,0:0:0:0:
192,192,100253,1,4,0:0:0:0:
448,192,100253,1,0,0:0:0:0:
320,192,100418,1,0,0:0:0:0:
64,192,100582,1,10,0:0:0:0:
192,192,100582,1,0,0:0:0:0:
448,192,100746,128,0,100911:0:0:0:0:
64,192,100911,1,8,0:0:0:0:
320,192,100911,1,0,0:0:0:0:
192,192,101075,1,0,0:0:0:0:
64,192,101239,1,10,0:0:0:0:
448,192,101239,1,0,0:0:0:0:
320,192,101404,1,0,0:0:0:0:
192,192,101568,1,8,0:0:0:0:
448,192,101568,1,0,0:0:0:0:
64,192,101733,128,0,101897:0:0:0:0:
320,192,101897,1,10,0:0:0:0:
448,192,101897,1,0,0:0:0:0:
192,192,102061,128,0,102226:0:0:0:0:
64,192,102226,1,8,0:0:0:0:
320,192,102226,1,0,0:0:0:0:
448,192,102390,1,0,0:0:0:0:
64,192,102554,1,10,0:0:0:0:
320,192,102554,1,0,0:0:0:0:
192,192,102719,1,0,0:0:0:0:
64,192,102883,1,4,0:0:0:0:
320,192,102883,1,8,0:0:0:0:
448,192,102883,1,0,0:0:0:0:
192,192,102993,1,0,0:0:0:0:
320,192,103102,1,0,0:0:0:0:
64,192,103212,1,10,0:0:0:0:
448,192,103212,1,0,0:0:0:0:
192,192,103322,1,0,0:0:0:0:
448,192,103431,1,0,0:0:0:0:
64,192,103541,1,8,0:0:0:0:
320,192,103541,1,0,0:0:0:0:
192,192,103650,1,0,0:0:0:0:
320,192,103760,1,0,0:0:0:0:
192,192,103870,1,10,0:0:0:0:
448,192,103870,1,0,0:0:0:0:
64,192,103979,1,0,0:0:0:0:
448,192,104089,1,0,0:0:0:0:
192,192,104198,1,8,0:0:0:0:
320,192,104198,1,0,0:0:0:0:
64,192,104308,1,0,0:0:0:0:
448,192,104418,1,0,0:0:0:0:
64,192,104527,1,10,0:0:0:0:
320,192,104527,1,0,0:0:0:0:
192,192,104637,1,0,0:0:0:0:
320,192,104746,1,0,0:0:0:0:
192,192,104856,1,8,0:0:0:0:
448,192,104856,1,0,0:0:0:0:
64,192,104965,1,0,0:0:0:0:
320,192,105075,1,0,0:0:0:0:
192,192,105185,1,10,0:0:0:0:
448,192,105185,128,0,105513:0:0:0:0:
64,192,105349,1,0,0:0:0:0:
64,192,105513,1,4,0:0:0:0:
192,192,105513,1,8,0:0:0:0:
320,192,105513,1,0,0:0:0:0:
448,192,105678,1,0,0:0:0:0:
64,192,105842,1,10,0:0:0:0:
448,192,105842,1,0,0:0:0:0:
192,192,106007,1,0,0:0:0:0:
192,192,106171,1,8,0:0:0:0:
448,192,106171,1,0,0:0:0:0:
320,192,106335,1,0,0:0:0:0:
192,192,106500,1,10,0:0:0:0:
320,192,106500,1,0,0:0:0:0:
64,192,106664,1,0,0:0:0:0:
64,192,106828,1,8,0:0:0:0:
448,192,106828,1,0,0:0:0:0:
320,192,106993,1,0,0:0:0:0:
64,192,107157,1,10,0:0:0:0:
192,192,107157,1,0,0:0:0:0:
448,192,107322,1,0,0:0:0:0:
320,192,107404,1,0,0:0:0:0:
64,192,107486,1,8,0:0:0:0:
192,192,107486,1,0,0:0:0:0:
448,192,107650,1,0,0:0:0:0:
64,192,107815,1,10,0:0:0:0:
320,192,107815,1,0,0:0:0:0:
192,192,107979,1,0,0:0:0:0:
320,192,108144,1,8,0:0:0:0:
448,192,108144,1,0,0:0:0:0:
320,192,108308,1,0,0:0:0:0:
64,192,108472,1,10,0:0:0:0:
192,192,108472,1,0,0:0:0:0:
192,192,108637,1,0,0:0:0:0:
64,192,108801,1,8,0:0:0:0:
448,192,108801,1,0,0:0:0:0:
448,192,108965,1,0,0:0:0:0:
64,192,109130,1,10,0:0:0:0:
320,192,109130,1,0,0:0:0:0:
64,192,109294,1,0,0:0:0:0:
192,192,109459,1,8,0:0:0:0:
448,192,109459,1,0,0:0:0:0:
64,192,109623,1,0,0:0:0:0:
320,192,109787,1,10,0:0:0:0:
448,192,109787,1,0,0:0:0:0:
64,192,109952,1,0,0:0:0:0:
192,192,110034,1,0,0:0:0:0:
320,192,110116,1,8,0:0:0:0:
448,192,110116,1,0,0:0:0:0:
192,192,110281,1,0,0:0:0:0:
64,192,110445,1,10,0:0:0:0:
448,192,110445,1,0,0:0:0:0:
320,192,110609,1,0,0:0:0:0:
64,192,110774,1,8,0:0:0:0:
192,192,110774,1,4,0:0:0:0:
448,192,110774,1,0,0:0:0:0:
320,192,110938,1,0,0:0:0:0:
192,192,111102,1,10,0:0:0:0:
320,192,111102,1,0,0:0:0:0:
64,192,111267,1,0,0:0:0:0:
192,192,111431,1,8,0:0:0:0:
64,192,111431,1,0,0:0:0:0:
448,192,111596,1,0,0:0:0:0:
448,192,111760,1,10,0:0:0:0:
64,192,111760,1,0,0:0:0:0:
192,192,111924,1,0,0:0:0:0:
192,192,112089,1,8,0:0:0:0:
320,192,112089,1,0,0:0:0:0:
64,192,112253,1,0,0:0:0:0:
320,192,112418,1,10,0:0:0:0:
448,192,112418,1,0,0:0:0:0:
64,192,112582,1,0,0:0:0:0:
192,192,112664,1,0,0:0:0:0:
320,192,112746,1,8,0:0:0:0:
448,192,112746,1,0,0:0:0:0:
64,192,112911,1,0,0:0:0:0:
192,192,113075,1,10,0:0:0:0:
448,192,113075,1,0,0:0:0:0:
320,192,113239,1,0,0:0:0:0:
64,192,113404,1,8,0:0:0:0:
192,192,113404,1,0,0:0:0:0:
64,192,113568,1,0,0:0:0:0:
192,192,113733,1,10,0:0:0:0:
320,192,113733,1,0,0:0:0:0:
192,192,113897,1,0,0:0:0:0:
320,192,114061,1,8,0:0:0:0:
448,192,114061,1,0,0:0:0:0:
448,192,114226,1,0,0:0:0:0:
192,192,114390,1,10,0:0:0:0:
320,192,114390,1,0,0:0:0:0:
320,192,114554,1,0,0:0:0:0:
64,192,114719,1,8,0:0:0:0:
192,192,114719,1,0,0:0:0:0:
448,192,114883,1,0,0:0:0:0:
64,192,115048,1,10,0:0:0:0:
320,192,115048,1,0,0:0:0:0:
192,192,115212,1,0,0:0:0:0:
64,192,115294,1,0,0:0:0:0:
320,192,115376,1,8,0:0:0:0:
448,192,115376,1,0,0:0:0:0:
64,192,115541,1,0,0:0:0:0:
192,192,115705,1,10,0:0:0:0:
448,192,115705,1,0,0:0:0:0:
448,192,115870,1,0,0:0:0:0:
64,192,116034,1,8,0:0:0:0:
192,192,116034,1,4,0:0:0:0:
320,192,116034,1,0,0:0:0:0:
448,192,116198,1,0,0:0:0:0:
192,192,116363,1,10,0:0:0:0:
448,192,116363,1,0,0:0:0:0:
64,192,116527,1,0,0:0:0:0:
64,192,116691,1,8,0:0:0:0:
448,192,116691,1,0,0:0:0:0:
320,192,116856,1,0,0:0:0:0:
64,192,117020,1,10,0:0:0:0:
320,192,117020,1,0,0:0:0:0:
192,192,117185,1,0,0:0:0:0:
64,192,117349,1,8,0:0:0:0:
192,192,117349,1,0,0:0:0:0:
320,192,117513,1,0,0:0:0:0:
320,192,117678,1,10,0:0:0:0:
448,192,117678,1,0,0:0:0:0:
64,192,117842,1,0,0:0:0:0:
320,192,117924,1,0,0:0:0:0:
64,192,118007,1,8,0:0:0:0:
448,192,118007,1,0,0:0:0:0:
192,192,118171,1,0,0:0:0:0:
192,192,118335,1,10,0:0:0:0:
320,192,118335,1,0,0:0:0:0:
448,192,118500,1,0,0:0:0:0:
192,192,118664,1,8,0:0:0:0:
448,192,118664,1,0,0:0:0:0:
64,192,118828,1,0,0:0:0:0:
64,192,118993,1,10,0:0:0:0:
320,192,118993,1,0,0:0:0:0:
448,192,119157,1,0,0:0:0:0:
320,192,119322,1,8,0:0:0:0:
448,192,119322,1,0,0:0:0:0:
192,192,119486,1,0,0:0:0:0:
192,192,119650,1,10,0:0:0:0:
448,192,119650,1,0,0:0:0:0:
320,192,119815,1,0,0:0:0:0:
192,192,119979,1,8,0:0:0:0:
320,192,119979,1,0,0:0:0:0:
64,192,120144,1,0,0:0:0:0:
64,192,120308,1,10,0:0:0:0:
448,192,120308,1,0,0:0:0:0:
192,192,120472,1,0,0:0:0:0:
448,192,120554,1,0,0:0:0:0:
192,192,120637,1,8,0:0:0:0:
320,192,120637,1,0,0:0:0:0:
448,192,120801,1,0,0:0:0:0:
64,192,120965,1,10,0:0:0:0:
448,192,120965,1,0,0:0:0:0:
320,192,121130,1,0,0:0:0:0:
64,192,121294,1,4,0:0:0:0:
192,192,121294,1,8,0:0:0:0:
320,192,121294,1,0,0:0:0:0:
192,192,121459,1,0,0:0:0:0:
320,192,121623,1,10,0:0:0:0:
448,192,121623,1,0,0:0:0:0:
448,192,121787,1,0,0:0:0:0:
64,192,121952,1,8,0:0:0:0:
320,192,121952,1,0,0:0:0:0:
64,192,122116,1,0,0:0:0:0:
192,192,122281,1,10,0:0:0:0:
448,192,122281,1,0,0:0:0:0:
192,192,122445,1,0,0:0:0:0:
64,192,122609,1,8,0:0:0:0:
320,192,122609,1,0,0:0:0:0:
320,192,122774,1,0,0:0:0:0:
64,192,122938,1,10,0:0:0:0:
448,192,122938,1,0,0:0:0:0:
448,192,123102,1,0,0:0:0:0:
320,192,123185,1,0,0:0:0:0:
64,192,123267,1,8,0:0:0:0:
192,192,123267,1,0,0:0:0:0:
192,192,123431,1,0,0:0:0:0:
64,192,123596,1,10,0:0:0:0:
320,192,123596,1,0,0:0:0:0:
320,192,123760,1,0,0:0:0:0:
192,192,123924,1,8,0:0:0:0:
448,192,123924,1,0,0:0:0:0:
448,192,124089,1,0,0:0:0:0:
64,192,124253,1,10,0:0:0:0:
192,192,124253,1,0,0:0:0:0:
192,192,124418,1,0,0:0:0:0:
64,192,124582,1,8,0:0:0:0:
320,192,124582,1,0,0:0:0:0:
320,192,124746,1,0,0:0:0:0:
64,192,124911,1,10,0:0:0:0:
448,192,124911,1,0,0:0:0:0:
64,192,125075,1,0,0:0:0:0:
192,192,125239,1,8,0:0:0:0:
448,192,125239,1,0,0:0:0:0:
448,192,125404,1,0,0:0:0:0:
64,192,125568,1,10,0:0:0:0:
320,192,125568,1,0,0:0:0:0:
320,192,125733,1,0,0:0:0:0:
64,192,125815,1,0,0:0:0:0:
192,192,125897,1,8,0:0:0:0:
448,192,125897,1,0,0:0:0:0:
192,192,126061,1,0,0:0:0:0:
64,192,126226,1,10,0:0:0:0:
320,192,126226,1,0,0:0:0:0:
64,192,126390,1,0,0:0:0:0:
192,192,126554,1,4,0:0:0:0:
320,192,126554,1,8,0:0:0:0:
448,192,126554,128,0,129191:0:0:0:0:
64,192,126883,1,0,0:0:0:0:
64,192,127543,1,0,0:0:0:0:
64,192,128202,1,0,0:0:0:0:
64,192,128861,1,0,0:0:0:0:
64,192,129191,1,8,0:0:0:0:
192,192,129191,128,4,131828:0:0:0:0:
320,192,129191,1,0,0:0:0:0:
448,192,129521,1,0,0:0:0:0:
448,192,130180,1,0,0:0:0:0:
448,192,130839,1,0,0:0:0:0:
448,192,131499,1,0,0:0:0:0:
64,192,131828,1,8,0:0:0:0:
320,192,131828,128,4,134466:0:0:0:0:
448,192,131828,1,0,0:0:0:0:
192,192,132158,1,0,0:0:0:0:
192,192,132817,1,0,0:0:0:0:
192,192,133477,1,0,0:0:0:0:
192,192,134136,1,0,0:0:0:0:
64,192,134466,128,8,137103:0:0:0:0:
192,192,134466,1,4,0:0:0:0:
448,192,134466,1,0,0:0:0:0:
