osu file format v14

[General]
AudioFilename: HANZERS EXTREME.mp3
AudioLeadIn: 0
PreviewTime: 20878
Countdown: 0
SampleSet: Soft
StackLeniency: 0.7
Mode: 0
LetterboxInBreaks: 0
WidescreenStoryboard: 0

[Editor]
Bookmarks: 13202
DistanceSpacing: 1.2
BeatDivisor: 4
GridSize: 16
TimelineZoom: 2

[Metadata]
Title:Come Home! Princess
TitleUnicode:Come Home! Princess
Artist:Chiyoko
ArtistUnicode:ちよこ
Creator:VINXIS
Version:zweib's princess
Source:パニカル・コンフュージョン
Tags:Panical Confusion Panicon パニコン Home Zweib 2b eroge Escu:de taishi IOSYS OP opening -_E_n_j_u_- Enjoy Enju SnowWhite hvick225
BeatmapID:946962
BeatmapSetID:436344

[Difficulty]
HPDrainRate:6
CircleSize:4
OverallDifficulty:8.5
ApproachRate:9
SliderMultiplier:1.99999990463257
SliderTickRate:1

[Events]
//Background and Video events
0,0,"HONEY CAMU.png",0,0
//Break Periods
//Storyboard Layer 0 (Background)
//Storyboard Layer 1 (Fail)
//Storyboard Layer 2 (Pass)
//Storyboard Layer 3 (Foreground)
//Storyboard Sound Samples

[TimingPoints]
408,352.941176470588,4,2,1,60,1,0
9055,-133.333333333333,4,2,1,60,0,0
10290,-100,4,2,1,60,0,0
18760,-117.647058823529,4,2,1,60,0,0
20084,-117.647058823529,4,2,1,30,0,0
20172,-100,4,2,1,65,0,0
23878,-133.333333333333,4,2,1,65,0,0
24407,-100,4,2,1,65,0,0
25819,-133.333333333333,4,2,1,65,0,0
26878,-100,4,2,1,65,0,0
27231,-100,4,2,1,65,0,0
29702,-133.333333333333,4,2,1,65,0,0
30055,-100,4,2,1,65,0,0
43466,-133.333333333333,4,2,1,65,0,0
43819,-83.3333333333333,4,2,1,65,0,0
44172,-100,4,2,1,75,0,1
54407,-83.3333333333333,4,2,1,75,0,1
55466,-100,4,2,1,75,0,1
63937,-100,4,2,1,65,0,0
77878,-133.333333333333,4,2,1,65,0,0
78407,-100,4,2,1,65,0,0
90407,-100,4,2,1,55,0,0
91466,-100,4,2,1,45,0,0
92525,-100,4,2,1,35,0,0
93584,-100,4,2,1,25,0,0
94643,-100,4,2,1,15,0,0
94996,-100,4,2,1,10,0,0

[Colours]
Combo1 : 153,51,255
Combo2 : 255,138,255
Combo3 : 0,91,204
Combo4 : 128,255,255

[HitObjects]
269,195,9055,6,0,L|286:237,5,37.4999996423721,0|0|0|0|0|0,0:0|0:0|0:0|0:0|0:0|0:0,0:0:0:0:
298,260,9584,2,0,L|404:249,1,74.9999992847443,0|0,0:0|0:0,0:0:0:0:
194,228,9937,2,0,L|161:326,1,74.9999992847443,8|0,0:0|0:0,0:0:0:0:
283,161,10290,6,0,L|269:56,1,99.9999952316285,6|0,0:0|0:0,0:0:0:0:
172,130,10643,2,0,L|73:145,1,99.9999952316285,2|0,0:0|0:0,0:0:0:0:
337,245,10996,2,0,L|437:232,1,99.9999952316285,2|0,0:0|0:0,0:0:0:0:
512,136,11349,1,2,0:0:0:0:
492,308,11525,1,0,0:0:0:0:
349,136,11702,6,0,L|352:36,1,99.9999952316285,6|0,0:0|0:0,0:0:0:0:
120,194,12055,2,0,L|241:204,1,99.9999952316285,2|0,0:0|0:0,0:0:0:0:
248,102,12407,1,2,0:0:0:0:
29,251,12584,1,0,0:0:0:0:
53,143,12760,2,0,L|37:23,1,99.9999952316285,2|0,0:0|0:0,0:0:0:0:
321,43,13113,6,0,L|333:160,1,99.9999952316285,6|0,0:0|0:0,0:0:0:0:
349,295,13466,2,0,L|451:284,1,99.9999952316285,2|0,0:0|0:0,0:0:0:0:
247,201,13819,1,2,0:0:0:0:
76,355,13996,1,0,0:0:0:0:
6,133,14172,1,2,0:0:0:0:
278,306,14349,6,0,B|346:289|346:289|364:146,1,199.999990463257,6|0,0:0|0:0,0:0:0:0:
183,257,14878,2,0,L|174:365,1,99.9999952316285,0|0,0:0|0:0,0:0:0:0:
487,311,15231,2,0,L|454:217,1,99.9999952316285,2|0,0:0|0:0,0:0:0:0:
252,79,15584,2,0,L|260:179,1,99.9999952316285,0|0,0:0|0:0,0:0:0:0:
368,292,15937,6,0,B|358:190|358:190|280:301,1,199.999990463257,6|0,0:0|0:0,0:0:0:0:
279,382,16466,1,0,0:0:0:0:
0,313,16643,2,0,B|48:286|48:286|69:299|69:299|204:309,1,199.999990463257,6|0,0:0|0:0,0:0:0:0:
243,146,17172,6,0,B|202:202|202:202|65:189,1,199.999990463257,6|0,0:0|0:0,0:0:0:0:
341,66,17702,2,0,L|358:183,1,99.9999952316285,2|0,0:0|0:0,0:0:0:0:
287,287,18055,2,0,L|183:307,1,99.9999952316285,2|0,0:0|0:0,0:0:0:0:
458,210,18407,2,0,L|446:313,1,99.9999952316285,2|0,0:0|0:0,0:0:0:0:
192,228,18760,6,0,B|191:209|214:188|214:188|148:210|113:141|113:141|167:89|246:141|246:141|255:51|333:42|333:42|355:122|303:148|303:148|331:149|355:164,1,637.499981760979,2|0,0:0|0:0,0:0:0:0:
265,181,20172,5,0,0:0:0:0:
185,310,20878,1,0,3:0:0:0:
185,310,21231,2,0,L|337:289,1,149.999992847443,0|0,0:0|0:0,0:0:0:0:
444,307,21584,6,0,L|451:357,2,49.9999976158143,6|0|0,0:0|0:0|0:0,0:0:0:0:
360,204,21937,2,0,L|381:92,1,99.9999952316285,0|0,0:0|0:0,0:0:0:0:
459,83,22202,1,0,0:0:0:0:
459,83,22290,1,2,0:0:0:0:
261,220,22466,1,0,0:0:0:0:
458,284,22643,1,0,0:0:0:0:
261,220,22819,6,0,L|248:21,1,199.999990463257,0|0,0:0|0:0,0:0:0:0:
394,136,23349,1,0,0:0:0:0:
186,326,23525,1,0,0:0:0:0:
80,66,23702,1,0,0:0:0:0:
400,278,23878,6,0,L|483:265,2,74.9999992847443,0|0|0,0:0|0:0|0:0,0:0:0:0:
406,41,24407,5,2,0:0:0:0:
278,348,24584,1,0,0:0:0:0:
42,149,24760,2,0,L|203:167,1,149.999992847443,0|0,0:0|0:0,0:0:0:0:
275,199,25113,1,2,0:0:0:0:
22,297,25290,2,0,L|225:277,1,199.999990463257,0|0,0:0|0:0,0:0:0:0:
365,224,25731,1,0,0:0:0:0:
365,224,25819,6,0,L|376:315,1,74.9999992847443,0|0,0:0|0:0,0:0:0:0:
484,259,26172,2,0,L|491:351,1,74.9999992847443,0|0,0:0|0:0,0:0:0:0:
336,110,26525,2,0,L|257:99,1,74.9999992847443,0|0,0:0|0:0,0:0:0:0:
38,184,26878,2,0,L|143:192,1,99.9999952316285,0|0,0:0|0:0,0:0:0:0:
156,41,27231,6,0,L|169:93,1,49.9999976158143,2|0,0:0|0:0,0:0:0:0:
216,268,27407,1,0,0:0:0:0:
313,201,27584,2,0,L|452:185,1,99.9999952316285,0|0,0:0|0:0,0:0:0:0:
505,160,27849,1,0,0:0:0:0:
505,160,27937,1,2,0:0:0:0:
434,360,28113,1,2,0:0:0:0:
310,321,28290,1,0,0:0:0:0:
300,298,28378,1,0,0:0:0:0:
291,274,28466,6,0,L|299:68,1,199.999990463257,0|0,0:0|0:0,0:0:0:0:
196,150,28996,1,0,0:0:0:0:
473,67,29172,1,0,0:0:0:0:
396,201,29349,1,0,0:0:0:0:
275,4,29525,1,0,0:0:0:0:
84,298,29702,6,0,B|52:394,1,74.9999992847443
434,287,30055,1,2,0:0:0:0:
285,204,30231,2,0,B|225:237|225:237|83:203,1,199.999990463257,0|0,0:0|0:0,0:0:0:0:
338,61,30760,1,2,0:0:0:0:
256,362,30937,1,0,0:0:0:0:
6,171,31113,1,0,0:0:0:0:
161,254,31290,1,2,0:0:0:0:
220,148,31466,6,0,L|237:33,1,99.9999952316285,0|0,0:0|0:0,0:0:0:0:
341,166,31819,2,0,B|366:258|366:258|308:250,1,149.999992847443,2|0,0:0|0:0,0:0:0:0:
204,259,32172,1,2,0:0:0:0:
476,152,32349,1,0,0:0:0:0:
484,265,32525,1,0,0:0:0:0:
480,279,32613,1,0,0:0:0:0:
476,293,32702,1,0,0:0:0:0:
471,306,32790,1,0,0:0:0:0:
484,344,32878,6,0,L|384:339,1,99.9999952316285,6|0,0:0|0:0,0:0:0:0:
143,188,33231,2,0,L|253:184,1,99.9999952316285,2|0,0:0|0:0,0:0:0:0:
311,260,33584,1,2,0:0:0:0:
76,105,33760,1,0,0:0:0:0:
210,362,33937,1,2,0:0:0:0:
409,155,34113,1,0,0:0:0:0:
68,333,34290,6,0,L|113:230,1,99.9999952316285,2|0,0:0|0:0,0:0:0:0:
371,269,34643,2,0,L|487:319,1,99.9999952316285,2|0,0:0|0:0,0:0:0:0:
227,11,34996,2,0,L|245:129,1,99.9999952316285,2|0,0:0|0:0,0:0:0:0:
189,282,35349,2,0,L|65:305,1,99.9999952316285,2|0,0:0|0:0,0:0:0:0:
409,155,35702,6,0,L|515:172,1,99.9999952316285,2|0,0:0|0:0,0:0:0:0:
292,215,36055,2,0,L|278:105,1,99.9999952316285,2|0,0:0|0:0,0:0:0:0:
218,19,36407,1,2,0:0:0:0:
450,285,36584,1,0,0:0:0:0:
68,333,36760,1,2,0:0:0:0:
345,227,36936,1,0,0:0:0:0:
57,39,37113,5,2,0:0:0:0:
456,82,37290,1,0,0:0:0:0:
112,184,37466,5,2,0:0:0:0:
364,210,37643,1,0,0:0:0:0:
89,320,37819,2,0,L|118:209,1,99.9999952316285,2|0,0:0|0:0,0:0:0:0:
398,330,38172,1,2,0:0:0:0:
398,330,38349,1,0,0:0:0:0:
159,97,38525,6,0,L|57:108,1,99.9999952316285,2|0,0:0|0:0,0:0:0:0:
200,234,38878,1,2,0:0:0:0:
298,133,39055,2,0,L|312:16,1,99.9999952316285,0|2,0:0|0:0,0:0:0:0:
414,0,39407,1,0,0:0:0:0:
183,127,39584,1,2,0:0:0:0:
469,172,39760,1,0,0:0:0:0:
304,218,39937,6,0,L|285:344,1,99.9999952316285,2|0,0:0|0:0,0:0:0:0:
353,99,40290,2,0,L|223:88,1,99.9999952316285,2|0,0:0|0:0,0:0:0:0:
413,293,40643,2,0,L|543:304,1,99.9999952316285,2|0,0:0|0:0,0:0:0:0:
212,200,40996,2,0,L|94:218,1,99.9999952316285,2|0,0:0|0:0,0:0:0:0:
432,194,41349,6,0,B|442:143|442:143|405:-7,1,199.999990463257,2|2,0:0|0:0,0:0:0:0:
259,315,41878,1,0,0:0:0:0:
486,277,42055,1,2,0:0:0:0:
318,164,42231,1,0,0:0:0:0:
364,369,42407,1,2,0:0:0:0:
124,376,42584,5,2,0:0:0:0:
120,331,42672,1,0,0:0:0:0:
140,290,42760,1,0,0:0:0:0:
180,267,42849,1,0,0:0:0:0:
203,228,42937,1,0,0:0:0:0:
201,188,43025,1,0,0:0:0:0:
186,150,43113,2,0,P|160:134|136:127,3,49.9999976158143,0|0|0|0,0:0|0:0|0:0|0:0,0:0:0:0:
110,203,43466,6,0,L|103:86,1,112.499998927116,2|0,0:0|0:0,0:0:0:0:
206,351,43819,6,0,L|74:369,1,119.999990615845,8|0,0:0|0:0,0:0:0:0:
252,166,44172,6,0,L|353:153,1,99.9999952316285,2|0,0:0|0:0,0:0:0:0:
147,245,44525,2,0,L|131:146,1,99.9999952316285,8|0,0:0|0:0,0:0:0:0:
423,100,44878,1,2,0:0:0:0:
243,383,45055,1,0,0:0:0:0:
33,162,45231,1,8,0:0:0:0:
331,232,45407,1,0,0:0:0:0:
226,132,45584,6,0,L|214:31,1,99.9999952316285,2|0,0:0|0:0,0:0:0:0:
308,313,45937,2,0,L|186:317,1,99.9999952316285,8|0,0:0|0:0,0:0:0:0:
344,91,46290,1,2,0:0:0:0:
454,360,46466,1,0,0:0:0:0:
104,381,46643,2,0,L|124:279,1,99.9999952316285,8|0,0:0|0:0,0:0:0:0:
189,53,46996,6,0,L|219:153,1,99.9999952316285,2|0,0:0|0:0,0:0:0:0:
375,225,47349,2,0,L|472:191,1,99.9999952316285,8|0,0:0|0:0,0:0:0:0:
60,23,47702,1,2,0:0:0:0:
325,354,47878,1,0,0:0:0:0:
0,288,48055,1,8,0:0:0:0:
370,83,48231,1,0,0:0:0:0:
88,164,48407,6,0,L|98:270,1,99.9999952316285,2|0,0:0|0:0,0:0:0:0:
275,143,48760,2,0,L|268:37,1,99.9999952316285,8|0,0:0|0:0,0:0:0:0:
184,304,49113,1,2,0:0:0:0:
404,291,49290,2,0,B|361:200|361:200|262:264,1,199.999990463257,0|0,0:0|0:0,0:0:0:0:
459,197,49819,6,0,L|510:92,1,99.9999952316285,2|0,0:0|0:0,0:0:0:0:
185,224,50172,2,0,L|213:347,1,99.9999952316285,8|0,0:0|0:0,0:0:0:0:
105,145,50525,1,2,0:0:0:0:
366,228,50702,1,0,0:0:0:0:
286,381,50878,1,8,0:0:0:0:
420,126,51055,1,0,0:0:0:0:
276,59,51231,6,0,L|269:158,1,99.9999952316285,2|0,0:0|0:0,0:0:0:0:
29,161,51584,2,0,L|140:147,1,99.9999952316285,8|0,0:0|0:0,0:0:0:0:
215,309,51937,1,2,0:0:0:0:
313,25,52113,1,0,0:0:0:0:
381,212,52290,2,0,L|406:322,1,99.9999952316285,8|0,0:0|0:0,0:0:0:0:
131,227,52643,6,0,B|25:183|25:183|119:146,1,199.999990463257,6|0,0:0|0:0,0:0:0:0:
359,50,53172,1,0,0:0:0:0:
203,355,53349,2,0,L|217:245,1,99.9999952316285,6|0,0:0|0:0,0:0:0:0:
237,154,53613,1,0,0:0:0:0:
237,154,53702,1,0,0:0:0:0:
313,230,53878,2,0,L|521:260,1,199.999990463257,6|0,0:0|0:0,0:0:0:0:
427,152,54407,6,0,L|186:210,1,239.99998123169,6|0,0:0|0:0,0:0:0:0:
16,238,54937,2,0,L|277:279,1,239.99998123169,6|0,0:0|0:0,0:0:0:0:
474,168,55378,1,0,0:0:0:0:
474,168,55466,6,0,L|466:67,1,99.9999952316285,6|0,0:0|0:0,0:0:0:0:
303,135,55819,2,0,L|178:156,1,99.9999952316285,8|0,0:0|0:0,0:0:0:0:
166,325,56172,1,2,0:0:0:0:
57,85,56349,1,0,0:0:0:0:
410,283,56525,1,8,0:0:0:0:
427,23,56701,1,0,0:0:0:0:
212,198,56878,6,0,L|75:189,1,99.9999952316285,2|0,0:0|0:0,0:0:0:0:
337,139,57231,2,0,L|328:257,1,99.9999952316285,8|0,0:0|0:0,0:0:0:0:
178,368,57584,1,2,0:0:0:0:
449,235,57760,1,0,0:0:0:0:
212,198,57937,2,0,L|188:45,1,149.999992847443,8|0,0:0|0:0,0:0:0:0:
329,107,58290,6,0,L|436:85,1,99.9999952316285,2|0,0:0|0:0,0:0:0:0:
212,198,58643,2,0,L|84:189,1,99.9999952316285,8|0,0:0|0:0,0:0:0:0:
44,56,58996,5,2,0:0:0:0:
418,115,59172,1,0,0:0:0:0:
2,282,59349,1,10,0:0:0:0:
384,338,59525,1,6,0:0:0:0:
304,221,59702,5,0,0:0:0:0:
201,281,59879,1,0,0:0:0:0:
123,188,60055,1,0,0:0:0:0:
224,126,60231,1,0,0:0:0:0:
283,327,60407,5,2,0:0:0:0:
144,70,60584,1,0,0:0:0:0:
433,138,60760,2,0,L|424:256,1,99.9999952316285
162,354,61113,6,0,L|45:341,1,99.9999952316285,6|0,0:0|0:0,0:0:0:0:
0,143,61466,1,0,0:0:0:0:
0,143,61819,2,0,L|117:129,1,99.9999952316285,6|0,0:0|0:0,0:0:0:0:
362,341,62172,1,0,0:0:0:0:
351,228,62349,6,0,L|336:14,1,199.999990463257,6|0,0:0|0:0,0:0:0:0:
149,220,62878,2,0,L|274:210,1,99.9999952316285,8|0,0:0|0:0,0:0:0:0:
91,143,63231,2,0,L|190:134,1,99.9999952316285,2|0,0:0|0:0,0:0:0:0:
44,65,63584,2,0,L|148:57,1,99.9999952316285,8|0,0:0|0:0,0:0:0:0:
37,256,63937,5,6,0:0:0:0:
256,192,64025,12,0,65260,0:0:0:0:
195,167,65349,5,0,0:0:0:0:
198,365,65878,1,2,0:0:0:0:
211,259,66055,2,0,B|214:208|277:166|360:198|363:281|322:322|322:322|283:334,1,299.999985694885,2|0,0:0|0:0,0:0:0:0:
328,175,66760,6,0,L|426:156,1,99.9999952316285,6|0,0:0|0:0,0:0:0:0:
213,88,67113,2,0,L|114:73,1,99.9999952316285,2|0,0:0|0:0,0:0:0:0:
306,10,67466,1,2,0:0:0:0:
211,259,67643,1,0,0:0:0:0:
213,88,67819,1,2,0:0:0:0:
317,176,67996,6,0,L|333:291,1,99.9999952316285,0|2,0:0|0:0,0:0:0:0:
51,199,68349,2,0,B|-15:205|-15:205|25:246,1,99.9999952316285,0|2,0:0|0:0,0:0:0:0:
196,110,68702,2,0,L|210:11,1,99.9999952316285,0|2,0:0|0:0,0:0:0:0:
368,106,69055,1,0,0:0:0:0:
355,138,69143,1,0,0:0:0:0:
342,170,69231,2,0,L|475:182,1,99.9999952316285,2|0,0:0|0:0,0:0:0:0:
161,269,69584,1,2,0:0:0:0:
161,269,69937,6,0,L|173:200,1,49.9999976158143,2|0,0:0|0:0,0:0:0:0:
273,251,70113,2,0,L|263:320,1,49.9999976158143,0|0,0:0|0:0,0:0:0:0:
62,270,70290,1,2,0:0:0:0:
371,248,70466,2,0,L|495:239,1,99.9999952316285,0|2,0:0|0:0,0:0:0:0:
335,107,70819,1,0,0:0:0:0:
308,120,70907,1,0,0:0:0:0:
281,133,70996,6,0,L|168:118,1,99.9999952316285,2|0,0:0|0:0,0:0:0:0:
473,57,71349,1,2,0:0:0:0:
325,205,71525,1,0,0:0:0:0:
181,119,71702,2,0,L|166:9,1,99.9999952316285,2|0,0:0|0:0,0:0:0:0:
189,278,72055,2,0,L|81:283,1,99.9999952316285,2|0,0:0|0:0,0:0:0:0:
489,170,72407,6,0,L|468:275,1,99.9999952316285,2|0,0:0|0:0,0:0:0:0:
288,109,72760,2,0,L|378:175,1,99.9999952316285,2|0,0:0|0:0,0:0:0:0:
512,41,73113,1,2,0:0:0:0:
296,241,73290,2,0,L|274:347,1,99.9999952316285,0|2,0:0|0:0,0:0:0:0:
54,107,73643,6,0,B|15:60|15:60|-6:14,1,99.9999952316285,0|2,0:0|0:0,0:0:0:0:
169,137,73996,2,0,B|198:113|198:113|264:87,1,99.9999952316285,0|2,0:0|0:0,0:0:0:0:
80,217,74349,2,0,B|74:253|74:253|82:328|82:328|75:369,1,149.999992847443
162,301,74702,1,0,0:0:0:0:
180,320,74790,1,0,0:0:0:0:
198,338,74878,2,0,L|322:319,1,99.9999952316285,2|0,0:0|0:0,0:0:0:0:
467,210,75231,5,6,0:0:0:0:
427,201,75319,1,0,0:0:0:0:
387,193,75407,2,0,L|281:206,2,99.9999952316285,0|0|0,0:0|0:0|0:0,0:0:0:0:
512,15,75937,2,0,L|494:222,1,199.999990463257,6|0,0:0|0:0,0:0:0:0:
287,88,76466,1,6,0:0:0:0:
312,57,76554,1,0,0:0:0:0:
339,27,76643,6,0,L|360:131,1,99.9999952316285,0|0,0:0|0:0,0:0:0:0:
366,334,76996,1,6,0:0:0:0:
35,217,77172,1,0,0:0:0:0:
261,265,77349,1,0,0:0:0:0:
0,377,77525,1,4,0:0:0:0:
366,334,77702,1,0,0:0:0:0:
65,303,77878,6,0,L|56:228,2,74.9999992847443,0|2|0,0:0|0:0|0:0,0:0:0:0:
286,155,78408,2,0,L|417:131,1,99.9999952316285,2|0,0:0|0:0,0:0:0:0:
187,126,78761,1,2,0:0:0:0:
204,236,78937,2,0,L|223:377,1,99.9999952316285,0|2,0:0|0:0,0:0:0:0:
88,166,79291,6,0,L|1:112,1,99.9999952316285,0|2,0:0|0:0,0:0:0:0:
87,285,79644,2,0,L|79:396,1,99.9999952316285,0|2,0:0|0:0,0:0:0:0:
296,231,79996,1,0,0:0:0:0:
305,242,80084,1,0,0:0:0:0:
315,253,80172,2,0,L|340:377,1,99.9999952316285,2|0,0:0|0:0,0:0:0:0:
218,137,80525,1,2,0:0:0:0:
197,330,80702,1,0,0:0:0:0:
419,243,80878,5,6,0:0:0:0:
419,243,81055,1,0,0:0:0:0:
340,154,81231,2,0,L|355:39,1,99.9999952316285,2|0,0:0|0:0,0:0:0:0:
496,171,81584,1,2,0:0:0:0:
297,288,81760,1,0,0:0:0:0:
128,127,81937,1,2,0:0:0:0:
258,185,82113,6,0,L|288:401,1,199.999990463257,4|0,0:0|0:0,0:0:0:0:
147,362,82644,1,8,0:0:0:0:
407,232,82820,1,0,0:0:0:0:
105,112,82997,2,0,L|126:216,1,99.9999952316285,2|0,0:0|0:0,0:0:0:0:
391,330,83350,2,0,L|407:226,1,99.9999952316285
222,314,83702,6,0,B|163:280|163:280|16:325,1,199.999990463257,6|0,0:0|0:0,0:0:0:0:
186,184,84231,1,0,0:0:0:0:
301,220,84407,2,0,B|360:254|360:254|507:209,1,199.999990463257,6|0,0:0|0:0,0:0:0:0:
172,214,84937,6,0,B|184:182|184:182|152:169|152:169|172:139|172:139|170:29,1,199.999990463257,6|0,0:0|0:0,0:0:0:0:
282,308,85466,2,0,L|293:208,1,99.9999952316285,2|0,0:0|0:0,0:0:0:0:
23,132,85819,2,0,L|43:235,1,99.9999952316285,2|0,0:0|0:0,0:0:0:0:
458,175,86172,2,0,L|467:71,1,99.9999952316285,2|0,0:0|0:0,0:0:0:0:
188,263,86525,5,6,0:0:0:0:
256,192,86613,12,0,89349,0:0:0:0:
256,192,89525,12,0,94996,0:0:0:0:
