osu file format v14

[General]
AudioFilename: HANZERS EXTREME.mp3
AudioLeadIn: 0
PreviewTime: 20878
Countdown: 0
SampleSet: Soft
StackLeniency: 0.7
Mode: 0
LetterboxInBreaks: 0
WidescreenStoryboard: 0

[Editor]
DistanceSpacing: 1
BeatDivisor: 4
GridSize: 8
TimelineZoom: 0.9

[Metadata]
Title:Come Home! Princess
TitleUnicode:Come Home! Princess
Artist:Chiyoko
ArtistUnicode:ちよこ
Creator:VINXIS
Version:Normal
Source:パニカル・コンフュージョン
Tags:Panical Confusion Panicon パニコン Home Zweib 2b eroge Escu:de taishi IOSYS OP opening -_E_n_j_u_- Enjoy Enju SnowWhite hvick225
BeatmapID:939898
BeatmapSetID:436344

[Difficulty]
HPDrainRate:4
CircleSize:3
OverallDifficulty:5
ApproachRate:5
SliderMultiplier:1.02
SliderTickRate:1

[Events]
//Background and Video events
0,0,"HONEY CAMU.png",0,0
//Break Periods
//Storyboard Layer 0 (Background)
//Storyboard Layer 1 (Fail)
//Storyboard Layer 2 (Pass)
//Storyboard Layer 3 (Foreground)
//Storyboard Sound Samples

[TimingPoints]
408,352.941176470588,4,2,1,65,1,0
20878,-100,4,2,1,30,0,0
21584,-100,4,2,1,47,0,0
44172,-100,4,2,1,65,0,1
65349,-100,4,2,1,40,0,1
66760,-100,4,2,1,65,0,0
90407,-100,4,2,1,55,0,0
91466,-100,4,2,1,45,0,0
92525,-100,4,2,1,35,0,0
93584,-100,4,2,1,25,0,0
94643,-100,4,2,1,15,0,0
94996,-100,4,2,1,10,0,0

[Colours]
Combo1 : 153,51,255
Combo2 : 255,138,255
Combo3 : 0,91,204
Combo4 : 128,255,255

[HitObjects]
194,86,9937,5,8,0:0:0:0:
229,182,10290,6,0,B|256:232|256:232|294:193|354:196|391:228,1,204,6|2,0:0|0:0,0:0:0:0:
325,304,11349,1,8,0:0:0:0:
230,341,11702,2,0,L|23:355,1,204,2|2,0:0|0:0,0:0:0:0:
34,253,12760,1,8,0:0:0:0:
40,151,13113,5,2,0:0:0:0:
134,113,13466,1,8,0:0:0:0:
223,64,13819,2,0,P|274:59|325:62,1,102,2|2,0:0|0:0,0:0:0:0:
372,83,14349,2,0,L|382:235,1,153,2|8,0:0|0:0,0:0:0:0:
392,337,15231,1,2,0:0:0:0:
212,239,15937,6,0,L|204:124,1,102,2|0,0:0|0:0,0:0:0:0:
282,71,16643,2,0,L|292:223,2,153,2|2|8,0:0|0:0|0:0,0:0:0:0:
205,137,18055,2,0,P|161:111|110:111,1,102,2|8,0:0|0:0,0:0:0:0:
26,163,18760,5,2,0:0:0:0:
26,163,20878,6,0,L|26:265,1,102
110,208,21584,6,0,P|160:197|210:205,1,102,6|0,0:0|0:0,0:0:0:0:
241,245,22113,1,0,0:0:0:0:
275,285,22290,2,0,P|347:306|422:293,1,153,2|0,0:0|0:0,0:0:0:0:
504,231,23172,2,0,L|505:162,2,51
501,282,23702,2,0,L|500:332,1,51
422,201,24407,6,0,L|423:132,2,51,2|0|0,0:0|0:0|0:0,0:0:0:0:
420,303,25113,2,0,L|369:304,1,51,2|0,0:0|0:0,0:0:0:0:
285,244,25643,2,0,B|183:245|183:245|144:212|144:212|41:213,1,255
60,112,26878,1,0,0:0:0:0:
123,31,27231,6,0,P|173:25|224:31,1,102,2|0,0:0|0:0,0:0:0:0:
264,62,27760,1,0,0:0:0:0:
296,103,27937,2,0,P|370:116|445:104,1,153,2|0,0:0|0:0,0:0:0:0:
462,204,28819,2,0,L|514:202,2,51
460,255,29349,1,0,0:0:0:0:
409,260,29525,2,0,L|288:269,1,102
256,271,30055,6,0,L|185:275,1,51,2|0,0:0|0:0,0:0:0:0:
190,174,30584,1,0,0:0:0:0:
144,152,30760,2,0,L|140:98,2,51,2|0|0,0:0|0:0|0:0,0:0:0:0:
101,180,31290,2,0,L|-1:187,1,102,2|0,0:0|0:0,0:0:0:0:
14,235,31819,1,2,0:0:0:0:
25,336,32172,1,2,0:0:0:0:
107,275,32525,1,2,0:0:0:0:
171,353,32878,6,0,P|221:357|272:351,1,102,2|2,0:0|0:0,0:0:0:0:
313,257,33584,2,0,P|363:250|414:255,1,102,2|2,0:0|0:0,0:0:0:0:
456,283,34113,1,0,0:0:0:0:
503,305,34290,2,0,L|504:203,1,102,2|2,0:0|0:0,0:0:0:0:
420,144,34996,2,0,L|421:77,2,51,2|0|2,0:0|0:0|0:0,0:0:0:0:
335,85,35702,6,0,P|285:94|234:87,2,102,2|2|2,0:0|0:0|0:0,0:0:0:0:
425,37,36760,1,2,0:0:0:0:
501,104,37113,2,0,P|510:153|505:204,1,102,2|2,0:0|0:0,0:0:0:0:
402,211,37819,2,0,L|398:269,2,51,2|0|2,0:0|0:0|0:0,0:0:0:0:
319,150,38525,5,2,0:0:0:0:
217,143,38878,1,2,0:0:0:0:
115,136,39231,2,0,L|125:270,1,102,2|2,0:0|0:0,0:0:0:0:
84,271,39760,1,0,0:0:0:0:
39,296,39937,2,0,L|29:162,1,102,2|2,0:0|0:0,0:0:0:0:
21,92,40643,2,0,L|17:41,2,51,2|0|2,0:0|0:0|0:0,0:0:0:0:
115,136,41349,6,0,L|124:238,2,102,2|2|2,0:0|0:0|0:0,0:0:0:0:
150,98,42231,1,0,0:0:0:0:
183,60,42407,2,0,L|179:9,1,51,2|2,0:0|0:0,0:0:0:0:
256,192,42760,12,6,44172,0:0:0:0:
19,119,44878,6,0,L|119:104,1,102,2|8,0:0|0:0,0:0:0:0:
171,105,45407,1,0,0:0:0:0:
222,110,45584,2,0,L|226:211,1,102,2|8,0:0|0:0,0:0:0:0:
315,262,46290,2,0,L|317:312,2,51,2|0|8,0:0|0:0|0:0,0:0:0:0:
403,312,46996,6,0,P|402:211|315:159,1,204,2|2,0:0|0:0,0:0:0:0:
272,177,47878,1,0,0:0:0:0:
222,171,48055,2,0,L|216:120,1,51,8|0,0:0|0:0,0:0:0:0:
164,123,48407,2,0,L|152:13,1,102,2|8,0:0|0:0,0:0:0:0:
62,69,49113,2,0,L|56:18,2,51,2|0|0,0:0|0:0|0:0,0:0:0:0:
79,169,49819,6,0,L|184:152,2,102,2|8|2,0:0|0:0|0:0,0:0:0:0:
29,258,50878,2,0,L|57:326,1,51,8|0,0:0|0:0,0:0:0:0:
80,345,51231,2,0,L|185:328,2,102,2|8|2,0:0|0:0|0:0,0:0:0:0:
29,258,52290,2,0,L|57:190,1,51,8|0,0:0|0:0,0:0:0:0:
79,169,52643,6,0,P|115:108|25:39,1,204,6|6,0:0|0:0,0:0:0:0:
179,36,53878,2,0,L|341:41,2,153,6|6|6,0:0|0:0|0:0,0:0:0:0:
271,158,55466,6,0,P|278:209|269:259,1,102,6|8,0:0|0:0,0:0:0:0:
217,261,55996,1,0,0:0:0:0:
166,257,56172,2,0,P|157:206|163:156,1,102,2|8,0:0|0:0,0:0:0:0:
188,112,56702,1,0,0:0:0:0:
215,68,56878,2,0,L|331:58,2,102,2|8|2,0:0|0:0|0:0,0:0:0:0:
164,77,57760,1,0,0:0:0:0:
113,83,57937,2,0,L|39:91,1,51,8|0,0:0|0:0,0:0:0:0:
55,139,58290,6,0,P|48:190|51:241,1,102,2|8,0:0|0:0,0:0:0:0:
73,286,58819,1,0,0:0:0:0:
102,329,58996,2,0,P|152:335|203:332,1,102,2|8,0:0|0:0,0:0:0:0:
247,307,59525,2,0,B|256:257|256:257|231:212|231:212|289:154|372:189,1,255,2|2,0:0|0:0,0:0:0:0:
174,135,61113,6,0,L|163:21,1,102,6|0,0:0|0:0,0:0:0:0:
262,61,61819,2,0,P|326:65|364:56,1,102,6|0,0:0|0:0,0:0:0:0:
391,14,62349,2,0,L|409:179,1,153,2|2,0:0|0:0,0:0:0:0:
306,156,63231,1,2,0:0:0:0:
346,249,63584,1,2,0:0:0:0:
290,334,63937,5,6,0:0:0:0:
25,22,65349,1,2,0:0:0:0:
130,130,65878,6,0,L|197:125,1,51,2|2,0:0|0:0,0:0:0:0:
282,118,66407,1,0,0:0:0:0:
380,96,66760,6,0,L|430:101,2,51,6|0|2,0:0|0:0|0:0,0:0:0:0:
300,31,67466,2,0,L|232:24,1,51,2|0,0:0|0:0,0:0:0:0:
198,21,67819,1,2,0:0:0:0:
99,48,68172,2,0,L|106:174,1,102,2|2,0:0|0:0,0:0:0:0:
138,188,68702,1,0,0:0:0:0:
188,188,68878,2,0,L|181:62,1,102,2|2,0:0|0:0,0:0:0:0:
274,131,69584,6,0,B|286:202|286:202|270:332,1,204,2|2,0:0|0:0,0:0:0:0:
185,205,70819,2,0,P|109:195|33:202,1,153,0|2,0:0|0:0,0:0:0:0:
90,287,71702,2,0,P|107:332|102:385,1,102,2|2,0:0|0:0,0:0:0:0:
200,359,72407,6,0,L|267:348,2,51,2|0|2,0:0|0:0|0:0,0:0:0:0:
231,261,73113,2,0,L|298:250,1,51,2|0,0:0|0:0,0:0:0:0:
332,245,73466,1,2,0:0:0:0:
432,229,73819,2,0,L|441:108,1,102,2|2,0:0|0:0,0:0:0:0:
396,98,74349,1,0,0:0:0:0:
356,65,74525,2,0,L|351:6,2,51,2|0|2,0:0|0:0|0:0,0:0:0:0:
316,97,75055,1,0,0:0:0:0:
308,147,75231,6,0,P|259:190|119:154,1,204,6|6,0:0|0:0,0:0:0:0:
29,53,76466,2,0,L|35:206,1,153,6|6,0:0|0:0,0:0:0:0:
180,252,77525,1,6,0:0:0:0:
295,154,78055,6,0,P|244:161|193:156,1,102,6|2,0:0|0:0,0:0:0:0:
144,144,78584,1,0,0:0:0:0:
104,175,78760,2,0,L|99:231,2,51,2|0|2,0:0|0:0|0:0,0:0:0:0:
78,75,79466,1,2,0:0:0:0:
179,60,79819,1,2,0:0:0:0:
205,160,80172,2,0,L|200:216,2,51,2|0|2,0:0|0:0|0:0,0:0:0:0:
255,148,80702,1,0,0:0:0:0:
305,148,80878,6,0,L|297:267,2,102,2|2|2,0:0|0:0|0:0,0:0:0:0:
280,103,81760,1,0,0:0:0:0:
326,79,81937,2,0,L|392:87,1,51,2|6,0:0|0:0,0:0:0:0:
506,166,82643,2,0,L|404:168,1,102,0|2,0:0|0:0,0:0:0:0:
302,174,83349,1,0,0:0:0:0:
203,192,83702,6,0,P|179:289|214:383,1,204,6|6,0:0|0:0,0:0:0:0:
316,379,84760,1,0,0:0:0:0:
342,335,84937,2,0,L|349:182,1,153,6|2,0:0|0:0,0:0:0:0:
280,106,85819,1,2,0:0:0:0:
200,168,86172,1,2,0:0:0:0:
126,98,86525,5,6,0:0:0:0:
256,192,86613,12,0,88996,0:0:0:0:
256,192,89349,12,0,94996,0:0:0:0:
