osu file format v14

[General]
AudioFilename: HANZERS EXTREME.mp3
AudioLeadIn: 0
PreviewTime: 20878
Countdown: 0
SampleSet: Soft
StackLeniency: 0.5
Mode: 0
LetterboxInBreaks: 0
WidescreenStoryboard: 0

[Editor]
DistanceSpacing: 0.4
BeatDivisor: 4
GridSize: 8
TimelineZoom: 1

[Metadata]
Title:Come Home! Princess
TitleUnicode:Come Home! Princess
Artist:Chiyoko
ArtistUnicode:ちよこ
Creator:VINXIS
Version:Insane
Source:パニカル・コンフュージョン
Tags:Panical Confusion Panicon パニコン Home Zweib 2b eroge Escu:de taishi IOSYS OP opening -_E_n_j_u_- Enjoy Enju SnowWhite hvick225
BeatmapID:939897
BeatmapSetID:436344

[Difficulty]
HPDrainRate:6
CircleSize:4.2
OverallDifficulty:8
ApproachRate:9
SliderMultiplier:1.71
SliderTickRate:1

[Events]
//Background and Video events
0,0,"HONEY CAMU.png",0,0
//Break Periods
//Storyboard Layer 0 (Background)
//Storyboard Layer 1 (Fail)
//Storyboard Layer 2 (Pass)
//Storyboard Layer 3 (Foreground)
//Storyboard Sound Samples

[TimingPoints]
408,352.941176470588,4,2,1,65,1,0
10290,-125,4,2,1,65,0,0
18760,-166.666666666667,4,2,1,65,0,0
20878,-200,4,2,1,30,0,0
21584,-142.857142857143,4,2,1,47,0,0
32878,-133.333333333333,4,2,1,47,0,0
41349,-125,4,2,1,47,0,0
44172,-94.3396226415094,4,2,1,65,0,1
66760,-86.9565217391304,4,2,1,65,0,0
90407,-100,4,2,1,55,0,0
91466,-100,4,2,1,45,0,0
92525,-100,4,2,1,35,0,0
93584,-100,4,2,1,25,0,0
94643,-100,4,2,1,15,0,0
94996,-100,4,2,1,10,0,0

[Colours]
Combo1 : 153,51,255
Combo2 : 255,138,255
Combo3 : 0,91,204
Combo4 : 128,255,255

[HitObjects]
208,123,9584,5,0,0:0:0:0:
339,184,9760,1,0,0:0:0:0:
220,267,9937,1,8,0:0:0:0:
220,267,10290,6,0,P|254:272|288:269,1,68.4,6|0,0:0|0:0,0:0:0:0:
208,123,10643,2,0,P|174:118|140:120,1,68.4,2|0,0:0|0:0,0:0:0:0:
339,184,10996,2,0,L|341:112,2,68.4,2|0|2,0:0|0:0|0:0,0:0:0:0:
173,202,11525,1,4,0:0:0:0:
252,341,11702,6,0,P|286:348|320:343,1,68.4,2|0,0:0|0:0,0:0:0:0:
441,258,12055,2,0,P|408:252|374:255,1,68.4,2|0,0:0|0:0,0:0:0:0:
490,358,12407,1,2,0:0:0:0:
490,358,12584,1,0,0:0:0:0:
283,243,12760,1,2,0:0:0:0:
430,153,12937,1,0,0:0:0:0:
430,153,13025,1,0,0:0:0:0:
430,153,13113,6,0,L|425:80,1,68.4,6|0,0:0|0:0,0:0:0:0:
278,174,13466,2,0,L|283:247,1,68.4,2|0,0:0|0:0,0:0:0:0:
329,78,13819,1,2,0:0:0:0:
146,83,13996,1,0,0:0:0:0:
257,142,14172,1,2,0:0:0:0:
88,25,14349,6,0,P|64:86|93:146,1,136.8,6|0,0:0|0:0,0:0:0:0:
257,142,14878,2,0,L|259:60,1,68.4,6|0,0:0|0:0,0:0:0:0:
176,278,15231,2,0,L|312:283,1,136.8,2|0,0:0|0:0,0:0:0:0:
248,368,15760,1,0,0:0:0:0:
345,207,15937,6,0,P|362:141|351:74,1,136.8,6|0,0:0|0:0,0:0:0:0:
101,13,16643,2,0,P|83:78|94:145,1,136.8,6|0,0:0|0:0,0:0:0:0:
212,216,17172,6,0,P|203:173|192:223,1,136.8,6|0,0:0|0:0,0:0:0:0:
253,103,17702,2,0,P|221:89|187:86,1,68.4,2|0,0:0|0:0,0:0:0:0:
129,298,18055,2,0,P|160:311|194:314,1,68.4,2|0,0:0|0:0,0:0:0:0:
201,200,18407,1,2,0:0:0:0:
201,200,18496,1,0,0:0:0:0:
201,200,18584,1,0,0:0:0:0:
201,200,18672,1,0,0:0:0:0:
201,199,18760,6,0,B|243:170|243:170|271:211|271:211|371:147|386:253|466:200,1,307.79999060669,6|0,0:0|0:0,0:0:0:0:
332,285,20172,5,0,0:0:0:0:
323,135,20878,2,0,L|331:284,1,149.625,0|0,3:0|0:0,0:0:0:0:
332,308,21584,6,0,P|362:313|391:309,1,59.849998173523,6|0,0:0|0:0,0:0:0:0:
355,64,21937,2,0,P|325:59|296:63,1,59.849998173523
439,216,22290,2,0,L|435:156,1,59.849998173523,2|0,0:0|0:0,0:0:0:0:
439,216,22819,6,0,P|382:233|324:220,1,119.699996347046
228,161,23349,1,0,0:0:0:0:
378,152,23525,1,0,0:0:0:0:
294,303,23702,1,0,0:0:0:0:
244,89,23878,2,0,B|249:118|249:118|247:148,1,59.849998173523
138,165,24231,1,0,0:0:0:0:
138,165,24319,1,0,0:0:0:0:
138,165,24407,5,2,0:0:0:0:
55,95,24584,1,0,0:0:0:0:
93,280,24760,1,0,0:0:0:0:
93,280,25113,1,2,0:0:0:0:
0,193,25290,1,0,0:0:0:0:
191,197,25466,1,0,0:0:0:0:
191,197,25555,1,0,0:0:0:0:
190,197,25643,6,0,P|195:167|195:137,1,59.849998173523
156,341,25996,1,0,0:0:0:0:
156,341,26172,2,0,L|231:346,1,59.849998173523
332,193,26525,2,0,L|257:198,1,59.849998173523
158,44,26878,2,0,L|233:49,1,59.849998173523
366,61,27231,5,2,0:0:0:0:
366,61,27407,1,0,0:0:0:0:
370,223,27584,1,0,0:0:0:0:
307,139,27760,1,0,0:0:0:0:
463,167,27937,2,0,L|465:237,1,59.849998173523,2|2,0:0|0:0,0:0:0:0:
269,300,28290,2,0,L|267:230,1,59.849998173523
331,139,28643,5,0,0:0:0:0:
220,69,28819,2,0,L|158:70,1,59.849998173523
189,169,29172,1,0,0:0:0:0:
331,139,29349,2,0,L|335:62,1,59.849998173523
112,140,29702,2,0,B|105:167|105:167|111:198,1,59.849998173523
291,210,30055,5,2,0:0:0:0:
189,169,30231,1,0,0:0:0:0:
204,278,30407,1,0,0:0:0:0:
308,177,30584,1,0,0:0:0:0:
368,325,30760,2,0,L|373:395,1,59.849998173523,2|0,0:0|0:0,0:0:0:0:
379,111,31113,1,0,0:0:0:0:
308,177,31290,6,0,L|179:168,1,119.699996347046,2|0,0:0|0:0,0:0:0:0:
48,153,31819,2,0,P|44:123|51:94,1,59.849998173523,2|0,0:0|0:0,0:0:0:0:
123,238,32172,2,0,P|126:267|119:296,1,59.849998173523,2|0,0:0|0:0,0:0:0:0:
134,96,32525,1,0,0:0:0:0:
161,83,32613,1,0,0:0:0:0:
191,78,32701,1,0,0:0:0:0:
220,84,32789,1,0,0:0:0:0:
244,97,32878,6,0,L|249:32,1,64.1250024461747,6|0,0:0|0:0,0:0:0:0:
280,230,33231,2,0,L|211:224,1,64.1250024461747,2|0,0:0|0:0,0:0:0:0:
337,106,33584,2,0,L|404:100,1,64.1250024461747,2|0,0:0|0:0,0:0:0:0:
497,270,33937,1,2,0:0:0:0:
397,185,34113,1,0,0:0:0:0:
351,308,34290,6,0,L|348:380,1,64.1250024461747,2|0,0:0|0:0,0:0:0:0:
490,180,34643,2,0,L|493:108,1,64.1250024461747,2|0,0:0|0:0,0:0:0:0:
434,348,34996,2,0,P|463:352|500:348,1,64.1250024461747,2|0,0:0|0:0,0:0:0:0:
397,185,35349,2,0,P|368:181|331:185,1,64.1250024461747,2|0,0:0|0:0,0:0:0:0:
326,348,35702,6,0,L|329:280,1,64.1250024461747,2|0,0:0|0:0,0:0:0:0:
236,106,36055,2,0,L|231:193,1,64.1250024461747,2|0,0:0|0:0,0:0:0:0:
322,57,36407,1,2,0:0:0:0:
227,242,36584,1,0,0:0:0:0:
140,83,36760,1,2,0:0:0:0:
330,78,36937,1,0,0:0:0:0:
68,49,37113,6,0,P|60:77|65:113,1,64.1250024461747,2|0,0:0|0:0,0:0:0:0:
135,253,37466,2,0,P|143:225|138:189,1,64.1250024461747,2|0,0:0|0:0,0:0:0:0:
67,324,37819,1,2,0:0:0:0:
201,324,37996,1,0,0:0:0:0:
45,223,38172,1,2,0:0:0:0:
223,223,38349,1,0,0:0:0:0:
18,222,38525,6,0,P|5:163|17:98,1,128.250004892349,6|2,0:0|0:0,0:0:0:0:
209,96,39055,1,0,0:0:0:0:
173,229,39231,2,0,L|108:226,1,64.1250024461747,2|0,0:0|0:0,0:0:0:0:
209,96,39584,2,0,L|274:99,1,64.1250024461747,2|0,0:0|0:0,0:0:0:0:
291,275,39937,6,0,P|285:245|286:212,1,64.1250024461747,2|0,0:0|0:0,0:0:0:0:
452,71,40290,2,0,P|458:101|457:134,1,64.1250024461747,2|0,0:0|0:0,0:0:0:0:
311,43,40643,1,2,0:0:0:0:
388,205,40819,1,0,0:0:0:0:
294,22,40996,2,0,P|247:16|200:25,1,96.1875036692621,2|0,0:0|0:0,0:0:0:0:
181,46,41349,5,2,0:0:0:0:
182,262,41525,1,0,0:0:0:0:
279,133,41702,1,2,0:0:0:0:
60,148,41878,1,0,0:0:0:0:
181,299,42055,2,0,P|242:305|291:295,1,102.6,2|0,0:0|0:0,0:0:0:0:
293,260,42407,1,2,0:0:0:0:
228,45,42584,2,0,P|178:130|223:218,1,205.2,2|0,0:0|0:0,0:0:0:0:
222,217,43466,5,2,0:0:0:0:
60,148,43643,1,0,0:0:0:0:
279,133,43819,2,0,L|382:136,1,102.6,8|0,0:0|0:0,0:0:0:0:
414,137,44172,6,0,P|422:92|413:48,1,90.6300001382904,6|0,0:0|0:0,0:0:0:0:
323,227,44525,2,0,P|315:271|324:315,1,90.6300001382904,8|0,0:0|0:0,0:0:0:0:
241,159,44878,1,2,0:0:0:0:
198,316,45055,1,0,0:0:0:0:
352,225,45231,1,8,0:0:0:0:
161,222,45407,1,0,0:0:0:0:
385,237,45584,6,0,L|391:141,1,90.6300001382904,2|0,0:0|0:0,0:0:0:0:
246,68,45937,2,0,L|240:164,1,90.6300001382904,8|0,0:0|0:0,0:0:0:0:
216,346,46290,1,2,0:0:0:0:
134,228,46466,1,0,0:0:0:0:
235,368,46643,2,0,L|328:370,1,90.6300001382904,8|0,0:0|0:0,0:0:0:0:
76,300,46996,6,0,P|48:238|61:173,1,135.945000207436,2|0,0:0|0:0,0:0:0:0:
85,148,47349,2,0,L|87:53,1,90.6300001382904,8|0,0:0|0:0,0:0:0:0:
257,143,47702,1,2,0:0:0:0:
152,224,47878,1,0,0:0:0:0:
196,48,48055,1,8,0:0:0:0:
227,317,48231,6,0,P|271:324|320:312,1,90.6300001382904,0|2,0:0|0:0,0:0:0:0:
308,159,48584,1,0,0:0:0:0:
417,283,48760,2,0,L|425:387,1,90.6300001382904,8|0,0:0|0:0,0:0:0:0:
378,90,49113,2,0,L|370:-14,1,90.6300001382904,2|0,0:0|0:0,0:0:0:0:
252,260,49466,1,0,0:0:0:0:
252,260,49819,6,0,P|241:185|329:228,1,181.260000276581,2|8,0:0|0:0,0:0:0:0:
328,349,50349,1,0,0:0:0:0:
417,258,50525,2,0,L|419:164,1,90.6300001382904,2|0,0:0|0:0,0:0:0:0:
351,78,50878,1,8,0:0:0:0:
246,136,51055,1,0,0:0:0:0:
246,136,51143,1,0,0:0:0:0:
246,136,51231,5,2,0:0:0:0:
333,176,51407,1,0,0:0:0:0:
149,91,51584,2,0,L|147:185,1,90.6300001382904,8|0,0:0|0:0,0:0:0:0:
331,266,51937,2,0,L|333:172,1,90.6300001382904,2|0,0:0|0:0,0:0:0:0:
267,358,52290,2,0,P|330:379|393:358,1,135.945000207436,8|0,0:0|0:0,0:0:0:0:
417,339,52643,6,0,L|418:248,1,90.6300001382904,6|0,0:0|0:0,0:0:0:0:
415,65,52996,2,0,P|372:99|341:37,1,135.945000207436
328,30,53349,2,0,P|284:19|239:23,1,90.6300001382904,6|0,0:0|0:0,0:0:0:0:
235,231,53702,1,0,0:0:0:0:
235,231,53878,2,0,L|237:39,1,181.260000276581,6|0,0:0|0:0,0:0:0:0:
240,23,54319,1,0,0:0:0:0:
240,23,54407,6,0,P|189:95|171:8,1,226.575000345726,6|0,0:0|0:0,0:0:0:0:
108,132,54937,2,0,P|189:170|274:144,1,181.260000276581,6|0,0:0|0:0,0:0:0:0:
411,233,55466,6,0,L|407:328,1,90.6300001382904,6|0,0:0|0:0,0:0:0:0:
237,204,55819,2,0,L|240:108,1,90.6300001382904,8|0,0:0|0:0,0:0:0:0:
308,282,56172,1,2,0:0:0:0:
147,190,56349,1,0,0:0:0:0:
330,122,56525,1,8,0:0:0:0:
282,291,56702,1,0,0:0:0:0:
196,55,56878,6,0,P|238:41|281:53,1,90.6300001382904,2|0,0:0|0:0,0:0:0:0:
374,186,57231,2,0,P|331:199|288:187,1,90.6300001382904,8|0,0:0|0:0,0:0:0:0:
284,63,57584,1,2,0:0:0:0:
399,188,57760,1,0,0:0:0:0:
233,231,57937,2,0,P|219:188|231:145,1,90.6300001382904,8|0,0:0|0:0,0:0:0:0:
292,324,58290,6,0,L|178:338,1,90.6300001382904,2|0,0:0|0:0,0:0:0:0:
316,206,58643,1,8,0:0:0:0:
384,361,58819,1,0,0:0:0:0:
186,329,58996,2,0,L|179:225,1,90.6300001382904,2|0,0:0|0:0,0:0:0:0:
171,42,59349,1,8,0:0:0:0:
251,96,59525,6,0,P|185:139|92:99,1,181.260000276581,6|0,0:0|0:0,0:0:0:0:
258,7,60055,2,0,L|447:17,1,181.260000276581,6|2,0:0|0:0,0:0:0:0:
495,133,60584,1,0,0:0:0:0:
368,95,60760,1,0,0:0:0:0:
499,103,60937,1,0,0:0:0:0:
342,213,61113,6,0,L|158:229,1,181.260000276581,6|0,0:0|0:0,0:0:0:0:
161,228,61819,2,0,L|145:47,1,181.260000276581,6|0,0:0|0:0,0:0:0:0:
228,89,62349,6,0,B|233:163|233:163|270:100|367:103|396:184,1,271.890000414871,6|8,0:0|0:0,0:0:0:0:
309,209,63055,1,0,0:0:0:0:
161,228,63231,2,0,L|153:137,1,90.6300001382904,2|0,0:0|0:0,0:0:0:0:
309,209,63584,2,0,L|316:299,1,90.6300001382904,8|0,0:0|0:0,0:0:0:0:
279,45,63937,5,6,0:0:0:0:
256,192,64025,12,2,65349,0:0:0:0:
291,142,65878,5,2,0:0:0:0:
167,75,66055,2,0,L|74:82,1,90.6300001382904,2|0,0:0|0:0,0:0:0:0:
209,207,66407,1,8,0:0:0:0:
249,228,66495,1,0,0:0:0:0:
293,236,66584,1,0,0:0:0:0:
338,229,66671,1,0,0:0:0:0:
378,209,66760,6,0,L|384:107,1,98.3250018754006,6|0,0:0|0:0,0:0:0:0:
185,286,67113,2,0,L|179:388,1,98.3250018754006,2|0,0:0|0:0,0:0:0:0:
291,142,67466,1,2,0:0:0:0:
153,116,67643,1,0,0:0:0:0:
293,236,67819,1,2,0:0:0:0:
153,116,67996,6,0,L|147:218,1,98.3250018754006,4|2,0:0|0:0,0:0:0:0:
343,74,68349,2,0,P|296:60|248:70,1,98.3250018754006,0|2,0:0|0:0,0:0:0:0:
360,286,68702,2,0,P|373:239|363:191,1,98.3250018754006,0|2,0:0|0:0,0:0:0:0:
173,207,69055,1,0,0:0:0:0:
173,207,69143,1,0,0:0:0:0:
173,207,69231,1,2,0:0:0:0:
293,236,69407,1,0,0:0:0:0:
153,116,69584,6,0,P|104:110|55:116,1,98.3250018754006,2|0,0:0|0:0,0:0:0:0:
275,250,69937,2,0,L|276:145,1,98.3250018754006,2|0,0:0|0:0,0:0:0:0:
191,354,70290,1,2,0:0:0:0:
256,273,70466,1,0,0:0:0:0:
138,279,70643,1,2,0:0:0:0:
370,357,70819,6,0,P|404:266|364:178,1,196.650003750801,4|0,0:0|0:0,0:0:0:0:
185,120,71349,2,0,L|72:129,1,98.3250018754006,2|0,0:0|0:0,0:0:0:0:
266,191,71702,1,2,0:0:0:0:
191,16,71878,1,0,0:0:0:0:
191,16,71966,1,0,0:0:0:0:
191,16,72055,1,2,0:0:0:0:
296,70,72231,1,0,0:0:0:0:
166,138,72407,5,6,0:0:0:0:
370,152,72584,1,0,0:0:0:0:
173,236,72760,2,0,L|165:137,1,98.3250018754006,2|0,0:0|0:0,0:0:0:0:
276,256,73113,1,2,0:0:0:0:
259,106,73290,1,0,0:0:0:0:
278,282,73466,1,2,0:0:0:0:
332,72,73643,6,0,P|380:68|428:79,1,98.3250018754006,4|2,0:0|0:0,0:0:0:0:
323,360,73996,2,0,P|274:365|226:354,1,98.3250018754006,0|2,0:0|0:0,0:0:0:0:
242,193,74349,1,0,0:0:0:0:
277,287,74525,1,2,0:0:0:0:
155,212,74702,1,0,0:0:0:0:
155,212,74790,1,0,0:0:0:0:
155,212,74878,1,2,0:0:0:0:
285,117,75055,1,0,0:0:0:0:
76,131,75231,6,0,P|43:225|87:302,1,196.650003750801,6|0,0:0|0:0,0:0:0:0:
155,212,75760,1,0,0:0:0:0:
285,368,75937,2,0,L|296:152,1,196.650003750801,6|0,0:0|0:0,0:0:0:0:
295,171,76378,1,0,0:0:0:0:
295,171,76466,1,6,0:0:0:0:
374,281,76643,1,0,0:0:0:0:
192,239,76819,1,0,0:0:0:0:
334,83,76996,5,2,3:0:0:0:
286,198,77172,1,0,3:0:0:0:
211,101,77349,1,0,3:0:0:0:
412,154,77525,1,2,3:0:0:0:
192,239,77702,1,0,0:0:0:0:
290,168,77878,1,0,0:0:0:0:
363,281,78055,5,6,0:0:0:0:
133,90,78407,2,0,L|232:86,1,98.3250018754006,2|0,0:0|0:0,0:0:0:0:
78,186,78760,1,2,0:0:0:0:
139,0,78937,1,0,0:0:0:0:
223,175,79113,1,2,0:0:0:0:
310,35,79290,6,0,P|322:81|313:129,1,98.3250018754006,4|2,0:0|0:0,0:0:0:0:
227,269,79643,2,0,P|214:222|223:174,1,98.3250018754006,0|2,0:0|0:0,0:0:0:0:
279,354,79996,2,0,B|213:356|213:356|147:344|147:344|83:348,1,196.650003750801
76,139,80525,1,2,0:0:0:0:
134,267,80702,1,0,0:0:0:0:
177,78,80878,5,6,0:0:0:0:
177,78,81231,2,0,L|275:80,1,98.3250018754006,2|0,0:0|0:0,0:0:0:0:
460,87,81584,1,2,0:0:0:0:
346,183,81760,1,0,0:0:0:0:
399,2,81937,1,2,0:0:0:0:
469,178,82113,6,0,L|481:374,1,196.650003750801,6|0,0:0|0:0,0:0:0:0:
352,281,82643,2,0,L|346:183,1,98.3250018754006,6|0,0:0|0:0,0:0:0:0:
404,357,82996,1,2,0:0:0:0:
246,274,83172,1,0,0:0:0:0:
384,367,83349,1,0,0:0:0:0:
239,77,83702,6,0,L|246:274,1,196.650003750801,6|0,0:0|0:0,0:0:0:0:
352,281,84231,1,0,0:0:0:0:
205,163,84407,2,0,P|110:143|23:185,1,196.650003750801,6|0,0:0|0:0,0:0:0:0:
162,338,84937,6,0,P|257:358|344:316,1,196.650003750801,6|0,0:0|0:0,0:0:0:0:
351,189,85466,1,2,0:0:0:0:
227,210,85643,1,0,0:0:0:0:
428,255,85819,1,2,0:0:0:0:
306,104,85996,1,0,0:0:0:0:
337,294,86172,1,2,0:0:0:0:
444,80,86349,1,0,0:0:0:0:
444,80,86437,1,0,0:0:0:0:
444,80,86525,5,6,0:0:0:0:
256,192,86613,12,0,89172,0:0:0:0:
256,192,89349,12,0,94996,0:0:0:0:
