osu file format v14

[General]
AudioFilename: HANZERS EXTREME.mp3
AudioLeadIn: 0
PreviewTime: 20878
Countdown: 0
SampleSet: Soft
StackLeniency: 0.7
Mode: 0
LetterboxInBreaks: 0
WidescreenStoryboard: 0

[Editor]
Bookmarks: 44172
DistanceSpacing: 1.3
BeatDivisor: 4
GridSize: 4
TimelineZoom: 1.3

[Metadata]
Title:Come Home! Princess
TitleUnicode:Come Home! Princess
Artist:Chiyoko
ArtistUnicode:ちよこ
Creator:VINXIS
Version:Collab Hard
Source:パニカル・コンフュージョン
Tags:Panical Confusion Panicon パニコン Home Zweib 2b eroge Escu:de taishi IOSYS OP opening -_E_n_j_u_- Enjoy Enju SnowWhite hvick225
BeatmapID:939894
BeatmapSetID:436344

[Difficulty]
HPDrainRate:5
CircleSize:3.8
OverallDifficulty:6.8
ApproachRate:8
SliderMultiplier:1.44
SliderTickRate:1

[Events]
//Background and Video events
0,0,"HONEY CAMU.png",0,0
//Break Periods
//Storyboard Layer 0 (Background)
//Storyboard Layer 1 (Fail)
//Storyboard Layer 2 (Pass)
//Storyboard Layer 3 (Foreground)
//Storyboard Sound Samples

[TimingPoints]
408,352.941176470588,4,2,1,65,1,0
9584,-142.857142857143,4,2,19,50,0,0
9937,-142.857142857143,4,2,1,50,0,0
10290,-125,4,2,19,65,0,0
20878,-153.846153846153,4,2,19,30,0,0
21584,-133.333333333333,4,2,19,47,0,0
32878,-125,4,2,19,50,0,0
43819,-125,4,2,1,50,0,0
44172,-100,4,2,1,65,0,1
65349,-100,4,2,19,50,0,1
65878,-100,4,2,1,65,0,1
66760,-90.9090909090909,4,2,19,65,0,0
90407,-100,4,2,1,55,0,0
91466,-100,4,2,1,45,0,0
92525,-100,4,2,1,35,0,0
93584,-100,4,2,1,25,0,0
94643,-100,4,2,1,15,0,0
94996,-100,4,2,19,10,0,0

[Colours]
Combo1 : 153,51,255
Combo2 : 255,138,255
Combo3 : 0,91,204
Combo4 : 128,255,255

[HitObjects]
394,217,9584,6,0,P|370:220|345:217,1,50.3999984619141,2|0,0:0|0:0,0:0:0:0:
269,164,9937,1,8,0:0:0:0:
269,164,10290,6,0,L|258:236,1,57.6,12|2,0:0|0:0,0:0:0:0:
187,86,10643,2,0,L|176:158,1,57.6,8|2,0:0|0:0,0:0:0:0:
105,8,10996,2,0,L|94:80,1,57.6,8|2,0:0|0:0,0:0:0:0:
75,161,11349,1,8,0:0:0:0:
3,96,11525,1,4,0:0:0:0:
0,248,11702,6,0,P|28:252|56:250,1,57.6,8|2,0:0|0:0,0:0:0:0:
131,163,12055,2,0,P|102:158|74:160,1,57.6,8|2,0:0|0:0,0:0:0:0:
152,244,12407,2,0,L|148:323,1,57.6,8|2,0:0|0:0,0:0:0:0:
212,185,12760,2,0,L|216:98,1,86.4,8|0,0:0|0:0,0:0:0:0:
220,65,13113,6,0,P|248:71|276:70,1,57.6,12|2,0:0|0:0,0:0:0:0:
398,5,13466,2,0,P|369:-1|341:0,1,57.6,8|2,0:0|0:0,0:0:0:0:
406,121,13819,2,0,L|408:178,2,57.6,8|2|10,0:0|0:0|0:0,0:0:0:0:
354,251,14349,6,0,P|408:268|466:249,1,115.2,14|0,0:0|0:0,0:0:0:0:
260,222,14878,2,0,P|241:241|233:270,1,57.6,6|0,0:0|0:0,0:0:0:0:
332,156,15231,2,0,P|337:128|331:99,1,57.6,8|2,0:0|0:0,0:0:0:0:
354,251,15584,2,0,L|414:254,1,57.6,8|0,0:0|0:0,0:0:0:0:
260,134,15937,6,0,L|200:131,1,57.6,12|0,0:0|0:0,0:0:0:0:
19,121,16290,1,8,0:0:0:0:
19,121,16643,2,0,L|19:257,1,115.2,14|8,0:0|0:0,0:0:0:0:
104,174,17172,2,0,L|104:310,1,115.2,14|0,0:0|0:0,0:0:0:0:
189,227,17702,5,8,0:0:0:0:
184,384,18055,1,8,0:0:0:0:
261,179,18407,5,8,0:0:0:0:
104,174,18760,1,12,0:0:0:0:
256,192,18849,12,2,20172,0:0:0:0:
103,289,20878,6,0,P|133:213|116:134,1,163.799992501831,0|0,1:0|0:0,0:0:0:0:
86,98,21584,6,0,L|158:99,1,54.0000020599366,12|2,0:0|0:0,0:0:0:0:
217,18,21937,2,0,L|145:17,1,54.0000020599366,2|0,0:0|0:0,0:0:0:0:
235,102,22290,1,8,0:0:0:0:
397,273,22819,6,0,P|398:246|395:219,1,54.0000020599366,2|0,0:0|0:0,0:0:0:0:
298,193,23172,1,2,0:0:0:0:
298,193,23349,2,0,L|238:197,1,54.0000020599366,2|0,0:0|0:0,0:0:0:0:
253,304,23702,2,0,L|313:300,1,54.0000020599366,2|2,0:0|0:0,0:0:0:0:
144,255,24055,2,0,L|171:255,2,27.0000010299683,0|0|2,0:0|0:0|0:0,0:0:0:0:
154,169,24407,6,0,L|87:171,2,54.0000020599366,12|0|2,0:0|0:0|0:0,0:0:0:0:
203,96,24937,1,0,0:0:0:0:
75,82,25113,2,0,L|79:23,1,54.0000020599366,8|2,0:0|0:0,0:0:0:0:
204,11,25466,1,8,0:0:0:0:
203,96,25643,6,0,L|275:96,1,54.0000020599366,12|0,0:0|0:0,0:0:0:0:
353,210,25996,2,0,P|349:183|352:156,1,54.0000020599366,2|0,0:0|0:0,0:0:0:0:
353,0,26349,2,0,P|349:26|352:53,1,54.0000020599366,2|0,0:0|0:0,0:0:0:0:
455,67,26702,1,2,0:0:0:0:
455,67,26878,2,0,L|455:148,1,81.0000030899049,2|0,0:0|0:0,0:0:0:0:
472,170,27231,6,0,L|471:223,1,54.0000020599366,8|2,0:0|0:0,0:0:0:0:
392,288,27584,2,0,L|392:234,1,54.0000020599366,2|0,0:0|0:0,0:0:0:0:
450,353,27937,1,8,0:0:0:0:
450,353,28113,2,0,P|392:372|331:352,1,108.000004119873,10|8,0:0|0:0,0:0:0:0:
194,165,28819,6,0,L|250:169,2,54.0000020599366,2|2|0,0:0|0:0|0:0,0:0:0:0:
122,247,29349,2,0,L|68:243,1,54.0000020599366,2|2,0:0|0:0,0:0:0:0:
2,152,29702,2,0,L|55:155,1,54.0000020599366,2|0,0:0|0:0,0:0:0:0:
133,85,30055,6,0,P|134:58|132:31,1,54.0000020599366,12|0,0:0|0:0,0:0:0:0:
1,32,30407,1,8,0:0:0:0:
255,36,30760,2,0,L|320:40,2,54.0000020599366,12|0|2,0:0|0:0|0:0,0:0:0:0:
218,120,31290,6,0,L|325:126,1,108.000004119873,14|8,0:0|0:0,0:0:0:0:
432,132,31819,2,0,P|430:95|437:66,1,54.0000020599366,8|0,0:0|0:0,0:0:0:0:
423,251,32172,2,0,P|425:288|418:317,1,54.0000020599366,8|2,0:0|0:0,0:0:0:0:
328,211,32525,2,0,L|288:208,3,27.0000010299683,8|8|8|8,0:0|0:0|0:0|0:0,0:0:0:0:
316,250,32878,6,0,L|320:320,1,57.6,12|2,0:0|0:0,0:0:0:0:
426,362,33231,2,0,L|422:292,1,57.6,8|2,0:0|0:0,0:0:0:0:
413,171,33584,2,0,L|347:170,1,57.6,8|2,0:0|0:0,0:0:0:0:
178,164,33937,1,8,0:0:0:0:
256,103,34113,1,2,0:0:0:0:
271,203,34290,6,0,L|273:262,1,57.6,8|2,0:0|0:0,0:0:0:0:
184,314,34643,2,0,L|182:255,1,57.6,8|2,0:0|0:0,0:0:0:0:
178,67,34996,2,0,P|234:81|290:68,1,115.2,8|8,0:0|0:0,0:0:0:0:
354,0,35525,1,2,0:0:0:0:
376,92,35702,6,0,L|381:166,1,57.6,8|2,0:0|0:0,0:0:0:0:
460,76,36055,2,0,L|455:2,1,57.6,8|2,0:0|0:0,0:0:0:0:
295,157,36407,2,0,L|300:231,2,57.6,8|2|8,0:0|0:0|0:0,0:0:0:0:
384,234,36937,1,2,0:0:0:0:
383,233,37113,6,0,P|412:235|441:232,1,57.6,8|2,0:0|0:0,0:0:0:0:
322,78,37466,2,0,P|293:76|264:79,1,57.6,8|2,0:0|0:0,0:0:0:0:
282,244,37819,1,8,0:0:0:0:
295,157,37996,1,2,0:0:0:0:
203,184,38172,1,8,0:0:0:0:
203,184,38349,1,2,0:0:0:0:
211,329,38525,6,0,L|268:327,1,57.6,12|2,0:0|0:0,0:0:0:0:
203,184,38878,2,0,L|145:185,1,57.6,8|2,0:0|0:0,0:0:0:0:
291,211,39231,2,0,P|293:182|290:153,1,57.6,8|2,0:0|0:0,0:0:0:0:
143,18,39584,2,0,P|140:46|143:75,1,57.6,8|2,0:0|0:0,0:0:0:0:
257,70,39937,6,0,L|319:67,1,57.6,8|2,0:0|0:0,0:0:0:0:
203,184,40290,2,0,L|141:187,1,57.6,8|2,0:0|0:0,0:0:0:0:
232,46,40643,1,8,0:0:0:0:
266,302,40996,1,8,0:0:0:0:
469,142,41349,6,0,L|475:271,1,115.2,8|8,0:0|0:0,0:0:0:0:
221,95,42055,2,0,P|268:83|345:89,1,115.2,14|10,0:0|0:0,0:0:0:0:
438,162,42584,1,14,0:0:0:0:
256,192,42672,12,8,43819,0:0:0:0:
203,274,44172,6,0,B|248:266|248:266|288:277|288:277|367:263,2,144,6|2|2,0:0|0:0|0:0,0:0:0:0:
106,222,45055,1,0,0:0:0:0:
145,121,45231,1,2,0:0:0:0:
186,193,45407,6,0,P|116:199|67:151,1,144,4|0,0:0|0:0,0:0:0:0:
114,37,45937,2,0,L|194:43,1,72,2|0,0:0|0:0,0:0:0:0:
301,84,46290,2,0,P|289:40|301:19,1,72,2|0,0:0|0:0,0:0:0:0:
412,91,46643,2,0,P|425:123|411:155,1,72,2|0,0:0|0:0,0:0:0:0:
335,200,46996,6,0,L|349:328,1,108,6|0,0:0|0:0,0:0:0:0:
351,343,47349,2,0,L|258:333,1,72,2|0,0:0|0:0,0:0:0:0:
129,322,47702,1,2,0:0:0:0:
207,286,47878,1,0,0:0:0:0:
279,335,48055,1,2,0:0:0:0:
129,322,48231,6,0,L|115:162,1,144,4|0,0:0|0:0,0:0:0:0:
201,73,48760,2,0,L|272:65,1,72,2|0,0:0|0:0,0:0:0:0:
290,173,49113,2,0,L|218:180,1,72,2|0,0:0|0:0,0:0:0:0:
139,128,49466,1,2,0:0:0:0:
48,152,49643,1,2,0:0:0:0:
48,152,49731,1,2,0:0:0:0:
48,152,49819,6,0,L|55:229,1,72,6|0,0:0|0:0,0:0:0:0:
201,345,50172,2,0,L|207:273,1,72,8|0,0:0|0:0,0:0:0:0:
218,179,50525,1,2,0:0:0:0:
294,236,50702,1,0,0:0:0:0:
207,273,50878,1,8,0:0:0:0:
306,142,51055,6,0,B|350:129|350:129|471:153,1,144,4|0,0:0|0:0,0:0:0:0:
512,271,51584,2,0,L|506:367,1,72,8|0,0:0|0:0,0:0:0:0:
392,314,51937,2,0,L|387:242,1,72,2|0,0:0|0:0,0:0:0:0:
446,148,52290,1,8,0:0:0:0:
306,142,52466,6,0,L|310:92,2,36,2|2|6,0:0|0:0|0:0,0:0:0:0:
264,217,52819,2,0,L|269:289,1,72,0|2,0:0|0:0,0:0:0:0:
8,316,53349,2,0,L|19:172,1,144,14|0,0:0|0:0,0:0:0:0:
123,82,53878,2,0,L|134:226,1,144,14|0,0:0|0:0,0:0:0:0:
268,288,54407,5,14,0:0:0:0:
8,316,54937,1,14,0:0:0:0:
123,82,55466,6,0,B|176:75|176:75|205:91|205:91|275:79,2,144,6|8|2,1:2|0:0|0:0,0:0:0:0:
37,100,56349,2,0,L|25:188,1,72,0|8,0:0|0:0,0:0:0:0:
8,316,56702,6,0,P|68:278|140:330,1,144,4|0,0:0|0:0,0:0:0:0:
217,376,57231,2,0,B|208:343|208:343|219:301,1,72,8|0,0:0|0:0,0:0:0:0:
279,245,57584,2,0,L|363:255,1,72,2|0,0:0|0:0,0:0:0:0:
217,165,57937,2,0,L|133:175,1,72,8|0,0:0|0:0,0:0:0:0:
109,177,58202,1,0,0:0:0:0:
109,177,58290,6,0,B|117:119|117:119|81:71,1,108,6|0,0:0|0:0,0:0:0:0:
61,54,58643,2,0,L|132:45,1,72,8|0,0:0|0:0,0:0:0:0:
300,123,58996,1,2,0:0:0:0:
217,165,59172,1,0,0:0:0:0:
223,72,59349,1,8,0:0:0:0:
295,217,59525,6,0,L|280:367,1,144,14|0,0:0|0:0,0:0:0:0:
202,321,60055,2,0,B|146:343|146:343|69:311,1,144,14|2,0:0|0:0,0:0:0:0:
12,244,60584,2,0,L|2:164,2,72,0|2|0,0:0|0:0|0:0,0:0:0:0:
69,311,61113,6,0,B|146:343|146:343|202:321,1,144,6|8,0:0|0:0,0:0:0:0:
300,123,61819,2,0,B|223:91|223:91|167:113,1,144,6|2,0:0|0:0,0:0:0:0:
90,155,62349,2,0,L|98:300,1,144,6|0,0:0|0:0,0:0:0:0:
202,320,62878,2,0,B|279:288|279:288|335:310,2,144,2|2|8,0:0|0:0|0:0,0:0:0:0:
418,345,63937,5,2,0:0:0:0:
256,192,64025,12,2,65349,0:0:0:0:
68,183,65878,5,2,0:0:0:0:
147,216,66055,2,0,L|154:128,1,72,2|0,0:0|0:0,0:0:0:0:
94,58,66407,2,0,B|123:78|123:78|224:58,1,108,8|0,0:0|0:0,0:0:0:0:
233,35,66760,6,0,B|303:20|303:20|398:47,2,158.400004833985,12|10|10,0:0|0:0|0:0,0:0:0:0:
152,144,67643,2,0,L|145:240,1,79.2000024169923,2|8,0:0|0:0,0:0:0:0:
311,286,67996,6,0,L|227:231,1,79.2000024169923,2|8,0:0|0:0,0:0:0:0:
99,341,68349,2,0,L|187:315,1,79.2000024169923,2|8,0:0|0:0,0:0:0:0:
152,144,68702,2,0,L|145:240,1,79.2000024169923,2|8,0:0|0:0,0:0:0:0:
174,318,69055,2,0,L|220:347,2,39.6000012084961,2|0|10,0:0|0:0|0:0,0:0:0:0:
83,345,69407,1,2,0:0:0:0:
11,281,69584,6,0,L|22:149,1,118.800003625488,12|0,0:0|0:0,0:0:0:0:
30,115,69937,2,0,L|-13:117,2,39.6000012084961,10|0|2,0:0|0:0|0:0,0:0:0:0:
152,144,70290,2,0,B|162:106|162:106|150:61,1,79.2000024169923,8|2,0:0|0:0,0:0:0:0:
84,0,70643,1,8,0:0:0:0:
30,115,70819,6,0,L|190:105,1,158.400004833985,6|2,0:0|0:0,0:0:0:0:
283,101,71349,2,0,L|269:203,1,79.2000024169923,8|2,0:0|0:0,0:0:0:0:
178,302,71702,2,0,L|166:223,1,79.2000024169923,8|2,0:0|0:0,0:0:0:0:
179,178,71966,1,2,0:0:0:0:
179,178,72055,2,0,L|85:184,1,79.2000024169923,8|2,0:0|0:0,0:0:0:0:
30,115,72407,6,0,L|190:105,1,158.400004833985,12|10,0:0|0:0,0:0:0:0:
283,96,72937,1,0,0:0:0:0:
377,89,73113,2,0,L|361:184,1,79.2000024169923,8|2,0:0|0:0,0:0:0:0:
406,261,73466,1,8,0:0:0:0:
322,322,73643,6,0,B|287:343|287:343|253:318,1,79.2000024169923,2|8,0:0|0:0,0:0:0:0:
214,167,73996,2,0,B|235:202|235:202|212:232,1,79.2000024169923,2|8,0:0|0:0,0:0:0:0:
364,232,74349,2,0,B|342:202|342:202|363:167,1,79.2000024169923,2|8,0:0|0:0,0:0:0:0:
474,115,74702,2,0,L|527:131,2,39.6000012084961,2|0|10,0:0|0:0|0:0,0:0:0:0:
377,89,75055,1,2,0:0:0:0:
255,177,75231,6,0,P|190:137|241:68,1,158.400004833985,12|2,0:0|0:0,0:0:0:0:
298,30,75760,1,0,0:0:0:0:
217,74,75937,6,0,B|157:103|157:103|50:56,1,158.400004833985,12|2,0:0|0:0,0:0:0:0:
7,135,76466,2,0,B|69:163|69:163|74:273,1,158.400004833985,12|2,0:0|0:0,0:0:0:0:
28,338,76996,2,0,B|69:328|69:328|125:346,1,79.2000024169923,12|0,0:0|0:0,0:0:0:0:
195,365,77349,5,8,0:0:0:0:
289,370,77525,1,6,0:0:0:0:
367,316,77702,1,8,0:0:0:0:
376,221,77878,1,2,0:0:0:0:
313,148,78055,6,0,L|214:140,1,79.2000024169923,8|0,0:0|0:0,0:0:0:0:
187,59,78407,2,0,B|216:103|216:103|198:223,1,158.400004833985,6|8,0:0|0:0,0:0:0:0:
120,260,78937,2,0,L|29:250,1,79.2000024169923,2|8,0:0|0:0,0:0:0:0:
0,156,79290,1,6,0:0:0:0:
101,141,79466,2,0,B|114:104|114:104|89:47,1,79.2000024169923,8|2,0:0|0:0,0:0:0:0:
0,156,79819,5,8,0:0:0:0:
41,251,79996,2,0,L|27:298,2,39.6000012084961,2|0|10,0:0|0:0|0:0,0:0:0:0:
101,141,80349,1,2,0:0:0:0:
120,260,80525,2,0,L|205:252,1,79.2000024169923,8|2,0:0|0:0,0:0:0:0:
283,209,80878,6,0,B|336:267|336:267|401:207,1,158.400004833985,12|10,0:0|0:0,0:0:0:0:
351,38,81584,1,8,0:0:0:0:
285,106,81760,1,2,0:0:0:0:
191,89,81937,1,8,0:0:0:0:
97,72,82113,6,0,L|112:237,1,158.400004833985,14|8,0:0|0:0,0:0:0:0:
198,351,82643,2,0,B|213:315|213:315|197:271,1,79.2000024169923,12|0,0:0|0:0,0:0:0:0:
111,229,82996,2,0,L|29:233,2,79.2000024169923,8|0|10,0:0|0:0|0:0,0:0:0:0:
415,264,83702,6,0,B|379:226|379:226|391:104,1,158.400004833985,12|2,0:0|0:0,0:0:0:0:
400,25,84231,1,8,0:0:0:0:
297,139,84407,6,0,B|189:132|189:132|230:185,1,158.400004833985,12|2,0:0|0:0,0:0:0:0:
337,231,84937,2,0,B|445:224|445:224|414:263,1,158.400004833985,12|2,0:0|0:0,0:0:0:0:
347,331,85466,2,0,L|250:333,1,79.2000024169923,8|2,0:0|0:0,0:0:0:0:
175,355,85819,2,0,B|162:316|162:316|174:273,1,79.2000024169923,8|0,0:0|0:0,0:0:0:0:
212,184,86172,1,10,0:0:0:0:
256,192,86525,12,0,89172,0:0:0:0:
256,192,89349,12,0,94996,0:0:0:0:
