osu file format v14

[General]
AudioFilename: audio.mp3
AudioLeadIn: 0
PreviewTime: 52669
Countdown: 0
SampleSet: Soft
StackLeniency: 0.7
Mode: 0
LetterboxInBreaks: 0
WidescreenStoryboard: 0

[Editor]
DistanceSpacing: 1.1
BeatDivisor: 4
GridSize: 4
TimelineZoom: 3.599998

[Metadata]
Title:Merry Merry Go Round
TitleUnicode:メリィメリィゴゥランド
Artist:Chitose Sara
ArtistUnicode:千歳サラ
Creator:Leaf
Version:Insane
Source:僕と恋するポンコツアクマ。
Tags:Boku to Koi Suru Ponkotsu Akuma Ending Euny [C_u_r_i] Underflow Sylphi Rose_Pacifica Moly スミレ SMILE Eroge
BeatmapID:1040855
BeatmapSetID:469475

[Difficulty]
HPDrainRate:7
CircleSize:4
OverallDifficulty:7
ApproachRate:8.5
SliderMultiplier:1.8
SliderTickRate:1

[Events]
//Background and Video events
0,0,"bg2.jpg",0,0
//Break Periods
//Storyboard Layer 0 (Background)
//Storyboard Layer 1 (Fail)
//Storyboard Layer 2 (Pass)
//Storyboard Layer 3 (Foreground)
//Storyboard Sound Samples

[TimingPoints]
778,324.324324324324,4,2,8,60,1,0
778,-100,4,2,8,60,0,0
21534,-200,4,2,0,30,0,0
25750,-83.3333333333333,4,2,8,60,0,0
26561,-100,4,2,8,60,0,0
30615,-100,4,2,0,30,0,0
31426,-100,4,2,8,60,0,0
50399,-100,4,2,8,5,0,0
51048,-100,4,2,8,60,0,0
52669,-100,4,2,8,70,0,1
61588,-100,4,2,8,60,0,0
62886,-100,4,2,8,70,0,1
71967,-100,4,2,8,60,0,0
73426,-100,4,2,8,70,0,1
81210,-100,4,2,8,60,0,0
96777,-100,4,2,8,40,0,0
98075,-100,4,2,8,35,0,0
99372,-100,4,2,8,20,0,0
100507,-100,4,2,8,10,0,0

[Colours]
Combo1 : 128,128,255
Combo2 : 255,128,192
Combo3 : 255,255,128
Combo4 : 128,255,128

[HitObjects]
164,192,778,5,2,0:0:0:0:
164,192,1588,1,2,0:0:0:0:
224,100,1913,6,0,P|180:84|120:92,1,90,6|0,0:0|0:0,0:0:0:0:
164,192,2237,1,2,0:0:0:0:
104,284,2399,2,0,P|148:300|208:292,1,90,8|6,0:0|0:0,0:0:0:0:
292,228,2723,1,0,0:0:0:0:
376,312,2886,1,2,0:0:0:0:
432,184,3048,1,8,0:3:0:0:
432,184,3129,1,8,0:3:0:0:
432,184,3210,1,4,0:3:0:0:
292,60,3372,5,4,0:3:0:0:
292,60,4183,1,2,0:0:0:0:
200,120,4507,6,0,P|184:75|193:19,1,90,6|0,0:0|0:0,0:0:0:0:
292,60,4832,1,2,0:0:0:0:
396,32,4994,2,0,P|399:76|384:118,1,90,8|6,0:0|0:0,0:0:0:0:
412,232,5318,2,0,P|367:235|325:220,1,90,0|2,0:0|0:0,0:0:0:0:
384,118,5642,1,8,0:3:0:0:
384,118,5805,1,8,0:3:0:0:
488,176,5967,6,0,L|480:280,1,90,6|0,0:0|0:0,0:0:0:0:
392,340,6291,2,0,L|398:250,1,90,2|0,0:0|0:0,0:0:0:0:
324,136,6615,2,0,L|316:240,1,90,2|0,0:0|0:0,0:0:0:0:
248,324,6940,1,2,0:0:0:0:
248,324,7102,1,0,0:0:0:0:
132,264,7264,6,0,L|80:256,2,45,2|0|8,0:0|0:0|0:0,0:0:0:0:
180,164,7588,2,0,L|128:156,2,45,2|0|8,0:0|0:0|0:0,0:0:0:0:
228,64,7913,2,0,L|176:56,2,45,2|0|8,0:0|0:0|0:0,0:0:0:0:
292,180,8237,2,0,L|392:152,1,90,6|2,0:0|0:0,0:0:0:0:
492,124,8561,5,2,0:0:0:0:
464,240,8886,1,2,0:0:0:0:
408,48,9210,1,8,0:0:0:0:
408,48,9372,1,2,0:0:0:0:
320,296,9696,6,0,P|300:252|308:184,1,90,6|0,0:0|0:0,0:0:0:0:
304,112,10021,1,2,0:0:0:0:
216,160,10183,1,8,0:0:0:0:
299,210,10345,1,0,0:0:0:0:
208,248,10507,2,0,L|200:300,2,45,2|0|8,0:0|0:0|0:0,0:0:0:0:
124,344,10832,2,0,L|108:252,1,90,8|8,0:0|0:0,0:0:0:0:
32,164,11156,6,0,P|80:164|132:132,1,90,6|0,0:0|0:0,0:0:0:0:
180,216,11480,2,0,P|204:174|202:113,1,90,8|0,0:0|0:0,0:0:0:0:
296,116,11805,2,0,P|272:74|218:45,1,90,2|0,0:0|0:0,0:0:0:0:
148,44,12129,1,8,0:0:0:0:
148,44,12291,1,0,0:0:0:0:
213,223,12453,6,0,L|206:133,1,90,2|0,0:0|0:0,0:0:0:0:
112,200,12777,2,0,L|119:290,1,90,8|0,0:0|0:0,0:0:0:0:
224,332,13102,2,0,P|268:344|332:332,1,90,2|0,0:0|0:0,0:0:0:0:
440,264,13426,2,0,P|396:252|332:264,1,90,8|0,0:0|0:0,0:0:0:0:
239,215,13750,5,2,0:0:0:0:
311,339,13913,1,0,0:0:0:0:
344,184,14075,2,0,P|316:136|268:108,1,90,8|0,0:0|0:0,0:0:0:0:
184,36,14399,2,0,L|177:153,1,90,2|0,0:0|0:0,0:0:0:0:
239,215,14723,2,0,L|233:305,1,90,8|0,0:0|0:0,0:0:0:0:
371,260,15048,6,0,P|408:235|427:194,1,90,2|0,0:0|0:0,0:0:0:0:
488,84,15372,2,0,P|449:64|397:71,1,90,8|0,0:0|0:0,0:0:0:0:
278,62,15696,2,0,P|280:105|312:146,1,90,2|0,0:0|0:0,0:0:0:0:
292,268,16021,1,8,0:0:0:0:
292,280,16102,1,8,0:0:0:0:
292,292,16183,1,8,0:0:0:0:
292,304,16264,1,8,0:0:0:0:
292,316,16345,6,0,P|240:328|188:316,1,90,6|0,0:0|0:0,0:0:0:0:
220,216,16669,2,0,P|204:267|168:306,1,90,8|0,0:0|0:0,0:0:0:0:
112,212,16994,2,0,P|148:251|164:302,1,90,2|0,0:0|0:0,0:0:0:0:
168,384,17318,1,8,0:0:0:0:
168,384,17480,1,0,0:0:0:0:
292,316,17642,6,0,L|392:308,1,90,2|0,0:0|0:0,0:0:0:0:
448,208,17967,2,0,L|358:215,1,90,8|0,0:0|0:0,0:0:0:0:
256,156,18291,1,2,0:0:0:0:
256,156,18453,1,0,0:0:0:0:
356,92,18615,2,0,L|446:85,1,90,12|0,0:0|0:0,0:0:0:0:
260,68,18940,5,12,0:0:0:0:
176,224,19102,2,0,P|164:184|180:128,1,90,2|2,0:0|0:0,0:0:0:0:
260,68,19426,5,12,0:0:0:0:
344,224,19588,2,0,P|356:184|340:128,1,90,2|2,0:0|0:0,0:0:0:0:
260,68,19913,5,12,0:0:0:0:
174,137,20075,2,0,B|124:176|64:152|64:152|96:176|106:209,1,180,6|8,0:0|0:0,0:0:0:0:
188,308,20561,2,0,L|192:204,1,90,0|4,0:0|0:3,0:0:0:0:
296,232,20886,5,8,0:3:0:0:
404,248,21048,1,8,0:3:0:0:
512,260,21210,1,4,0:3:0:0:
492,108,21534,6,0,P|400:112|312:72,1,180,6|0,0:0|0:0,0:0:0:0:
352,204,22507,1,0,0:0:0:0:
352,204,22669,2,0,P|280:200|220:224,1,135
144,344,23480,2,0,P|148:296|132:248,1,90,2|0,0:0|0:0,0:0:0:0:
48,124,24129,6,0,P|110:128|184:96,1,135
284,56,24940,2,0,L|292:108,2,45
304,188,25426,5,2,0:0:0:0:
176,101,25750,1,0,0:0:0:0:
356,32,26075,6,0,L|364:85,2,53.9999983520508,8|8|4,0:0|0:3|0:3,0:0:0:0:
480,144,26399,1,8,0:0:0:0:
424,236,26561,6,0,P|440:280|428:344,1,90,6|0,0:0|0:0,0:0:0:0:
324,296,26886,1,2,0:0:0:0:
212,328,27048,2,0,L|112:324,1,90,8|0,0:0|0:0,0:0:0:0:
232,224,27372,2,0,L|124:220,1,90,2|0,0:0|0:0,0:0:0:0:
68,140,27696,2,0,P|108:116|160:116,1,90,8|0,0:0|0:0,0:0:0:0:
280,152,28021,6,0,P|316:224|264:304,1,180,2|8,0:0|0:0,0:0:0:0:
164,336,28507,1,0,0:0:0:0:
267,302,28669,2,0,P|312:292|360:304,1,90,2|0,0:0|0:0,0:0:0:0:
452,256,28994,2,0,P|462:301|450:349,1,90,8|0,0:0|0:0,0:0:0:0:
372,216,29318,6,0,P|408:176|456:164,1,90,2|0,0:0|0:0,0:0:0:0:
460,56,29642,2,0,P|415:55|363:85,1,90,8|0,0:0|0:0,0:0:0:0:
372,216,29967,1,2,0:0:0:0:
268,132,30129,1,0,0:0:0:0:
164,216,30291,1,8,0:0:0:0:
60,132,30453,1,8,0:0:0:0:
88,264,30615,6,0,P|164:304|244:252,2,180,2|2|2,0:0|0:0|0:0,0:0:0:0:
264,184,31426,5,2,0:0:0:0:
176,128,31588,2,0,L|168:188,2,45,8|8|8,0:0|0:0|0:0,0:0:0:0:
56,48,31913,6,0,B|80:64|96:84|96:84|144:12|232:48,1,180,6|8,0:0|0:0,0:0:0:0:
296,112,32399,1,0,0:0:0:0:
296,112,32561,2,0,L|305:217,1,90,2|2,0:0|0:0,0:0:0:0:
317,318,32886,1,8,0:0:0:0:
411,248,33048,1,0,0:0:0:0:
304,201,33210,6,0,P|256:196|204:216,1,90,2|0,0:0|0:0,0:0:0:0:
160,324,33534,2,0,P|202:336|247:331,1,90,8|0,0:0|0:0,0:0:0:0:
216,208,33859,2,0,L|224:104,1,90,2|2,0:0|0:0,0:0:0:0:
340,176,34183,2,0,L|333:265,1,90,8|0,0:0|0:0,0:0:0:0:
468,92,34507,6,0,B|380:128|380:64|292:96,1,180,2|8,0:0|0:0,0:0:0:0:
228,184,34994,1,0,0:0:0:0:
144,252,35156,2,0,L|132:144,1,90,2|8,0:0|0:0,0:0:0:0:
40,92,35480,1,6,0:0:0:0:
40,92,35642,6,0,L|49:181,1,90,2|0,0:0|0:0,0:0:0:0:
236,216,35967,1,2,0:0:0:0:
144,252,36129,1,8,0:0:0:0:
236,216,36291,2,0,L|232:126,1,90,2|0,0:0|0:0,0:0:0:0:
280,40,36615,1,2,0:0:0:0:
176,48,36777,1,8,0:0:0:0:
316,128,36940,6,0,P|360:96|376:48,1,90,6|0,0:0|0:0,0:0:0:0:
456,136,37264,1,2,0:0:0:0:
376,224,37426,1,8,0:0:0:0:
476,284,37588,1,0,0:0:0:0:
380,352,37750,2,0,P|332:344|296:320,1,90,2|2,0:0|0:0,0:0:0:0:
244,212,38075,1,8,0:0:0:0:
172,312,38237,6,0,P|84:324|8:264,1,180,6|2,0:0|0:0,0:0:0:0:
112,212,38723,2,0,L|96:100,1,90,8|0,0:0|0:0,0:0:0:0:
136,12,39048,1,2,0:0:0:0:
136,12,39210,1,2,0:0:0:0:
212,112,39372,1,8,0:0:0:0:
332,72,39534,6,0,P|424:72|480:152,1,180,6|2,0:0|0:0,0:0:0:0:
372,256,40021,2,0,L|382:166,1,90,8|0,0:0|0:0,0:0:0:0:
264,232,40345,2,0,L|264:332,1,90,2|2,0:0|0:0,0:0:0:0:
156,256,40669,2,0,L|146:166,1,90,8|0,0:0|0:0,0:0:0:0:
216,72,40994,5,2,0:0:0:0:
100,56,41156,1,2,0:0:0:0:
228,156,41318,2,0,P|276:136|300:92,1,90,8|2,0:0|0:0,0:0:0:0:
472,136,41642,1,8,0:0:0:0:
396,36,41805,1,2,0:0:0:0:
472,136,41967,2,0,L|476:240,1,90,6|2,0:0|0:0,0:0:0:0:
316,328,42291,6,0,P|272:308|248:260,1,90,8|0,0:0|0:0,0:0:0:0:
360,152,42615,2,0,P|364:200|335:244,1,90,8|0,0:0|0:0,0:0:0:0:
184,208,42940,2,0,P|223:179|276:183,1,90,8|2,0:0|0:0,0:0:0:0:
164,296,43264,2,0,P|120:276|96:228,1,90,8|2,0:0|0:0,0:0:0:0:
116,84,43588,5,8,0:0:0:0:
184,208,43750,1,0,0:0:0:0:
328,132,43913,2,0,P|288:103|235:107,1,90,8|0,0:0|0:0,0:0:0:0:
352,228,44237,2,0,P|396:208|420:160,1,90,8|2,0:0|0:0,0:0:0:0:
256,204,44561,2,0,P|251:252|280:296,1,90,8|2,0:0|0:0,0:0:0:0:
440,288,44886,5,8,0:0:0:0:
440,288,45048,1,0,0:0:0:0:
412,112,45210,2,0,L|421:213,1,90,8|0,0:0|0:0,0:0:0:0:
352,380,45534,2,0,L|344:290,1,90,8|2,0:0|0:0,0:0:0:0:
324,120,45859,2,0,L|316:30,1,90,8|2,0:0|0:0,0:0:0:0:
492,100,46183,5,8,0:0:0:0:
492,100,46345,1,2,0:0:0:0:
324,120,46507,2,0,P|276:108|224:116,2,90,8|2|8,0:0|0:0|0:0,0:0:0:0:
268,260,46994,1,6,0:0:0:0:
380,360,47156,2,0,L|384:252,1,90,8|2,0:0|0:0,0:0:0:0:
456,216,47480,5,8,0:0:0:0:
268,260,47642,1,0,0:0:0:0:
456,216,47805,2,0,P|424:188|368:180,1,90,8|0,0:0|0:0,0:0:0:0:
408,64,48129,2,0,P|364:55|322:70,1,90,8|2,0:0|0:0,0:0:0:0:
256,170,48453,2,0,L|269:272,1,90,8|2,0:0|0:0,0:0:0:0:
164,100,48777,5,8,0:0:0:0:
256,170,48940,1,2,0:0:0:0:
96,152,49102,2,0,P|80:104|96:52,1,90,8|0,0:0|0:0,0:0:0:0:
276,68,49426,2,0,L|336:60,3,45,8|8|8|8,0:0|0:3|0:3|0:3,0:0:0:0:
344,140,49750,2,0,L|404:132,3,45,4|4|4|4,0:3|0:3|0:3|0:3,0:0:0:0:
440,48,50075,6,0,P|488:128|452:212,1,180,8|0,0:0|0:0,0:0:0:0:
252,308,51048,1,8,0:0:0:0:
252,308,51210,6,0,L|236:208,2,90,6|0|2,0:0|0:0|0:0,0:0:0:0:
176,160,51696,2,0,P|216:136|276:144,1,90,8|6,0:0|0:0,0:0:0:0:
368,88,52021,2,0,L|360:32,2,45,0|0|0,0:0|0:0|0:0,0:0:0:0:
440,184,52345,2,0,L|432:292,1,90,8|8,0:0|0:0,0:0:0:0:
276,324,52669,6,0,P|228:328|172:300,1,90,6|0,0:0|0:0,0:0:0:0:
208,152,52994,2,0,P|235:191|239:254,1,90,8|0,0:0|0:0,0:0:0:0:
96,304,53318,2,0,P|116:260|168:225,1,90,2|0,0:0|0:0,0:0:0:0:
208,152,53642,5,8,0:0:0:0:
189,313,53805,1,0,0:0:0:0:
84,172,53967,2,0,L|76:68,1,90,2|0,0:0|0:0,0:0:0:0:
272,104,54291,2,0,P|236:77|192:74,1,90,8|0,0:0|0:0,0:0:0:0:
260,204,54615,2,0,P|304:201|339:174,1,90,2|0,0:0|0:0,0:0:0:0:
244,312,54940,1,8,0:0:0:0:
244,312,55102,1,0,0:0:0:0:
424,188,55264,6,0,P|416:136|380:96,1,90,2|0,0:0|0:0,0:0:0:0:
384,276,55588,2,0,L|496:268,1,90,8|0,0:0|0:0,0:0:0:0:
339,174,55913,2,0,L|249:180,1,90,2|0,0:0|0:0,0:0:0:0:
302,324,56237,1,8,0:0:0:0:
249,180,56399,6,0,L|232:80,2,90,0|2|0,0:0|0:0|0:0,0:0:0:0:
216,328,56886,2,0,P|264:336|320:312,1,90,8|0,0:0|0:0,0:0:0:0:
148,192,57210,2,0,P|140:240|164:296,1,90,2|0,0:0|0:0,0:0:0:0:
302,324,57534,1,8,0:0:0:0:
448,264,57696,6,0,P|468:184|424:88,1,180,6|2,0:0|0:0,0:0:0:0:
328,192,58183,1,8,0:0:0:0:
300,52,58345,2,0,P|256:44|204:52,2,90,0|2|0,0:0|0:0|0:0,0:0:0:0:
432,96,58832,1,8,0:0:0:0:
328,192,58994,1,0,0:0:0:0:
376,324,59156,6,0,P|332:332|280:324,1,90,2|0,0:0|0:0,0:0:0:0:
128,236,59480,2,0,P|172:244|224:236,1,90,8|0,0:0|0:0,0:0:0:0:
168,60,59805,2,0,P|156:103|160:147,1,90,2|0,0:0|0:0,0:0:0:0:
216,238,60129,1,8,0:0:0:0:
360,144,60291,6,0,P|364:100|352:56,1,90,6|0,0:0|0:0,0:0:0:0:
236,112,60615,1,2,0:0:0:0:
321,246,60777,1,8,0:0:0:0:
447,136,60940,6,0,P|403:132|359:144,1,90,2|0,0:0|0:0,0:0:0:0:
412,232,61264,1,2,0:0:0:0:
352,56,61426,1,8,0:0:0:0:
412,232,61588,6,0,P|456:236|500:224,1,90,2|0,0:0|0:0,0:0:0:0:
348,164,61913,2,0,P|325:201|321:250,1,90,8|0,0:0|0:0,0:0:0:0:
204,300,62237,2,0,P|248:299|289:317,1,90,2|0,0:0|0:0,0:0:0:0:
136,372,62562,2,0,P|112:333|108:289,1,90,8|0,0:0|0:0,0:0:0:0:
20,148,62886,6,0,P|104:172|196:124,1,180,6|2,0:0|0:0,0:0:0:0:
264,40,63372,2,0,L|280:152,1,90,8|0,0:0|0:0,0:0:0:0:
248,292,63696,2,0,L|235:202,1,90,2|0,0:0|0:0,0:0:0:0:
352,232,64021,5,8,0:0:0:0:
344,352,64183,1,0,0:0:0:0:
248,292,64345,2,0,P|200:304|152:288,1,90,2|0,0:0|0:0,0:0:0:0:
120,184,64669,2,0,P|168:172|216:188,1,90,8|0,0:0|0:0,0:0:0:0:
362,127,64994,2,0,P|314:139|266:123,1,90,2|0,0:0|0:0,0:0:0:0:
184,16,65318,2,0,L|204:120,1,90,8|0,0:0|0:0,0:0:0:0:
336,212,65642,6,0,P|332:260|300:300,1,90,2|0,0:0|0:0,0:0:0:0:
152,244,65967,2,0,P|195:223|246:231,1,90,8|0,0:0|0:0,0:0:0:0:
272,380,66291,2,0,P|232:352|213:304,1,90,2|0,0:0|0:0,0:0:0:0:
336,212,66615,1,8,0:0:0:0:
336,88,66777,1,0,0:0:0:0:
424,168,66940,6,0,P|436:216|424:260,1,90,2|0,0:0|0:0,0:0:0:0:
245,254,67264,2,0,P|236:210|248:168,1,90,8|0,0:0|0:0,0:0:0:0:
336,88,67588,2,0,L|339:177,1,90,2|0,0:0|0:0,0:0:0:0:
340,328,67913,1,8,0:0:0:0:
204,376,68075,6,0,P|136:348|132:248,1,180,6|2,0:0|0:0,0:0:0:0:
164,148,68561,1,8,0:0:0:0:
192,44,68723,1,0,0:0:0:0:
84,92,68886,2,0,P|68:140|80:200,1,90,2|0,0:0|0:0,0:0:0:0:
244,204,69210,2,0,P|260:156|248:96,1,90,8|0,0:0|0:0,0:0:0:0:
212,276,69534,6,0,P|264:280|312:240,1,90,2|0,0:0|0:0,0:0:0:0:
368,164,69859,2,0,L|381:252,1,90,8|0,0:0|0:0,0:0:0:0:
480,332,70183,2,0,L|466:243,1,90,2|0,0:0|0:0,0:0:0:0:
356,92,70507,1,8,0:0:0:0:
295,262,70669,6,0,L|281:172,1,90,6|0,0:0|0:0,0:0:0:0:
184,92,70994,1,2,0:0:0:0:
148,232,71156,1,8,0:0:0:0:
108,56,71318,6,0,P|100:104|124:152,1,90,2|0,0:0|0:0,0:0:0:0:
281,172,71642,1,2,0:0:0:0:
248,32,71805,1,8,0:0:0:0:
281,172,71967,6,0,P|348:224|444:192,1,180,6|2,0:0|0:0,0:0:0:0:
380,36,72453,2,0,L|370:125,1,90,8|0,0:0|0:0,0:0:0:0:
296,284,72777,2,0,P|252:272|188:280,1,90,12|2,0:0|0:0,0:0:0:0:
88,168,73102,2,0,P|132:180|196:172,1,90,12|2,0:0|0:0,0:0:0:0:
288,104,73426,6,0,L|280:208,1,90,8|0,0:0|0:0,0:0:0:0:
368,320,73750,2,0,L|374:230,1,90,8|0,0:0|0:0,0:0:0:0:
428,124,74075,1,8,0:0:0:0:
281,193,74237,1,2,0:0:0:0:
304,28,74399,2,0,P|248:36|216:72,1,90,8|2,0:0|0:0,0:0:0:0:
124,124,74723,6,0,L|116:16,1,90,8|2,0:0|0:0,0:0:0:0:
208,176,75048,2,0,L|214:265,1,90,8|0,0:0|0:0,0:0:0:0:
224,360,75372,1,8,0:0:0:0:
292,216,75534,1,6,0:0:0:0:
124,272,75696,2,0,L|213:265,1,90,8|0,0:0|0:0,0:0:0:0:
400,336,76021,6,0,L|404:232,1,90,12|0,0:0|0:0,0:0:0:0:
464,80,76345,2,0,L|460:169,1,90,8|0,0:0|0:0,0:0:0:0:
292,192,76669,1,8,0:0:0:0:
403,246,76832,1,2,0:0:0:0:
348,112,76994,2,0,P|304:96|236:112,1,90,8|2,0:0|0:0,0:0:0:0:
208,220,77318,5,8,0:0:0:0:
261,99,77480,1,6,0:0:0:0:
128,216,77642,2,0,P|96:176|96:116,1,90,8|0,0:0|0:0,0:0:0:0:
292,192,77967,1,8,0:0:0:0:
168,148,78129,1,6,0:0:0:0:
260,276,78291,2,0,P|308:280|360:256,1,90,8|4,0:3|0:3,0:0:0:0:
468,184,78615,6,0,L|476:288,1,90,8|0,0:0|0:0,0:0:0:0:
368,144,78940,2,0,L|361:54,1,90,8|0,0:0|0:0,0:0:0:0:
346,265,79264,1,8,0:0:0:0:
468,184,79426,1,2,0:0:0:0:
292,148,79588,2,0,P|240:136|204:100,1,90,8|2,0:0|0:0,0:0:0:0:
144,32,79913,6,0,L|116:120,1,90,8|0,0:0|0:0,0:0:0:0:
172,200,80237,2,0,L|191:290,1,90,8|0,0:0|0:0,0:0:0:0:
216,384,80561,1,8,0:0:0:0:
360,292,80723,1,2,0:0:0:0:
292,148,80886,2,0,P|252:124|200:132,1,90,8|4,0:0|0:3,0:0:0:0:
116,48,81210,6,0,P|140:124|88:216,1,180,8|0,0:0|0:0,0:0:0:0:
24,120,81859,1,8,0:0:0:0:
116,48,82021,1,2,0:0:0:0:
168,292,82345,5,6,0:0:0:0:
336,108,82669,1,8,0:0:0:0:
436,112,82832,1,8,0:0:0:0:
432,212,82994,1,8,0:0:0:0:
332,208,83156,1,8,0:0:0:0:
180,120,83480,6,0,L|183:98,6,22.5
120,172,83805,6,0,P|156:196|220:188,1,90,6|0,0:0|0:0,0:0:0:0:
132,284,84129,1,8,0:0:0:0:
212,360,84291,1,0,0:0:0:0:
260,268,84453,2,0,P|288:228|288:164,1,90,2|0,0:0|0:0,0:0:0:0:
348,64,84777,2,0,P|368:108|424:140,1,90,8|0,0:0|0:0,0:0:0:0:
480,244,85102,6,0,P|431:239|375:271,1,90,2|0,0:0|0:0,0:0:0:0:
304,320,85426,1,8,0:0:0:0:
293,188,85588,1,0,0:0:0:0:
220,368,85750,2,0,P|208:320|220:272,1,90,2|0,0:0|0:0,0:0:0:0:
148,152,86075,2,0,P|155:195|143:239,1,90,8|0,0:0|0:0,0:0:0:0:
104,80,86399,6,0,P|152:68|200:84,1,90,2|0,0:0|0:0,0:0:0:0:
288,228,86723,2,0,P|253:192|243:142,1,90,8|0,0:0|0:0,0:0:0:0:
336,0,87048,2,0,P|322:47|284:81,1,90,2|0,0:0|0:0,0:0:0:0:
288,228,87372,1,8,0:0:0:0:
432,168,87534,1,0,0:0:0:0:
392,304,87696,6,0,P|348:292|292:324,1,90,2|0,0:0|0:0,0:0:0:0:
208,372,88021,2,0,L|196:268,1,90,8|0,0:0|0:0,0:0:0:0:
180,132,88345,1,2,0:0:0:0:
116,208,88507,1,0,0:0:0:0:
248,196,88669,2,0,L|304:192,3,45,4|4|4|4,0:3|0:3|0:3|0:3,0:0:0:0:
376,224,88994,6,0,P|380:176|344:120,1,90,6|0,0:0|0:0,0:0:0:0:
428,40,89318,2,0,P|386:57|342:52,1,90,8|0,0:0|0:0,0:0:0:0:
228,20,89642,2,0,P|245:61|240:105,1,90,2|0,0:0|0:0,0:0:0:0:
176,216,89967,1,8,0:0:0:0:
280,344,90129,6,0,L|292:152,1,180,2|2,0:0|0:0,0:0:0:0:
436,92,90615,1,8,0:0:0:0:
396,204,90777,1,0,0:0:0:0:
452,312,90940,2,0,P|408:324|360:320,1,90,2|0,0:0|0:0,0:0:0:0:
176,216,91264,2,0,P|220:204|268:208,1,90,12|0,0:0|0:0,0:0:0:0:
232,344,91588,5,8,0:0:0:0:
92,220,91750,1,2,0:0:0:0:
92,220,91913,1,2,0:0:0:0:
140,332,92075,5,8,0:0:0:0:
208,156,92237,1,2,0:0:0:0:
208,156,92399,1,2,0:0:0:0:
68,136,92561,5,8,0:0:0:0:
256,220,92723,2,0,L|248:64,1,135,2|0,0:0|0:0,0:0:0:0:
180,52,93048,2,0,P|212:20|264:12,1,90
464,104,93372,1,8,3:0:0:0:
324,60,93534,1,8,3:0:0:0:
360,188,93696,1,8,3:0:0:0:
408,40,93859,1,4,3:0:0:0:
292,140,94021,1,0,0:0:0:0:
444,188,94183,1,6,0:0:0:0:
256,192,94264,12,0,100507,0:0:0:0:
