osu file format v14

[General]
AudioFilename: audio.mp3
AudioLeadIn: 0
PreviewTime: 52669
Countdown: 0
SampleSet: Soft
StackLeniency: 0.7
Mode: 0
LetterboxInBreaks: 0
WidescreenStoryboard: 0

[Editor]
DistanceSpacing: 0.8
BeatDivisor: 4
GridSize: 4
TimelineZoom: 3.599998

[Metadata]
Title:Merry Merry Go Round
TitleUnicode:メリィメリィゴゥランド
Artist:Chitose Sara
ArtistUnicode:千歳サラ
Creator:Leaf
Version:Extra
Source:僕と恋するポンコツアクマ。
Tags:Boku to Koi Suru Ponkotsu Akuma Ending Euny [C_u_r_i] Underflow Sylphi Rose_Pacifica Moly スミレ SMILE Eroge
BeatmapID:1003944
BeatmapSetID:469475

[Difficulty]
HPDrainRate:7
CircleSize:4
OverallDifficulty:8.5
ApproachRate:9.3
SliderMultiplier:1.9
SliderTickRate:1

[Events]
//Background and Video events
0,0,"bg2.jpg",0,0
//Break Periods
//Storyboard Layer 0 (Background)
//Storyboard Layer 1 (Fail)
//Storyboard Layer 2 (Pass)
//Storyboard Layer 3 (Foreground)
//Storyboard Sound Samples

[TimingPoints]
778,324.324324324324,4,2,8,60,1,0
778,-100,4,2,8,60,0,0
18615,-66.6666666666667,4,2,8,60,0,0
18777,-100,4,2,8,60,0,0
21534,-200,4,2,0,30,0,0
22183,-142.857142857143,4,2,0,30,0,0
24129,-200,4,2,0,30,0,0
24940,-142.857142857143,4,2,0,30,0,0
25750,-83.3333333333333,4,2,8,60,0,0
26561,-100,4,2,8,60,0,0
30615,-100,4,2,0,30,0,0
31426,-100,4,2,8,60,0,0
50399,-100,4,2,8,5,0,0
51048,-100,4,2,8,60,0,0
52669,-100,4,2,8,70,0,1
61588,-100,4,2,8,70,0,0
62886,-100,4,2,8,70,0,1
71967,-100,4,2,8,60,0,0
72777,-83.3333333333333,4,2,8,60,0,0
73264,-100,4,2,8,60,0,0
73426,-100,4,2,8,70,0,1
81210,-100,4,2,8,60,0,0
96777,-100,4,2,8,40,0,0
98075,-100,4,2,8,35,0,0
99372,-100,4,2,8,20,0,0
100507,-100,4,2,8,10,0,0

[Colours]
Combo1 : 128,128,255
Combo2 : 255,128,192
Combo3 : 255,255,128
Combo4 : 128,255,128

[HitObjects]
164,72,778,5,2,0:0:0:0:
164,72,1588,1,2,0:0:0:0:
448,232,1913,6,0,P|396:248|336:232,1,95,6|0,0:0|0:0,0:0:0:0:
268,156,2237,1,2,0:0:0:0:
336,324,2399,1,8,0:0:0:0:
392,152,2561,1,6,0:0:0:0:
244,284,2723,2,0,P|238:330|253:375,1,95,0|2,0:0|0:0,0:0:0:0:
268,156,3048,5,8,0:3:0:0:
220,152,3129,1,8,0:3:0:0:
173,148,3210,1,4,0:3:0:0:
125,144,3291,1,4,0:3:0:0:
78,141,3372,5,4,0:3:0:0:
78,141,4183,1,2,0:0:0:0:
356,241,4507,6,0,P|403:247|448:232,1,95,6|0,0:0|0:0,0:0:0:0:
388,104,4832,1,2,0:0:0:0:
356,241,4994,1,8,0:0:0:0:
388,104,5156,1,6,0:0:0:0:
276,296,5318,2,0,P|257:253|264:207,1,95,0|2,0:0|0:0,0:0:0:0:
136,84,5642,5,8,0:3:0:0:
164,124,5723,1,8,0:3:0:0:
168,172,5805,1,8,0:3:0:0:
148,216,5886,1,8,0:3:0:0:
124,256,5967,6,0,P|112:302|119:349,1,95,6|0,0:0|0:0,0:0:0:0:
200,177,6291,2,0,P|247:163|283:133,1,95,2|0,0:0|0:0,0:0:0:0:
92,153,6615,2,0,P|56:118|12:102,1,95,2|0,0:0|0:0,0:0:0:0:
124,256,6940,1,2,0:0:0:0:
192,68,7102,1,0,0:0:0:0:
332,196,7264,6,0,P|380:200|428:184,1,95,2|8,0:0|0:0,0:0:0:0:
464,160,7507,1,8,0:0:0:0:
500,128,7588,1,2,0:0:0:0:
320,52,7750,5,8,0:0:0:0:
324,100,7832,1,8,0:0:0:0:
328,148,7913,1,2,0:0:0:0:
228,320,8075,5,8,0:0:0:0:
224,272,8156,1,8,0:0:0:0:
220,224,8237,2,0,L|212:112,1,95,6|0,0:0|0:0,0:0:0:0:
204,16,8561,5,2,0:0:0:0:
72,140,8886,1,2,0:0:0:0:
352,68,9210,1,8,0:0:0:0:
352,68,9372,1,2,0:0:0:0:
468,280,9696,6,0,B|368:320|376:248|284:280,1,190,6|2,0:0|0:0,0:0:0:0:
416,180,10183,1,8,0:0:0:0:
324,384,10345,1,0,0:0:0:0:
252,204,10507,1,2,0:0:0:0:
247,171,10588,1,0,0:0:0:0:
243,138,10669,1,8,0:0:0:0:
239,105,10750,1,8,0:0:0:0:
236,71,10832,6,0,L|228:7,1,47.5,8|8,0:0|0:0,0:0:0:0:
384,84,10994,2,0,L|389:131,1,47.5,8|8,0:0|0:0,0:0:0:0:
392,296,11156,6,0,P|372:252|380:192,1,95,6|0,0:0|0:0,0:0:0:0:
252,204,11480,2,0,P|256:155|293:107,1,95,8|0,0:0|0:0,0:0:0:0:
172,64,11805,2,0,P|200:24|256:1,1,95,2|0,0:0|0:0,0:0:0:0:
252,204,12129,1,8,0:0:0:0:
160,324,12291,1,0,0:0:0:0:
96,188,12453,6,0,L|0:164,1,95,2|0,0:0|0:0,0:0:0:0:
196,40,12777,1,8,0:0:0:0:
352,84,12940,1,0,0:0:0:0:
196,40,13102,2,0,L|220:152,1,95,2|0,0:0|0:0,0:0:0:0:
288,300,13426,1,8,0:0:0:0:
344,112,13588,1,0,0:0:0:0:
416,256,13750,5,2,0:0:0:0:
204,200,13913,1,0,0:0:0:0:
420,176,14075,2,0,P|465:192|494:237,1,95,8|0,0:0|0:0,0:0:0:0:
332,332,14399,1,2,0:0:0:0:
172,224,14561,1,0,0:0:0:0:
328,156,14723,1,8,0:0:0:0:
228,316,14886,6,0,L|108:304,1,95,0|2,0:0|0:0,0:0:0:0:
228,132,15210,1,0,0:0:0:0:
228,316,15372,1,8,0:0:0:0:
408,212,15534,2,0,P|356:208|308:230,1,95,0|2,0:0|0:0,0:0:0:0:
304,384,15859,1,0,0:0:0:0:
156,288,16021,1,8,0:0:0:0:
154,254,16102,1,8,0:0:0:0:
146,222,16183,1,8,0:0:0:0:
131,192,16264,1,8,0:0:0:0:
111,166,16345,6,0,P|72:136|24:128,1,95,6|0,0:0|0:0,0:0:0:0:
236,136,16669,2,0,P|217:89|179:58,1,95,8|0,0:0|0:0,0:0:0:0:
356,180,16994,2,0,P|363:130|346:84,1,95,2|0,0:0|0:0,0:0:0:0:
184,60,17318,1,8,0:0:0:0:
176,252,17480,1,0,0:0:0:0:
356,180,17642,6,0,L|460:164,1,95,2|0,0:0|0:0,0:0:0:0:
236,136,17967,1,8,0:0:0:0:
424,72,18129,1,0,0:0:0:0:
352,264,18291,2,0,L|376:372,1,95,2|0,0:0|0:0,0:0:0:0:
145,319,18615,6,0,L|175:179,1,142.500005435944,12|0,0:0|0:0,0:0:0:0:
48,88,18940,5,12,0:0:0:0:
316,76,19102,1,2,0:0:0:0:
175,179,19264,1,2,0:0:0:0:
256,8,19426,5,12,0:0:0:0:
256,272,19588,1,2,0:0:0:0:
408,64,19750,1,2,0:0:0:0:
144,40,19913,5,12,0:0:0:0:
260,180,20075,2,0,B|352:212|344:140|444:180,1,190,6|2,0:0|0:0,0:0:0:0:
391,265,20723,5,0,0:0:0:0:
304,92,20886,1,8,0:3:0:0:
496,104,21048,1,8,0:3:0:0:
391,265,21210,1,4,0:3:0:0:
140,224,21534,6,0,P|216:176|312:212,1,190,6|2,0:0|0:0,0:0:0:0:
232,288,22507,2,0,L|208:368,1,66.4999979705811
396,256,22832,1,2,0:0:0:0:
264,144,23156,1,0,0:0:0:0:
428,84,23480,1,2,0:0:0:0:
396,256,23805,1,0,0:0:0:0:
264,144,24129,6,0,B|160:188|180:108|80:144,1,190,0|2,0:0|0:0,0:0:0:0:
140,300,24940,2,0,L|124:228,2,66.4999979705811
256,284,25426,2,0,B|304:268|304:268|344:292|408:276,1,132.999995941162,2|0,0:0|0:0,0:0:0:0:
360,156,25913,1,0,0:0:0:0:
260,52,26075,5,8,0:0:0:0:
260,52,26156,1,8,0:3:0:0:
260,52,26237,2,0,L|188:68,1,56.9999982604981,4|8,0:3|0:3,0:0:0:0:
152,188,26399,2,0,L|207:175,1,56.9999982604981,8|0,0:0|0:0,0:0:0:0:
360,156,26561,6,0,P|420:192|364:180,1,190,6|2,0:0|0:0,0:0:0:0:
231,364,27048,2,0,B|207:168,1,190,8|2,0:0|0:0,0:0:0:0:
203,54,27534,1,0,0:0:0:0:
336,192,27696,1,8,0:0:0:0:
136,232,27859,1,0,0:0:0:0:
284,124,28021,6,0,P|332:108|384:120,1,95,2|0,0:0|0:0,0:0:0:0:
395,316,28345,2,0,P|357:282|341:231,1,95,8|0,0:0|0:0,0:0:0:0:
508,128,28669,2,0,P|497:177|461:216,1,95,2|0,0:0|0:0,0:0:0:0:
284,124,28994,1,8,0:0:0:0:
288,316,29156,1,0,0:0:0:0:
132,208,29318,6,0,L|12:228,1,95,2|0,0:0|0:0,0:0:0:0:
216,136,29642,2,0,L|309:120,1,95,8|0,0:0|0:0,0:0:0:0:
216,316,29967,1,2,0:0:0:0:
124,120,30129,1,0,0:0:0:0:
309,120,30291,1,8,0:0:0:0:
92,44,30453,1,8,0:0:0:0:
248,232,30615,6,0,L|448:200,2,190,2|2|2,0:0|0:0|0:0,0:0:0:0:
340,40,31426,5,2,0:0:0:0:
195,169,31588,1,8,0:0:0:0:
181,199,31669,1,8,0:0:0:0:
176,231,31750,1,8,0:0:0:0:
183,263,31831,1,8,0:0:0:0:
199,292,31913,6,0,P|244:321|308:317,1,95,6|0,0:0|0:0,0:0:0:0:
416,212,32237,2,0,P|371:183|307:187,1,95,8|0,0:0|0:0,0:0:0:0:
167,67,32561,1,2,0:0:0:0:
272,236,32723,1,2,0:0:0:0:
288,36,32886,1,8,0:0:0:0:
164,192,33048,1,0,0:0:0:0:
356,140,33210,6,0,P|404:140|456:116,1,95,2|0,0:0|0:0,0:0:0:0:
376,16,33534,1,8,0:0:0:0:
380,236,33696,1,0,0:0:0:0:
164,192,33859,1,2,0:0:0:0:
356,140,34021,1,2,0:0:0:0:
291,328,34183,2,0,B|248:308|248:308|200:310,1,95,8|0,0:0|0:0,0:0:0:0:
68,316,34507,6,0,B|80:248|80:248|64:196|64:196|72:120,1,190,2|8,0:0|0:0,0:0:0:0:
312,80,34994,1,0,0:0:0:0:
282,270,35156,2,0,L|298:378,1,95,2|8,0:0|0:0,0:0:0:0:
160,184,35480,1,6,0:0:0:0:
364,188,35642,6,0,L|468:180,1,95,2|0,0:0|0:0,0:0:0:0:
312,80,35967,1,2,0:0:0:0:
282,270,36129,1,8,0:0:0:0:
160,184,36291,6,0,L|56:176,1,95,2|0,0:0|0:0,0:0:0:0:
282,270,36615,1,2,0:0:0:0:
216,96,36777,1,8,0:0:0:0:
200,292,36940,6,0,P|224:333|273:355,1,95,6|0,0:0|0:0,0:0:0:0:
384,196,37264,1,2,0:0:0:0:
216,96,37426,1,8,0:0:0:0:
368,16,37588,1,0,0:0:0:0:
256,200,37750,1,2,0:0:0:0:
132,56,37913,1,2,0:0:0:0:
316,104,38075,1,8,0:0:0:0:
117,224,38237,6,0,P|90:174|137:52,1,190,6|2,0:0|0:0,0:0:0:0:
316,104,38723,1,8,0:0:0:0:
264,344,38886,1,0,0:0:0:0:
196,144,39048,1,2,0:0:0:0:
440,144,39210,1,2,0:0:0:0:
188,120,39372,1,8,0:0:0:0:
272,364,39534,6,0,P|360:364|428:288,1,190,6|2,0:0|0:0,0:0:0:0:
240,80,40021,5,8,0:0:0:0:
216,316,40183,1,0,0:0:0:0:
324,104,40345,5,2,0:0:0:0:
148,264,40507,1,2,0:0:0:0:
368,176,40669,5,8,0:0:0:0:
128,184,40832,1,0,0:0:0:0:
352,260,40994,5,2,0:0:0:0:
168,112,41156,1,2,0:0:0:0:
140,348,41318,1,8,0:0:0:0:
296,168,41480,1,2,0:0:0:0:
68,240,41642,5,8,0:0:0:0:
284,340,41805,1,2,0:0:0:0:
256,92,41967,1,6,0:0:0:0:
68,240,42129,1,2,0:0:0:0:
296,168,42291,5,8,0:0:0:0:
284,340,42453,1,0,0:0:0:0:
171,121,42615,1,8,0:0:0:0:
416,108,42777,1,0,0:0:0:0:
224,8,42940,1,8,0:0:0:0:
288,252,43102,1,2,0:0:0:0:
431,22,43264,2,0,P|384:26|348:56,1,95,8|2,0:0|0:0,0:0:0:0:
380,272,43588,5,8,0:0:0:0:
256,92,43750,1,0,0:0:0:0:
492,144,43913,1,8,0:0:0:0:
268,220,44075,1,0,0:0:0:0:
492,144,44237,1,8,0:0:0:0:
256,92,44399,1,2,0:0:0:0:
380,272,44561,2,0,L|368:372,1,95,8|2,0:0|0:0,0:0:0:0:
172,64,44886,5,8,0:0:0:0:
360,172,45048,1,0,0:0:0:0:
172,284,45210,1,8,0:0:0:0:
300,56,45372,1,0,0:0:0:0:
112,164,45534,1,8,0:0:0:0:
300,276,45696,1,2,0:0:0:0:
172,64,45859,2,0,P|128:48|60:64,1,95,8|2,0:0|0:0,0:0:0:0:
316,192,46183,5,8,0:0:0:0:
368,8,46345,1,2,0:0:0:0:
480,184,46507,1,8,0:0:0:0:
248,112,46669,1,2,0:0:0:0:
456,72,46832,1,8,0:0:0:0:
344,288,46994,1,6,0:0:0:0:
240,28,47156,1,8,0:0:0:0:
344,288,47318,1,2,0:0:0:0:
352,48,47480,5,8,0:0:0:0:
112,144,47642,1,0,0:0:0:0:
356,216,47805,1,8,0:0:0:0:
212,48,47967,1,0,0:0:0:0:
248,316,48129,1,8,0:0:0:0:
352,48,48291,1,2,0:0:0:0:
424,264,48453,2,0,P|436:220|420:160,1,95,8|2,0:0|0:0,0:0:0:0:
196,16,48777,5,8,0:0:0:0:
248,284,48940,1,2,0:0:0:0:
336,52,49102,1,8,0:0:0:0:
80,112,49264,1,0,0:0:0:0:
308,168,49426,5,8,0:0:0:0:
356,168,49507,1,8,0:3:0:0:
400,152,49588,1,8,0:3:0:0:
436,120,49669,1,8,0:3:0:0:
408,160,49750,1,4,0:3:0:0:
400,208,49831,1,4,0:3:0:0:
416,256,49912,1,4,0:3:0:0:
448,292,49993,1,4,0:3:0:0:
492,312,50075,6,0,P|396:284|304:304,1,190,8|0,0:0|0:0,0:0:0:0:
48,52,51048,5,8,0:0:0:0:
212,156,51210,2,0,P|312:148|372:76,1,190,6|2,0:0|0:0,0:0:0:0:
448,0,51696,1,8,0:0:0:0:
460,156,51859,2,0,L|476:360,1,190,6|0,0:0|0:0,0:0:0:0:
272,288,52345,1,8,0:0:0:0:
272,240,52426,1,8,0:0:0:0:
253,196,52507,1,8,0:0:0:0:
219,162,52588,1,8,0:0:0:0:
175,143,52669,6,0,P|121:143|64:173,1,95,6|0,0:0|0:0,0:0:0:0:
148,268,52994,1,8,0:0:0:0:
120,52,53156,1,0,0:0:0:0:
309,159,53318,2,0,L|408:150,1,95,2|0,0:0|0:0,0:0:0:0:
280,352,53642,1,8,0:0:0:0:
175,143,53805,1,0,0:0:0:0:
388,64,53967,5,2,0:0:0:0:
280,276,54129,1,0,0:0:0:0:
256,40,54291,1,8,0:0:0:0:
472,160,54453,1,0,0:0:0:0:
472,160,54615,2,0,P|420:172|376:160,1,95,2|0,0:0|0:0,0:0:0:0:
188,278,54940,2,0,P|240:266|284:278,1,95,8|0,0:0|0:0,0:0:0:0:
256,40,55264,6,0,L|267:134,1,95,2|0,0:0|0:0,0:0:0:0:
408,256,55588,1,8,0:0:0:0:
356,72,55750,1,0,0:0:0:0:
432,340,55913,2,0,P|472:316|496:256,1,95,2|0,0:0|0:0,0:0:0:0:
356,72,56237,1,8,0:0:0:0:
168,184,56399,1,0,0:0:0:0:
168,184,56561,6,0,L|56:172,1,95,2|0,0:0|0:0,0:0:0:0:
212,364,56886,1,8,0:0:0:0:
382,222,57048,1,0,0:0:0:0:
212,364,57210,2,0,P|196:316|204:264,1,95,2|0,0:0|0:0,0:0:0:0:
296,84,57534,1,8,0:0:0:0:
280,308,57696,6,0,L|480:284,1,190,6|2,0:0|0:0,0:0:0:0:
284,160,58183,1,8,0:0:0:0:
312,380,58345,1,0,0:0:0:0:
476,208,58507,2,0,L|368:224,1,95,2|0,0:0|0:0,0:0:0:0:
184,200,58832,1,8,0:0:0:0:
382,221,58994,1,0,0:0:0:0:
160,120,59156,6,0,P|120:148|100:208,1,95,2|0,0:0|0:0,0:0:0:0:
168,364,59480,2,0,P|128:336|108:276,1,95,8|0,0:0|0:0,0:0:0:0:
260,192,59805,1,2,0:0:0:0:
488,168,59967,1,0,0:0:0:0:
356,338,60129,1,8,0:0:0:0:
312,112,60291,6,0,L|308:-4,1,95,6|0,0:0|0:0,0:0:0:0:
464,152,60615,1,2,0:0:0:0:
332,322,60777,1,8,0:0:0:0:
288,96,60939,6,0,L|284:-20,1,95,2|0,0:0|0:0,0:0:0:0:
436,136,61264,1,2,0:0:0:0:
304,306,61426,1,8,0:0:0:0:
152,176,61588,6,0,P|72:152|102:227,2,190,2|2|2,0:0|0:0|0:0,0:0:0:0:
216,348,62561,1,2,0:0:0:0:
184,68,62886,6,0,P|120:32|124:116,1,190,6|2,0:0|0:0,0:0:0:0:
208,264,63372,2,0,L|197:169,1,95,8|0,0:0|0:0,0:0:0:0:
320,20,63696,2,0,L|331:115,1,95,2|0,0:0|0:0,0:0:0:0:
292,312,64021,1,8,0:0:0:0:
240,96,64183,1,0,0:0:0:0:
292,312,64345,6,0,P|304:266|292:221,1,95,2|0,0:0|0:0,0:0:0:0:
149,95,64669,2,0,P|195:107|240:95,1,95,8|0,0:0|0:0,0:0:0:0:
320,20,64994,1,2,0:0:0:0:
212,188,65156,1,0,0:0:0:0:
392,248,65318,2,0,L|492:232,1,95,8|0,0:0|0:0,0:0:0:0:
252,304,65642,6,0,B|200:320|156:296|156:296|124:328|72:324,1,190,2|8,0:0|0:0,0:0:0:0:
212,188,66129,1,0,0:0:0:0:
344,352,66291,2,0,P|356:307|345:262,1,95,2|0,0:0|0:0,0:0:0:0:
268,108,66615,1,8,0:0:0:0:
152,268,66777,1,0,0:0:0:0:
64,76,66940,6,0,P|109:89|155:81,1,95,2|0,0:0|0:0,0:0:0:0:
368,16,67264,2,0,P|321:8|276:22,1,95,8|0,0:0|0:0,0:0:0:0:
247,242,67588,2,0,P|260:196|252:150,1,95,2|0,0:0|0:0,0:0:0:0:
284,348,67913,1,8,0:0:0:0:
328,100,68075,6,0,B|268:132|216:92|216:92|260:132|252:172,1,190,6|2,0:0|0:0,0:0:0:0:
284,348,68561,1,8,0:0:0:0:
168,164,68723,1,0,0:0:0:0:
284,348,68886,2,0,P|329:348|387:316,1,95,2|0,0:0|0:0,0:0:0:0:
448,152,69210,1,8,0:0:0:0:
292,44,69372,1,0,0:0:0:0:
211,246,69534,6,0,P|259:250|312:224,1,95,2|0,0:0|0:0,0:0:0:0:
88,204,69859,2,0,L|100:316,1,95,8|0,0:0|0:0,0:0:0:0:
292,124,70183,1,2,0:0:0:0:
104,48,70345,1,0,0:0:0:0:
211,246,70507,1,8,0:0:0:0:
356,80,70669,6,0,P|312:48|252:56,1,95,6|0,0:0|0:0,0:0:0:0:
384,252,70994,1,2,0:0:0:0:
476,44,71156,1,8,0:0:0:0:
228,164,71318,2,0,P|272:196|332:188,1,95,2|0,0:0|0:0,0:0:0:0:
488,236,71642,1,2,0:0:0:0:
399,6,71805,1,8,0:0:0:0:
401,377,71967,6,0,B|433:281|369:281|400:191,1,190,6|2,0:0|0:0,0:0:0:0:
292,320,72453,1,8,0:0:0:0:
488,236,72615,1,0,0:0:0:0:
246,196,72777,6,0,L|120:212,1,113.999996520996,12|2,0:0|0:0,0:0:0:0:
380,96,73102,2,0,L|493:81,1,113.999996520996,12|2,0:0|0:0,0:0:0:0:
428,376,73426,6,0,L|412:268,1,95,8|0,0:0|0:0,0:0:0:0:
320,156,73750,1,8,0:0:0:0:
132,210,73913,1,0,0:0:0:0:
380,96,74075,1,8,0:0:0:0:
160,304,74237,1,2,0:0:0:0:
300,80,74399,1,8,0:0:0:0:
248,336,74561,1,2,0:0:0:0:
240,140,74723,5,8,0:0:0:0:
480,188,74886,1,2,0:0:0:0:
160,112,75048,1,8,0:0:0:0:
464,108,75210,1,0,0:0:0:0:
220,56,75372,1,8,0:0:0:0:
232,312,75534,1,6,0:0:0:0:
84,160,75696,2,0,P|71:115|84:64,1,95,8|0,0:0|0:0,0:0:0:0:
116,328,76021,5,12,0:0:0:0:
160,112,76183,1,0,0:0:0:0:
24,236,76345,1,8,0:0:0:0:
280,140,76507,1,0,0:0:0:0:
96,176,76669,1,8,0:0:0:0:
356,212,76832,1,2,0:0:0:0:
160,112,76994,1,8,0:0:0:0:
280,288,77156,1,2,0:0:0:0:
100,56,77318,6,0,P|144:32|196:40,1,95,8|6,0:0|0:0,0:0:0:0:
376,132,77642,1,8,0:0:0:0:
152,232,77805,1,0,0:0:0:0:
272,60,77967,2,0,P|276:108|276:172,1,95,8|6,0:0|0:0,0:0:0:0:
188,342,78291,1,8,0:3:0:0:
216,346,78372,1,8,0:3:0:0:
244,351,78453,1,4,0:3:0:0:
272,356,78534,1,4,0:3:0:0:
300,360,78615,6,0,B|348:356|404:340,1,95,8|0,0:0|0:0,0:0:0:0:
468,268,78940,1,8,0:0:0:0:
224,120,79102,1,0,0:0:0:0:
468,156,79264,1,8,0:0:0:0:
240,275,79426,1,2,0:0:0:0:
352,64,79588,1,8,0:0:0:0:
104,156,79750,1,2,0:0:0:0:
276,360,79913,6,0,P|264:304|224:264,1,95,8|0,0:0|0:0,0:0:0:0:
88,64,80237,1,8,0:0:0:0:
128,288,80399,1,0,0:0:0:0:
248,104,80561,1,8,0:0:0:0:
8,192,80723,1,2,0:0:0:0:
240,184,80886,5,8,0:0:0:0:
286,188,80967,1,4,0:3:0:0:
334,193,81048,1,4,0:3:0:0:
380,198,81129,1,4,0:3:0:0:
428,204,81210,1,8,0:0:0:0:
336,28,81859,5,8,0:0:0:0:
336,28,82021,1,2,0:0:0:0:
148,160,82345,6,0,B|144:216|176:252|176:252|144:296|152:344,1,190,6|8,0:0|0:0,0:0:0:0:
260,176,82832,1,8,0:0:0:0:
360,336,82994,1,8,0:0:0:0:
460,176,83156,1,8,0:0:0:0:
84,120,83480,6,0,L|48:114,7,23.75
132,164,83805,6,0,L|124:52,1,95,6|0,0:0|0:0,0:0:0:0:
316,56,84129,1,8,0:0:0:0:
244,240,84291,1,0,0:0:0:0:
244,240,84453,2,0,P|292:248|348:228,1,95,2|0,0:0|0:0,0:0:0:0:
436,148,84777,1,8,0:0:0:0:
408,344,84940,1,0,0:0:0:0:
244,240,85102,6,0,P|191:237|138:208,1,95,2|0,0:0|0:0,0:0:0:0:
28,104,85426,1,8,0:0:0:0:
220,52,85588,1,0,0:0:0:0:
153,220,85750,2,0,B|164:320,1,95,2|0,0:0|0:0,0:0:0:0:
336,214,86075,2,0,B|325:119,1,95,8|0,0:0|0:0,0:0:0:0:
232,256,86399,6,0,P|250:299|249:347,1,95,2|0,0:0|0:0,0:0:0:0:
276,144,86723,2,0,P|313:173|336:214,1,95,8|0,0:0|0:0,0:0:0:0:
260,24,87048,2,0,P|306:30|347:55,1,95,2|0,0:0|0:0,0:0:0:0:
80,64,87372,1,8,0:0:0:0:
260,24,87534,1,0,0:0:0:0:
168,168,87696,6,0,L|180:272,1,95,2|0,0:0|0:0,0:0:0:0:
336,214,88021,1,8,0:0:0:0:
178,262,88183,1,0,0:0:0:0:
396,360,88345,2,0,L|385:265,1,95,2|0,0:0|0:0,0:0:0:0:
392,64,88669,1,4,0:3:0:0:
365,80,88750,1,4,0:3:0:0:
334,89,88832,1,4,0:3:0:0:
303,89,88912,1,4,0:3:0:0:
271,82,88994,6,0,P|220:76|176:88,1,95,6|0,0:0|0:0,0:0:0:0:
68,192,89318,1,8,0:0:0:0:
140,324,89480,1,0,0:0:0:0:
232,204,89642,2,0,P|279:210|325:199,1,95,2|0,0:0|0:0,0:0:0:0:
432,76,89967,1,8,0:0:0:0:
500,224,90129,6,0,P|408:232|356:332,1,190,6|2,0:0|0:0,0:0:0:0:
464,328,90615,1,8,0:0:0:0:
324,199,90777,1,0,0:0:0:0:
176,272,90940,2,0,L|164:376,1,95,2|0,0:0|0:0,0:0:0:0:
300,176,91264,2,0,L|310:81,1,95,12|0,0:0|0:0,0:0:0:0:
112,104,91588,5,8,0:0:0:0:
96,304,91750,1,2,0:0:0:0:
208,60,91913,1,2,0:0:0:0:
260,300,92075,5,8,0:0:0:0:
309,81,92237,1,2,0:0:0:0:
72,188,92399,1,2,0:0:0:0:
380,152,92561,5,8,0:0:0:0:
300,336,92723,2,0,P|224:316|144:348,1,142.5,2|0,0:0|0:0,0:0:0:0:
124,368,93048,2,0,P|140:320|140:256,1,95,8|2,0:0|0:0,0:0:0:0:
120,48,93372,1,8,3:0:0:0:
264,224,93534,1,8,3:0:0:0:
44,164,93696,1,8,3:0:0:0:
256,80,93859,1,4,3:0:0:0:
142,275,94021,1,0,0:0:0:0:
142,275,94102,1,0,0:0:0:0:
142,275,94183,1,6,0:0:0:0:
256,192,94264,12,0,100507,0:0:0:0:
