osu file format v14

[General]
AudioFilename: audio.mp3
AudioLeadIn: 0
PreviewTime: 52669
Countdown: 0
SampleSet: Normal
StackLeniency: 0.7
Mode: 1
LetterboxInBreaks: 0
WidescreenStoryboard: 0

[Editor]
Bookmarks: 11156,21534,31913,39534,52669,73426
DistanceSpacing: 0.2
BeatDivisor: 4
GridSize: 8
TimelineZoom: 1.6

[Metadata]
Title:Merry Merry Go Round
TitleUnicode:メリィメリィゴゥランド
Artist:Chitose Sara
ArtistUnicode:千歳サラ
Creator:[Belajar-Osu]
Version:Inner Oni
Source:僕と恋するポンコツアクマ。
Tags:boku to koi suru ponkotsu akuma The Ditzy Demons Are in Love With Me ending ED eroge short version japanese MetalStream peaceful chaica ][ -GH- ][
BeatmapID:1934751
BeatmapSetID:926236

[Difficulty]
HPDrainRate:5
CircleSize:5
OverallDifficulty:6
ApproachRate:5
SliderMultiplier:1.4
SliderTickRate:1

[Events]
//Background and Video events
0,0,"bg2.jpg",0,0
//Break Periods
//Storyboard Layer 0 (Background)
//Storyboard Layer 1 (Fail)
//Storyboard Layer 2 (Pass)
//Storyboard Layer 3 (Foreground)
//Storyboard Sound Samples

[TimingPoints]
778,324.324324324324,4,1,0,80,1,0
21534,-100,4,1,0,70,0,0
26075,-100,4,1,0,80,0,0
52669,-100,4,1,0,90,0,1
83805,-100,4,1,0,80,0,0
94183,-100,4,1,0,50,0,0

[HitObjects]
323,213,778,5,4,0:0:0:0:
323,213,1588,1,4,0:0:0:0:
323,213,1913,1,4,0:0:0:0:
323,213,2237,1,0,0:0:0:0:
323,213,2399,1,2,0:0:0:0:
323,213,2561,1,2,0:0:0:0:
323,213,2642,1,2,0:0:0:0:
323,213,2723,1,0,0:0:0:0:
323,213,2886,1,0,0:0:0:0:
323,213,3048,1,2,0:0:0:0:
323,213,3129,1,2,0:0:0:0:
323,213,3210,1,0,0:0:0:0:
323,213,3291,1,0,0:0:0:0:
323,213,3372,1,2,0:0:0:0:
323,213,4183,1,4,0:0:0:0:
323,213,4507,1,4,0:0:0:0:
323,213,4831,1,2,0:0:0:0:
323,213,4994,1,2,0:0:0:0:
323,213,5075,1,2,0:0:0:0:
323,213,5156,1,0,0:0:0:0:
323,213,5318,1,2,0:0:0:0:
323,213,5480,1,0,0:0:0:0:
323,213,5642,1,2,0:0:0:0:
323,213,5723,1,0,0:0:0:0:
323,213,5805,1,0,0:0:0:0:
323,213,5886,1,0,0:0:0:0:
323,213,5967,1,2,0:0:0:0:
323,213,6048,1,2,0:0:0:0:
323,213,6129,1,0,0:0:0:0:
323,213,6291,1,0,0:0:0:0:
323,213,6453,1,2,0:0:0:0:
323,213,6534,1,2,0:0:0:0:
323,213,6615,1,0,0:0:0:0:
323,213,6777,1,2,0:0:0:0:
329,213,6940,1,0,0:0:0:0:
323,213,7102,1,2,0:0:0:0:
323,213,7183,1,0,0:0:0:0:
323,213,7264,1,0,0:0:0:0:
323,213,7426,1,0,0:0:0:0:
323,213,7507,1,0,0:0:0:0:
323,213,7588,1,2,0:0:0:0:
323,213,7750,1,0,0:0:0:0:
323,213,7832,1,0,0:0:0:0:
323,213,7913,1,2,0:0:0:0:
323,213,7994,1,2,0:0:0:0:
323,213,8075,1,0,0:0:0:0:
323,213,8237,1,2,0:0:0:0:
323,213,8561,1,4,0:0:0:0:
323,213,8886,1,6,0:0:0:0:
323,213,9210,1,4,0:0:0:0:
323,213,9372,1,6,0:0:0:0:
323,213,9696,1,4,0:0:0:0:
323,213,10021,1,0,0:0:0:0:
323,213,10183,1,2,0:0:0:0:
323,213,10345,1,0,0:0:0:0:
323,213,10507,1,2,0:0:0:0:
323,213,10588,1,2,0:0:0:0:
323,213,10669,1,2,0:0:0:0:
323,213,10750,1,2,0:0:0:0:
323,213,10832,1,0,0:0:0:0:
323,213,10913,1,0,0:0:0:0:
323,213,10994,1,0,0:0:0:0:
323,213,11156,1,2,0:0:0:0:
323,213,11480,1,2,0:0:0:0:
323,213,11642,1,0,0:0:0:0:
323,213,11805,1,2,0:0:0:0:
323,213,11886,1,2,0:0:0:0:
323,213,11967,1,0,0:0:0:0:
323,213,12129,1,2,0:0:0:0:
323,213,12291,1,0,0:0:0:0:
323,213,12372,1,0,0:0:0:0:
323,213,12453,1,0,0:0:0:0:
323,213,12615,1,0,0:0:0:0:
323,213,12777,1,2,0:0:0:0:
323,213,12940,1,2,0:0:0:0:
323,213,13021,1,0,0:0:0:0:
323,213,13102,1,0,0:0:0:0:
323,213,13264,1,0,0:0:0:0:
323,213,13345,1,0,0:0:0:0:
323,213,13426,1,2,0:0:0:0:
323,213,13507,1,2,0:0:0:0:
323,213,13588,1,0,0:0:0:0:
323,213,13750,1,2,0:0:0:0:
323,213,13913,1,0,0:0:0:0:
323,213,13994,1,0,0:0:0:0:
323,213,14075,1,2,0:0:0:0:
323,213,14237,1,0,0:0:0:0:
323,213,14399,1,2,0:0:0:0:
323,213,14480,1,0,0:0:0:0:
323,213,14561,1,2,0:0:0:0:
323,213,14723,1,0,0:0:0:0:
323,213,14886,1,2,0:0:0:0:
323,213,15210,1,2,0:0:0:0:
323,213,15372,1,0,0:0:0:0:
323,213,15534,1,2,0:0:0:0:
323,213,15615,1,2,0:0:0:0:
323,213,15696,1,0,0:0:0:0:
310,205,15858,1,0,0:0:0:0:
323,213,15940,1,0,0:0:0:0:
323,213,16021,1,2,0:0:0:0:
323,213,16102,1,2,0:0:0:0:
323,213,16183,1,0,0:0:0:0:
323,213,16264,1,0,0:0:0:0:
323,213,16345,1,2,0:0:0:0:
323,213,16669,1,2,0:0:0:0:
323,213,16832,1,0,0:0:0:0:
323,213,16994,1,2,0:0:0:0:
323,213,17075,1,2,0:0:0:0:
323,213,17156,1,0,0:0:0:0:
323,213,17318,1,2,0:0:0:0:
323,213,17480,1,0,0:0:0:0:
323,213,17561,1,0,0:0:0:0:
323,213,17642,1,0,0:0:0:0:
323,213,17805,1,0,0:0:0:0:
323,213,17967,1,2,0:0:0:0:
323,213,18129,1,2,0:0:0:0:
323,213,18210,1,0,0:0:0:0:
323,213,18291,1,0,0:0:0:0:
323,213,18453,1,0,0:0:0:0:
323,213,18534,1,0,0:0:0:0:
323,213,18615,1,2,0:0:0:0:
323,213,18696,1,2,0:0:0:0:
323,213,18777,1,0,0:0:0:0:
323,213,18940,1,6,0:0:0:0:
323,213,19264,1,0,0:0:0:0:
323,213,19426,1,6,0:0:0:0:
323,213,19913,1,6,0:0:0:0:
323,213,20075,1,6,0:0:0:0:
323,213,20399,1,2,0:0:0:0:
295,219,20723,1,0,0:0:0:0:
323,213,20886,1,0,0:0:0:0:
330,201,21048,1,0,0:0:0:0:
323,213,21210,1,0,0:0:0:0:
323,213,21534,1,6,0:0:0:0:
323,213,22183,1,0,0:0:0:0:
323,213,22507,1,0,0:0:0:0:
323,213,22669,1,2,0:0:0:0:
323,213,22832,1,0,0:0:0:0:
323,213,23156,1,0,0:0:0:0:
323,213,23480,1,2,0:0:0:0:
323,213,23805,1,2,0:0:0:0:
323,213,24129,1,0,0:0:0:0:
323,213,24615,1,0,0:0:0:0:
323,213,24777,1,2,0:0:0:0:
323,213,25102,1,2,0:0:0:0:
323,213,25264,1,2,0:0:0:0:
323,213,25426,1,0,0:0:0:0:
323,213,25750,1,2,0:0:0:0:
323,213,26075,1,2,0:0:0:0:
323,213,26237,1,0,0:0:0:0:
323,213,26318,1,0,0:0:0:0:
323,213,26399,1,0,0:0:0:0:
323,213,26480,1,0,0:0:0:0:
323,213,26561,1,2,0:0:0:0:
323,213,26886,1,0,0:0:0:0:
323,213,27048,1,2,0:0:0:0:
323,213,27210,1,0,0:0:0:0:
323,213,27291,1,0,0:0:0:0:
323,213,27372,1,0,0:0:0:0:
323,213,27534,1,0,0:0:0:0:
323,213,27696,1,2,0:0:0:0:
323,213,27859,1,2,0:0:0:0:
323,213,27940,1,2,0:0:0:0:
323,213,28021,1,0,0:0:0:0:
323,213,28345,1,2,0:0:0:0:
323,213,28507,1,2,0:0:0:0:
323,213,28669,1,0,0:0:0:0:
323,213,28750,1,0,0:0:0:0:
323,213,28832,1,0,0:0:0:0:
323,213,28994,1,0,0:0:0:0:
323,213,29156,1,2,0:0:0:0:
323,213,29237,1,2,0:0:0:0:
323,213,29318,1,0,0:0:0:0:
323,213,29480,1,0,0:0:0:0:
323,213,29642,1,2,0:0:0:0:
323,213,29805,1,2,0:0:0:0:
323,213,29886,1,2,0:0:0:0:
323,213,29967,1,0,0:0:0:0:
323,213,30129,1,0,0:0:0:0:
323,213,30291,1,2,0:0:0:0:
323,213,30453,1,2,0:0:0:0:
323,213,30615,1,0,0:0:0:0:
323,213,30940,1,0,0:0:0:0:
323,213,31264,1,2,0:0:0:0:
323,213,31426,1,0,0:0:0:0:
323,213,31588,1,2,0:0:0:0:
323,213,31669,1,2,0:0:0:0:
323,213,31750,1,2,0:0:0:0:
323,213,31832,1,2,0:0:0:0:
323,213,31913,1,0,0:0:0:0:
301,195,32237,1,2,0:0:0:0:
294,167,32561,1,0,0:0:0:0:
283,157,32723,1,2,0:0:0:0:
279,143,32886,1,0,0:0:0:0:
242,156,32967,1,0,0:0:0:0:
242,156,33048,1,2,0:0:0:0:
242,156,33210,1,2,0:0:0:0:
242,156,33372,1,0,0:0:0:0:
210,156,33534,1,2,0:0:0:0:
210,156,33615,1,2,0:0:0:0:
210,156,33696,1,2,0:0:0:0:
274,188,33859,1,0,0:0:0:0:
274,188,34021,1,2,0:0:0:0:
274,188,34183,1,0,0:0:0:0:
274,188,34264,1,0,0:0:0:0:
271,174,34345,1,2,0:0:0:0:
271,174,34507,1,2,0:0:0:0:
271,174,34669,1,0,0:0:0:0:
274,188,34832,1,2,0:0:0:0:
271,174,34994,1,2,0:0:0:0:
271,174,35075,1,2,0:0:0:0:
271,174,35156,1,0,0:0:0:0:
271,174,35318,1,2,0:0:0:0:
290,179,35480,1,2,0:0:0:0:
290,179,35642,1,4,0:0:0:0:
269,159,35967,1,0,0:0:0:0:
269,159,36048,1,0,0:0:0:0:
269,159,36129,1,2,0:0:0:0:
278,166,36291,1,6,0:0:0:0:
278,166,36615,1,2,0:0:0:0:
278,166,36777,1,2,0:0:0:0:
278,166,36940,1,4,0:0:0:0:
278,166,37264,1,2,0:0:0:0:
278,166,37426,1,0,0:0:0:0:
278,166,37588,1,2,0:0:0:0:
278,166,37669,1,2,0:0:0:0:
278,166,37750,1,0,0:0:0:0:
278,166,37913,1,0,0:0:0:0:
278,166,38075,1,2,0:0:0:0:
278,166,38237,1,6,0:0:0:0:
291,166,38561,1,0,0:0:0:0:
263,156,38642,1,0,0:0:0:0:
263,156,38723,1,2,0:0:0:0:
282,152,38886,1,2,0:0:0:0:
282,152,39048,1,0,0:0:0:0:
282,152,39129,1,0,0:0:0:0:
286,146,39210,1,0,0:0:0:0:
282,152,39372,1,2,0:0:0:0:
286,146,39534,1,4,0:0:0:0:
287,173,39859,1,0,0:0:0:0:
286,159,40021,1,2,0:0:0:0:
267,148,40183,1,2,0:0:0:0:
267,148,40264,1,2,0:0:0:0:
267,148,40345,1,0,0:0:0:0:
254,159,40507,1,0,0:0:0:0:
254,191,40669,1,2,0:0:0:0:
254,159,40832,1,2,0:0:0:0:
254,159,40913,1,0,0:0:0:0:
266,164,40994,1,0,0:0:0:0:
254,191,41156,1,0,0:0:0:0:
255,165,41318,1,2,0:0:0:0:
254,159,41480,1,0,0:0:0:0:
255,165,41561,1,0,0:0:0:0:
256,171,41642,1,2,0:0:0:0:
254,159,41805,1,0,0:0:0:0:
254,159,41967,1,2,0:0:0:0:
254,191,42291,1,6,0:0:0:0:
286,159,42615,1,2,0:0:0:0:
254,159,42777,1,0,0:0:0:0:
254,191,42940,1,2,0:0:0:0:
286,159,43102,1,0,0:0:0:0:
286,159,43183,1,0,0:0:0:0:
281,164,43264,1,0,0:0:0:0:
281,132,43426,1,0,0:0:0:0:
313,132,43507,1,0,0:0:0:0:
281,132,43588,1,2,0:0:0:0:
313,132,43750,1,0,0:0:0:0:
313,132,43913,1,2,0:0:0:0:
281,132,44075,1,2,0:0:0:0:
313,132,44237,1,0,0:0:0:0:
313,132,44318,1,0,0:0:0:0:
281,132,44399,1,2,0:0:0:0:
286,135,44480,1,0,0:0:0:0:
313,132,44561,1,2,0:0:0:0:
313,132,44723,1,0,0:0:0:0:
313,132,44805,1,0,0:0:0:0:
313,132,44886,1,2,0:0:0:0:
313,132,45210,1,2,0:0:0:0:
313,132,45372,1,0,0:0:0:0:
313,132,45534,1,2,0:0:0:0:
313,132,45696,1,0,0:0:0:0:
313,132,45777,1,0,0:0:0:0:
313,132,45859,1,2,0:0:0:0:
281,132,46021,1,2,0:0:0:0:
281,132,46102,1,2,0:0:0:0:
281,132,46183,1,0,0:0:0:0:
281,132,46345,1,0,0:0:0:0:
281,132,46426,1,0,0:0:0:0:
313,101,46507,1,2,0:0:0:0:
281,101,46669,1,2,0:0:0:0:
281,132,46750,1,0,0:0:0:0:
281,132,46832,1,2,0:0:0:0:
281,132,46913,1,2,0:0:0:0:
281,132,46994,1,0,0:0:0:0:
281,132,47075,1,0,0:0:0:0:
281,164,47156,1,2,0:0:0:0:
313,132,47318,1,0,0:0:0:0:
281,132,47399,1,0,0:0:0:0:
281,132,47480,1,2,0:0:0:0:
281,132,47804,1,2,0:0:0:0:
313,196,47966,1,0,0:0:0:0:
313,132,48129,1,2,0:0:0:0:
281,164,48291,1,2,0:0:0:0:
281,132,48372,1,2,0:0:0:0:
281,132,48453,1,0,0:0:0:0:
281,132,48615,1,0,0:0:0:0:
281,164,48696,1,0,0:0:0:0:
281,164,48777,1,0,0:0:0:0:
281,164,48940,1,2,0:0:0:0:
313,101,49102,1,2,0:0:0:0:
313,132,49264,1,0,0:0:0:0:
281,164,49426,1,2,0:0:0:0:
281,132,49507,1,2,0:0:0:0:
313,164,49588,1,2,0:0:0:0:
313,164,49669,1,2,0:0:0:0:
313,164,49750,1,0,0:0:0:0:
313,164,49832,1,0,0:0:0:0:
313,132,49913,1,0,0:0:0:0:
281,132,49994,1,0,0:0:0:0:
313,164,50075,1,2,0:0:0:0:
313,164,51048,1,2,0:0:0:0:
281,132,51210,1,4,0:0:0:0:
313,164,51534,1,2,0:0:0:0:
281,132,51696,1,0,0:0:0:0:
313,164,51859,1,2,0:0:0:0:
313,164,52021,1,2,0:0:0:0:
313,164,52102,1,2,0:0:0:0:
313,164,52183,1,2,0:0:0:0:
313,164,52264,1,2,0:0:0:0:
313,164,52345,1,0,0:0:0:0:
313,164,52426,1,0,0:0:0:0:
313,164,52507,1,0,0:0:0:0:
345,132,52669,1,6,0:0:0:0:
331,156,52994,1,2,0:0:0:0:
363,124,53156,1,0,0:0:0:0:
395,124,53318,1,2,0:0:0:0:
395,124,53399,1,2,0:0:0:0:
363,124,53480,1,0,0:0:0:0:
363,156,53642,1,2,0:0:0:0:
331,124,53805,1,0,0:0:0:0:
331,124,53886,1,0,0:0:0:0:
363,124,53967,1,0,0:0:0:0:
331,124,54129,1,0,0:0:0:0:
363,124,54291,1,2,0:0:0:0:
363,156,54453,1,0,0:0:0:0:
363,156,54534,1,0,0:0:0:0:
363,156,54615,1,2,0:0:0:0:
363,156,54696,1,2,0:0:0:0:
299,124,54777,1,0,0:0:0:0:
331,124,54940,1,2,0:0:0:0:
363,93,55102,1,0,0:0:0:0:
363,188,55264,1,2,0:0:0:0:
331,124,55588,1,2,0:0:0:0:
363,93,55750,1,0,0:0:0:0:
363,188,55913,1,2,0:0:0:0:
363,156,55994,1,2,0:0:0:0:
363,124,56075,1,0,0:0:0:0:
331,124,56237,1,2,0:0:0:0:
363,156,56399,1,2,0:0:0:0:
363,124,56480,1,0,0:0:0:0:
363,124,56561,1,0,0:0:0:0:
299,124,56723,1,0,0:0:0:0:
331,124,56886,1,2,0:0:0:0:
299,124,56967,1,0,0:0:0:0:
363,156,57048,1,2,0:0:0:0:
363,156,57129,1,2,0:0:0:0:
363,156,57210,1,0,0:0:0:0:
299,124,57372,1,2,0:0:0:0:
331,156,57534,1,0,0:0:0:0:
363,124,57696,1,6,0:0:0:0:
331,188,58021,1,0,0:0:0:0:
299,188,58183,1,2,0:0:0:0:
331,156,58345,1,2,0:0:0:0:
331,156,58426,1,2,0:0:0:0:
331,156,58507,1,0,0:0:0:0:
363,124,58669,1,0,0:0:0:0:
363,124,58832,1,2,0:0:0:0:
331,156,58994,1,2,0:0:0:0:
331,124,59075,1,0,0:0:0:0:
331,93,59156,1,0,0:0:0:0:
331,93,59318,1,0,0:0:0:0:
363,124,59480,1,2,0:0:0:0:
331,124,59642,1,0,0:0:0:0:
331,124,59723,1,0,0:0:0:0:
363,124,59805,1,2,0:0:0:0:
331,124,59967,1,2,0:0:0:0:
363,156,60129,1,2,0:0:0:0:
363,124,60291,1,4,0:0:0:0:
363,188,60615,1,0,0:0:0:0:
363,156,60777,1,2,0:0:0:0:
363,124,60940,1,4,0:0:0:0:
363,93,61264,1,0,0:0:0:0:
331,156,61426,1,2,0:0:0:0:
331,124,61588,1,6,0:0:0:0:
299,124,61913,1,0,0:0:0:0:
363,156,62237,1,2,0:0:0:0:
299,124,62561,1,2,0:0:0:0:
363,156,62886,1,6,0:0:0:0:
331,93,63210,1,0,0:0:0:0:
331,124,63372,1,2,0:0:0:0:
331,124,63534,1,0,0:0:0:0:
331,124,63615,1,0,0:0:0:0:
331,124,63696,1,2,0:0:0:0:
331,124,63777,1,2,0:0:0:0:
331,124,63859,1,0,0:0:0:0:
331,124,64021,1,2,0:0:0:0:
331,124,64183,1,0,0:0:0:0:
331,124,64264,1,0,0:0:0:0:
331,124,64345,1,0,0:0:0:0:
331,124,64507,1,2,0:0:0:0:
331,124,64669,1,2,0:0:0:0:
331,124,64832,1,2,0:0:0:0:
331,124,64913,1,2,0:0:0:0:
331,124,64994,1,0,0:0:0:0:
331,124,65156,1,0,0:0:0:0:
331,124,65237,1,0,0:0:0:0:
331,124,65318,1,2,0:0:0:0:
331,124,65480,1,0,0:0:0:0:
331,124,65642,1,2,0:0:0:0:
331,124,65967,1,2,0:0:0:0:
331,124,66129,1,0,0:0:0:0:
331,124,66291,1,2,0:0:0:0:
331,124,66372,1,2,0:0:0:0:
331,124,66453,1,0,0:0:0:0:
331,124,66615,1,2,0:0:0:0:
331,124,66777,1,0,0:0:0:0:
331,124,66859,1,0,0:0:0:0:
331,124,66940,1,0,0:0:0:0:
331,124,67102,1,0,0:0:0:0:
331,124,67264,1,2,0:0:0:0:
331,124,67345,1,2,0:0:0:0:
331,124,67426,1,0,0:0:0:0:
331,124,67507,1,0,0:0:0:0:
331,124,67588,1,0,0:0:0:0:
331,124,67750,1,2,0:0:0:0:
331,124,67913,1,0,0:0:0:0:
331,124,68075,1,6,0:0:0:0:
331,124,68399,1,0,0:0:0:0:
331,124,68561,1,2,0:0:0:0:
331,124,68723,1,0,0:0:0:0:
331,124,68805,1,2,0:0:0:0:
331,124,68886,1,2,0:0:0:0:
331,124,69048,1,0,0:0:0:0:
331,124,69210,1,2,0:0:0:0:
331,124,69372,1,0,0:0:0:0:
331,124,69453,1,0,0:0:0:0:
331,124,69534,1,2,0:0:0:0:
331,124,69696,1,0,0:0:0:0:
331,124,69859,1,2,0:0:0:0:
328,137,70021,1,0,0:0:0:0:
331,93,70102,1,0,0:0:0:0:
331,93,70183,1,2,0:0:0:0:
331,93,70264,1,2,0:0:0:0:
331,124,70345,1,0,0:0:0:0:
331,93,70507,1,0,0:0:0:0:
331,93,70669,1,6,0:0:0:0:
331,93,70994,1,0,0:0:0:0:
363,93,71156,1,2,0:0:0:0:
363,93,71318,1,4,0:0:0:0:
363,93,71642,1,2,0:0:0:0:
363,93,71805,1,0,0:0:0:0:
349,94,71967,1,6,0:0:0:0:
349,94,72291,1,0,0:0:0:0:
349,94,72372,1,0,0:0:0:0:
349,94,72453,1,2,0:0:0:0:
349,94,72615,1,0,0:0:0:0:
349,94,72777,1,2,0:0:0:0:
349,94,72859,1,2,0:0:0:0:
349,94,72940,1,0,0:0:0:0:
349,94,73021,1,0,0:0:0:0:
349,94,73102,1,2,0:0:0:0:
317,125,73264,1,2,0:0:0:0:
349,157,73426,1,4,0:0:0:0:
349,125,73750,1,2,0:0:0:0:
349,125,73913,1,0,0:0:0:0:
349,125,73994,1,0,0:0:0:0:
349,125,74075,1,2,0:0:0:0:
349,125,74237,1,0,0:0:0:0:
349,125,74399,1,2,0:0:0:0:
349,125,74561,1,0,0:0:0:0:
349,125,74642,1,0,0:0:0:0:
349,125,74723,1,2,0:0:0:0:
349,94,74805,1,0,0:0:0:0:
349,94,74886,1,2,0:0:0:0:
349,125,75048,1,2,0:0:0:0:
349,125,75129,1,2,0:0:0:0:
349,94,75210,1,0,0:0:0:0:
349,125,75291,1,0,0:0:0:0:
349,125,75372,1,2,0:0:0:0:
349,125,75534,1,0,0:0:0:0:
349,125,75696,1,2,0:0:0:0:
349,125,75777,1,2,0:0:0:0:
349,125,75859,1,0,0:0:0:0:
349,125,76021,1,4,0:0:0:0:
349,125,76345,1,0,0:0:0:0:
349,125,76507,1,0,0:0:0:0:
349,125,76588,1,0,0:0:0:0:
349,125,76669,1,2,0:0:0:0:
349,125,76832,1,0,0:0:0:0:
349,125,76994,1,2,0:0:0:0:
349,125,77156,1,2,0:0:0:0:
349,94,77237,1,0,0:0:0:0:
349,125,77318,1,2,0:0:0:0:
349,125,77399,1,2,0:0:0:0:
349,125,77480,1,0,0:0:0:0:
349,125,77561,1,0,0:0:0:0:
349,125,77642,1,2,0:0:0:0:
349,125,77805,1,0,0:0:0:0:
349,125,77886,1,0,0:0:0:0:
349,125,77967,1,2,0:0:0:0:
349,125,78129,1,0,0:0:0:0:
349,125,78291,1,2,0:0:0:0:
349,125,78372,1,2,0:0:0:0:
349,125,78453,1,2,0:0:0:0:
349,125,78615,1,4,0:0:0:0:
349,125,78940,1,0,0:0:0:0:
349,125,79102,1,0,0:0:0:0:
349,125,79183,1,0,0:0:0:0:
349,125,79264,1,2,0:0:0:0:
349,125,79426,1,0,0:0:0:0:
349,125,79588,1,2,0:0:0:0:
349,125,79750,1,0,0:0:0:0:
349,94,79832,1,0,0:0:0:0:
349,125,79913,1,2,0:0:0:0:
349,94,79994,1,0,0:0:0:0:
349,94,80075,1,2,0:0:0:0:
349,94,80156,1,2,0:0:0:0:
349,125,80237,1,0,0:0:0:0:
349,125,80399,1,0,0:0:0:0:
349,125,80480,1,0,0:0:0:0:
349,125,80561,1,2,0:0:0:0:
349,94,80723,1,2,0:0:0:0:
349,125,80805,1,0,0:0:0:0:
347,118,80886,1,2,0:0:0:0:
347,118,80967,1,2,0:0:0:0:
349,125,81048,1,0,0:0:0:0:
349,125,81210,1,4,0:0:0:0:
349,125,81859,1,6,0:0:0:0:
349,125,82021,1,6,0:0:0:0:
349,125,82345,1,4,0:0:0:0:
321,125,82669,1,4,0:0:0:0:
335,125,82832,1,4,0:0:0:0:
349,125,82994,1,4,0:0:0:0:
337,132,83156,1,4,0:0:0:0:
350,156,83480,1,2,0:0:0:0:
350,149,83561,1,2,0:0:0:0:
352,142,83642,1,2,0:0:0:0:
355,136,83723,1,2,0:0:0:0:
348,134,83805,1,0,0:0:0:0:
324,122,84129,1,2,0:0:0:0:
324,122,84291,1,2,0:0:0:0:
324,122,84372,1,2,0:0:0:0:
324,122,84453,1,0,0:0:0:0:
324,122,84615,1,2,0:0:0:0:
324,122,84777,1,0,0:0:0:0:
324,122,84940,1,0,0:0:0:0:
324,122,85021,1,0,0:0:0:0:
324,122,85102,1,0,0:0:0:0:
324,122,85264,1,0,0:0:0:0:
324,122,85426,1,2,0:0:0:0:
317,125,85588,1,2,0:0:0:0:
317,125,85750,1,0,0:0:0:0:
317,125,85832,1,0,0:0:0:0:
317,125,85913,1,2,0:0:0:0:
317,125,85994,1,2,0:0:0:0:
317,125,86075,1,0,0:0:0:0:
317,125,86237,1,0,0:0:0:0:
317,125,86399,1,2,0:0:0:0:
317,125,86723,1,2,0:0:0:0:
317,125,86886,1,0,0:0:0:0:
317,125,87048,1,0,0:0:0:0:
317,125,87210,1,0,0:0:0:0:
317,125,87291,1,0,0:0:0:0:
317,125,87372,1,2,0:0:0:0:
317,125,87453,1,0,0:0:0:0:
317,125,87534,1,2,0:0:0:0:
317,125,87696,1,0,0:0:0:0:
317,125,87859,1,2,0:0:0:0:
317,125,87940,1,0,0:0:0:0:
317,125,88021,1,2,0:0:0:0:
317,125,88183,1,0,0:0:0:0:
317,125,88264,1,0,0:0:0:0:
317,125,88345,1,2,0:0:0:0:
317,125,88507,1,0,0:0:0:0:
330,125,88669,1,2,0:0:0:0:
317,125,88750,1,2,0:0:0:0:
317,125,88832,1,2,0:0:0:0:
317,125,88913,1,2,0:0:0:0:
317,125,88994,1,0,0:0:0:0:
317,125,89318,1,2,0:0:0:0:
324,136,89480,1,2,0:0:0:0:
317,125,89561,1,2,0:0:0:0:
317,125,89642,1,0,0:0:0:0:
319,138,89805,1,2,0:0:0:0:
330,130,89967,1,0,0:0:0:0:
330,130,90129,1,2,0:0:0:0:
302,136,90453,1,0,0:0:0:0:
317,125,90615,1,2,0:0:0:0:
330,125,90777,1,0,0:0:0:0:
317,125,90940,1,2,0:0:0:0:
317,125,91021,1,2,0:0:0:0:
349,125,91102,1,0,0:0:0:0:
349,125,91183,1,0,0:0:0:0:
349,125,91264,1,2,0:0:0:0:
349,125,91426,1,0,0:0:0:0:
349,125,91588,1,6,0:0:0:0:
317,125,91750,1,0,0:0:0:0:
316,139,91913,1,0,0:0:0:0:
326,148,92075,1,6,0:0:0:0:
312,144,92237,1,0,0:0:0:0:
298,145,92399,1,0,0:0:0:0:
298,145,92561,1,2,0:0:0:0:
312,144,92723,1,6,0:0:0:0:
322,166,93048,1,2,0:0:0:0:
322,166,93129,1,2,0:0:0:0:
354,134,93210,1,0,0:0:0:0:
354,134,93372,1,2,0:0:0:0:
354,134,93534,1,0,0:0:0:0:
354,134,93615,1,0,0:0:0:0:
322,166,93696,1,0,0:0:0:0:
322,134,93777,1,0,0:0:0:0:
354,134,93859,1,2,0:0:0:0:
256,192,94183,12,0,100669,0:0:0:0:
