osu file format v14

[General]
AudioFilename: audio.mp3
AudioLeadIn: 0
PreviewTime: 180636
Countdown: 0
SampleSet: Soft
StackLeniency: 0.4
Mode: 0
LetterboxInBreaks: 0
WidescreenStoryboard: 0

[Editor]
Bookmarks: 182871
DistanceSpacing: 0.4
BeatDivisor: 4
GridSize: 16
TimelineZoom: 2.1

[Metadata]
Title:Arcadia
TitleUnicode:アルカディア
Artist:Chitose Sara
ArtistUnicode:千歳サラ
Creator:gazimal
Version:Truth
Source:11月のアルカディア
Tags:galgame visual novel eroge opening full version 11gatsu no juuichigatsu of november levol pop jpop japanese Age17 ponbot Yuuma3 wring
BeatmapID:3845113
BeatmapSetID:1868926

[Difficulty]
HPDrainRate:5
CircleSize:4
OverallDifficulty:9
ApproachRate:9.4
SliderMultiplier:1.8
SliderTickRate:1

[Events]
//Background and Video events
0,0,"1547427d088a9aac29a9145283debdb8.jpg",0,0
//Break Periods
2,182871,184893
//Storyboard Layer 0 (Background)
//Storyboard Layer 1 (Fail)
//Storyboard Layer 2 (Pass)
//Storyboard Layer 3 (Foreground)
//Storyboard Layer 4 (Overlay)
//Storyboard Sound Samples

[TimingPoints]
684,337.078651685393,4,2,1,25,1,0
684,-200,4,2,1,25,0,0
1552,337.078651685393,4,2,1,40,1,0
2057,-133.333333333333,4,2,1,40,0,0
5091,-333.333333333333,4,2,1,40,0,0
5596,-133.333333333333,4,2,1,40,0,0
11640,337.078651685393,4,2,1,70,1,0
11977,-100,4,2,1,60,0,0
12308,337.078651685393,4,2,1,70,1,0
12308,-66.6666666666667,4,2,1,70,0,0
12645,-100,4,2,1,60,0,0
13487,-83.3333333333333,4,2,1,60,0,0
13993,-100,4,2,1,60,0,0
15257,-100,4,2,1,5,0,0
15341,-83.3333333333333,4,2,1,60,0,0
15594,-100,4,2,1,5,0,0
15678,-83.3333333333333,4,2,1,60,0,0
16015,-125,4,2,1,60,0,0
16184,-66.6666666666667,4,2,1,60,0,0
16858,-100,4,2,1,60,0,0
17616,-100,4,2,2,60,0,0
17701,-100,4,2,1,65,0,0
18206,-66.6666666666667,4,2,1,65,0,0
18459,-100,4,2,1,5,0,0
18543,-66.6666666666667,4,2,1,65,0,0
19133,-100,4,2,1,5,0,0
19218,-66.6666666666667,4,2,1,65,0,0
19807,-100,4,2,1,5,0,0
19892,-66.6666666666667,4,2,1,65,0,0
20397,-100,4,2,1,70,0,0
21577,-66.6666666666667,4,2,1,70,0,0
21830,-100,4,2,1,5,0,0
21914,-100,4,2,1,70,0,0
22083,-100,4,2,2,70,0,0
22588,-100,4,2,2,55,0,0
22757,-100,4,2,1,55,0,0
23094,-166.666666666667,4,2,1,60,0,0
23431,-166.666666666667,4,2,5,50,0,0
23600,-166.666666666667,4,2,1,50,0,0
23768,-166.666666666667,4,2,5,50,0,0
23937,-166.666666666667,4,2,1,50,0,0
24105,-166.666666666667,4,2,5,50,0,0
24611,-166.666666666667,4,2,1,50,0,0
24779,-166.666666666667,4,2,5,50,0,0
24948,-166.666666666667,4,2,1,50,0,0
25116,-166.666666666667,4,2,5,50,0,0
25285,-166.666666666667,4,2,1,50,0,0
25454,-166.666666666667,4,2,5,50,0,0
25622,-166.666666666667,4,2,1,50,0,0
26128,-166.666666666667,4,2,5,50,0,0
26296,-166.666666666667,4,2,1,50,0,0
26465,-166.666666666667,4,2,5,50,0,0
26633,-166.666666666667,4,2,1,50,0,0
26802,-166.666666666667,4,2,5,50,0,0
27307,-166.666666666667,4,2,1,50,0,0
27476,-166.666666666667,4,2,5,50,0,0
27645,-166.666666666667,4,2,1,50,0,0
27813,-166.666666666667,4,2,5,50,0,0
27982,-166.666666666667,4,2,1,50,0,0
28150,-166.666666666667,4,2,5,50,0,0
28993,-166.666666666667,4,2,1,50,0,0
29161,-166.666666666667,4,2,5,50,0,0
29330,-166.666666666667,4,2,1,50,0,0
29499,-166.666666666667,4,2,5,50,0,0
30004,-166.666666666667,4,2,1,50,0,0
30173,-166.666666666667,4,2,5,50,0,0
30341,-166.666666666667,4,2,1,50,0,0
30510,-166.666666666667,4,2,5,50,0,0
30678,-166.666666666667,4,2,1,50,0,0
30847,-166.666666666667,4,2,5,50,0,0
32027,-166.666666666667,4,2,1,50,0,0
32195,-166.666666666667,4,2,5,50,0,0
32364,-100,4,2,1,65,0,0
33712,-166.666666666667,4,2,2,60,0,0
33881,-83.3333333333333,4,2,2,60,0,0
34386,-100,4,2,2,60,0,0
35397,-166.666666666667,4,2,2,60,0,0
36409,-166.666666666667,4,2,1,60,0,0
36577,-100,4,2,1,60,0,0
37083,-125,4,2,1,60,0,0
37420,-200,4,2,1,60,0,0
37673,-200,4,2,1,5,0,0
37757,-250.000000000001,4,2,1,60,0,0
39105,-166.666666666667,4,2,1,60,0,0
39274,-100,4,2,1,60,0,0
41802,-125,4,2,1,60,0,0
41970,-100,4,2,1,60,0,0
43150,-83.3333333333333,4,2,1,65,0,0
44499,-83.3333333333333,4,2,2,65,0,0
44667,-100,4,2,1,65,0,0
45004,-100,4,2,1,55,0,0
45341,-133.333333333333,4,2,1,55,0,0
46268,-200,4,2,1,5,0,0
46352,-133.333333333333,4,2,1,55,0,0
46690,-100,4,2,1,55,0,0
46942,-200,4,2,1,5,0,0
47027,-100,4,2,1,55,0,0
47195,-125,4,2,1,55,0,0
47364,-100,4,2,1,55,0,0
47616,-200,4,2,1,5,0,0
47701,-125,4,2,1,55,0,0
49555,-100,4,2,1,55,0,0
50060,-83.3333333333333,4,2,1,55,0,0
50734,-100,4,2,1,55,0,0
51072,-125,4,2,1,55,0,0
51409,-100,4,2,1,55,0,0
51661,-200,4,2,1,5,0,0
51746,-125,4,2,1,55,0,0
52083,-83.3333333333333,4,2,1,55,0,0
52336,-200,4,2,1,5,0,0
52420,-83.3333333333333,4,2,1,55,0,0
52588,-125,4,2,1,55,0,0
52757,-83.3333333333333,4,2,1,60,0,0
53010,-200,4,2,1,5,0,0
53094,-83.3333333333333,4,2,1,60,0,0
53263,-100,4,2,1,60,0,0
55285,-100,4,2,2,60,0,0
55454,-66.6666666666667,4,2,1,65,0,0
55706,-200,4,2,1,5,0,0
55791,-66.6666666666667,4,2,1,65,0,0
56465,-100,4,2,1,65,0,0
56633,-83.3333333333333,4,2,1,65,0,0
58403,-200,4,2,1,5,0,0
58487,-83.3333333333333,4,2,1,65,0,0
59161,-100,4,2,1,65,0,0
59330,-83.3333333333333,4,2,1,65,0,0
59836,-100,4,2,1,65,0,0
60847,-83.3333333333333,4,2,1,65,0,0
61100,-200,4,2,1,5,0,0
61184,-83.3333333333333,4,2,1,65,0,0
61690,-100,4,2,1,65,0,0
62869,-133.333333333333,4,2,1,65,0,0
63543,-71.4285714285714,4,2,1,70,0,0
63796,-200,4,2,1,5,0,0
63881,-125,4,2,1,70,0,0
64049,-66.6666666666667,4,2,1,70,0,0
64302,-200,4,2,1,5,0,0
64386,-125,4,2,1,70,0,0
64723,-66.6666666666667,4,2,1,70,0,0
65229,-66.6666666666667,4,2,1,75,0,0
66746,-333.333333333333,4,2,1,50,0,0
67588,-66.6666666666667,4,2,1,80,0,1
67841,-66.6666666666667,4,2,1,5,0,1
67925,-100,4,2,1,80,0,1
68094,-83.3333333333333,4,2,1,80,0,1
68768,-100,4,2,1,80,0,1
68937,-71.4285714285714,4,2,1,80,0,1
69190,-66.6666666666667,4,2,1,5,0,1
69274,-71.4285714285714,4,2,1,80,0,1
70201,-66.6666666666667,4,2,1,5,0,1
70285,-71.4285714285714,4,2,1,80,0,1
70538,-66.6666666666667,4,2,1,5,0,1
70622,-71.4285714285714,4,2,1,80,0,1
70791,-100,4,2,1,80,0,1
72139,-83.3333333333333,4,2,1,80,0,1
72476,-100,4,2,1,80,0,1
72982,-58.8235294117647,4,2,1,80,0,1
73234,-66.6666666666667,4,2,1,5,0,1
73319,-100,4,2,1,80,0,1
73487,-58.8235294117647,4,2,1,80,0,1
73740,-66.6666666666667,4,2,1,5,0,1
73824,-58.8235294117647,4,2,1,80,0,1
73993,-100,4,2,1,80,0,1
74161,-76.9230769230769,4,2,1,80,0,1
74667,-100,4,2,1,80,0,1
75678,-71.4285714285714,4,2,1,80,0,1
75931,-66.6666666666667,4,2,1,5,0,1
76015,-71.4285714285714,4,2,1,80,0,1
76352,-100,4,2,1,80,0,1
76858,-58.8235294117647,4,2,1,80,0,1
77111,-66.6666666666667,4,2,1,5,0,1
77195,-83.3333333333333,4,2,1,80,0,1
77364,-100,4,2,1,80,0,1
77532,-125,4,2,1,80,0,1
77701,-166.666666666667,4,2,1,80,0,1
77869,-250,4,2,1,80,0,1
78291,-250,4,2,2,80,0,1
78375,-66.6666666666667,4,2,1,80,0,1
78712,-125,4,2,1,80,0,1
78881,-100,4,2,1,80,0,1
79555,-83.3333333333333,4,2,1,80,0,1
79807,-66.6666666666667,4,2,1,5,0,1
79892,-83.3333333333333,4,2,1,80,0,1
80987,-66.6666666666667,4,2,1,5,0,1
81072,-71.4285714285714,4,2,1,80,0,1
81324,-66.6666666666667,4,2,1,5,0,1
81409,-71.4285714285714,4,2,1,80,0,1
81577,-100,4,2,1,80,0,1
82251,-83.3333333333333,4,2,1,80,0,1
83431,-333.333333333333,4,2,1,80,0,1
83684,-66.6666666666667,4,2,1,5,0,1
83768,-58.8235294117647,4,2,1,80,0,1
84021,-66.6666666666667,4,2,1,5,0,1
84105,-83.3333333333333,4,2,1,80,0,1
86465,-250,4,2,1,80,0,1
86718,-66.6666666666667,4,2,1,5,0,1
86802,-58.8235294117647,4,2,1,80,0,1
87055,-66.6666666666667,4,2,1,5,0,1
87139,-100,4,2,1,80,0,1
87645,-83.3333333333333,4,2,1,80,0,1
87897,-66.6666666666667,4,2,1,5,0,1
87982,-125,4,2,1,80,0,1
88824,-250,4,2,1,80,0,1
89077,-66.6666666666667,4,2,1,5,0,1
89161,-100,4,2,1,85,0,1
90510,-400,4,2,1,85,0,0
90763,-400,4,2,1,5,0,0
90847,-400,4,2,1,40,0,0
91352,-400,4,2,1,55,0,0
91521,-100,4,2,1,60,0,0
91858,-333.333333333333,4,2,1,60,0,0
92111,-333.333333333333,4,2,1,5,0,0
92195,-58.8235294117647,4,2,1,65,0,0
92448,-333.333333333333,4,2,1,5,0,0
92532,-58.8235294117647,4,2,1,65,0,0
93038,-83.3333333333333,4,2,1,65,0,0
93712,-100,4,2,1,65,0,0
94807,-333.333333333333,4,2,1,5,0,0
94892,-83.3333333333333,4,2,1,65,0,0
95145,-333.333333333333,4,2,1,5,0,0
95229,-83.3333333333333,4,2,1,65,0,0
95566,-100,4,2,1,65,0,0
95734,-71.4285714285714,4,2,1,65,0,0
97167,-71.4285714285714,4,2,2,65,0,0
97251,-71.4285714285714,4,2,1,65,0,0
98094,-125,4,2,1,65,0,0
98431,-125,4,2,1,70,0,0
98768,-125,4,2,1,45,0,0
99611,-250,4,2,1,45,0,0
99864,-333.333333333333,4,2,1,5,0,0
99948,-100,4,2,1,65,0,0
101043,-333.333333333333,4,2,1,5,0,0
101128,-125,4,2,1,70,0,1
101212,-125,4,2,1,70,0,0
101465,-125,4,2,1,70,0,1
101633,-125,4,2,1,70,0,0
102139,-125,4,2,1,55,0,0
102307,-333.333333333333,4,2,1,55,0,0
102560,-333.333333333333,4,2,1,5,0,0
102645,-83.3333333333333,4,2,1,60,0,0
103150,-125,4,2,1,60,0,0
104161,-250,4,2,1,60,0,0
105004,-125,4,2,1,60,0,0
105257,-333.333333333333,4,2,1,5,0,0
105341,-100,4,2,1,60,0,0
105594,-333.333333333333,4,2,1,5,0,0
105678,-100,4,2,1,60,0,0
105847,-125,4,2,1,60,0,0
108038,-76.9230769230769,4,2,1,65,0,0
108291,-333.333333333333,4,2,1,5,0,0
108375,-125,4,2,1,65,0,0
108543,-66.6666666666667,4,2,1,65,0,0
108796,-333.333333333333,4,2,1,5,0,0
108881,-125,4,2,1,65,0,0
109218,-66.6666666666667,4,2,1,65,0,0
109723,-66.6666666666667,4,2,1,70,0,0
110566,-66.6666666666667,4,2,2,70,0,0
110734,-83.3333333333333,4,2,1,60,0,0
111409,-125,4,2,1,60,0,0
112757,-66.6666666666667,4,2,1,60,0,0
113010,-333.333333333333,4,2,1,5,0,0
113094,-142.857142857143,4,2,1,60,0,0
113431,-100,4,2,1,60,0,0
114105,-125,4,2,1,60,0,0
116128,-100,4,2,1,60,0,0
116802,-125,4,2,1,60,0,0
118740,-333.333333333333,4,2,1,5,0,0
118824,-66.6666666666667,4,2,1,70,0,0
119077,-333.333333333333,4,2,1,5,0,0
119161,-125,4,2,1,70,0,0
119330,-66.6666666666667,4,2,1,70,0,0
119583,-333.333333333333,4,2,1,5,0,0
119667,-125,4,2,1,70,0,0
119836,-125,4,2,1,70,0,0
120004,-58.8235294117647,4,2,1,70,0,0
120847,-125,4,2,1,70,0,0
121521,-333.333333333333,4,2,1,70,0,0
121774,-333.333333333333,4,2,1,5,0,0
121858,-83.3333333333333,4,2,1,70,0,0
122027,-83.3333333333333,4,2,1,65,0,0
123206,-100,4,2,1,65,0,0
124218,-125,4,2,1,65,0,0
124470,-333.333333333333,4,2,1,5,0,0
124555,-125,4,2,1,65,0,0
125397,-83.3333333333333,4,2,1,65,0,0
125903,-100,4,2,1,65,0,0
126240,-166.666666666667,4,2,1,65,0,0
126914,-55.5555555555556,4,2,1,65,0,0
127167,-333.333333333333,4,2,1,5,0,0
127251,-55.5555555555556,4,2,1,65,0,0
127420,-83.3333333333333,4,2,1,65,0,0
127757,-100,4,2,1,65,0,0
128937,-133.333333333333,4,2,1,65,0,0
129611,-66.6666666666667,4,2,1,70,0,0
129864,-333.333333333333,4,2,1,5,0,0
129948,-111.111111111111,4,2,1,70,0,0
130116,-66.6666666666667,4,2,1,70,0,0
130369,-333.333333333333,4,2,1,5,0,0
130454,-125,4,2,1,70,0,0
130791,-66.6666666666667,4,2,1,70,0,0
131296,-100,4,2,1,70,0,0
133572,-100,4,2,2,70,0,0
133656,-55.5555555555556,4,2,1,80,0,1
133909,-55.5555555555556,4,2,1,5,0,1
133993,-100,4,2,1,80,0,1
134161,-83.3333333333333,4,2,1,80,0,1
134836,-100,4,2,1,80,0,1
135004,-71.4285714285714,4,2,1,80,0,1
135257,-55.5555555555556,4,2,1,5,0,1
135341,-71.4285714285714,4,2,1,80,0,1
136268,-55.5555555555556,4,2,1,5,0,1
136352,-71.4285714285714,4,2,1,80,0,1
136605,-55.5555555555556,4,2,1,5,0,1
136690,-71.4285714285714,4,2,1,80,0,1
136858,-83.3333333333333,4,2,1,80,0,1
138543,-100,4,2,1,80,0,1
139049,-58.8235294117647,4,2,1,80,0,1
139302,-55.5555555555556,4,2,1,5,0,1
139386,-125,4,2,1,80,0,1
139555,-58.8235294117647,4,2,1,80,0,1
139807,-55.5555555555556,4,2,1,5,0,1
139892,-58.8235294117647,4,2,1,80,0,1
140060,-125,4,2,1,80,0,1
140229,-66.6666666666667,4,2,1,80,0,1
140734,-100,4,2,1,80,0,1
141746,-66.6666666666667,4,2,1,80,0,1
141999,-55.5555555555556,4,2,1,5,0,1
142083,-66.6666666666667,4,2,1,80,0,1
142251,-83.3333333333333,4,2,1,80,0,1
142757,-100,4,2,1,80,0,1
142925,-66.6666666666667,4,2,1,80,0,1
143178,-55.5555555555556,4,2,1,5,0,1
143263,-66.6666666666667,4,2,1,80,0,1
144442,-333.333333333333,4,2,1,80,0,1
144695,-55.5555555555556,4,2,1,5,0,1
144779,-83.3333333333333,4,2,1,80,0,1
144948,-100,4,2,1,80,0,1
145622,-76.9230769230769,4,2,1,80,0,1
145875,-55.5555555555556,4,2,1,5,0,1
145959,-76.9230769230769,4,2,1,80,0,1
146465,-100,4,2,1,80,0,1
147055,-55.5555555555556,4,2,1,5,0,1
147139,-71.4285714285714,4,2,1,80,0,1
147392,-55.5555555555556,4,2,1,5,0,1
147476,-71.4285714285714,4,2,1,80,0,1
147645,-100,4,2,1,80,0,1
148319,-76.9230769230769,4,2,1,80,0,1
149499,-333.333333333333,4,2,1,80,0,1
149751,-55.5555555555556,4,2,1,5,0,1
149836,-66.6666666666667,4,2,1,80,0,1
150088,-55.5555555555556,4,2,1,5,0,1
150173,-83.3333333333333,4,2,1,80,0,1
151352,-100,4,2,1,80,0,1
152532,-303.030303030303,4,2,1,80,0,1
152785,-55.5555555555556,4,2,1,5,0,1
152869,-58.8235294117647,4,2,1,80,0,1
153122,-55.5555555555556,4,2,1,5,0,1
153206,-58.8235294117647,4,2,1,80,0,1
153881,-100,4,2,1,80,0,1
155229,-100,4,2,1,85,0,1
156577,-333.333333333333,4,2,1,85,0,0
156830,-333.333333333333,4,2,1,5,0,0
156914,-333.333333333333,4,2,1,40,0,0
157420,-333.333333333333,4,2,1,55,0,0
157841,-333.333333333333,4,2,2,55,0,0
157925,-250,4,2,1,55,0,0
159274,-166.666666666667,4,2,1,55,0,0
160116,-166.666666666667,4,2,2,55,0,0
160622,-250.000000000001,4,2,2,55,0,0
161465,-166.666666666667,4,2,2,55,0,0
162307,-166.666666666667,4,2,2,55,0,0
163319,-166.666666666667,4,2,1,55,0,0
165510,-166.666666666667,4,2,2,55,0,0
166015,-166.666666666667,4,2,1,55,0,0
166858,-166.666666666667,4,2,2,55,0,0
167532,-100,4,2,1,65,0,0
167701,-125,4,2,1,65,0,0
168543,-58.8235294117647,4,2,1,70,0,0
168796,-58.8235294117647,4,2,1,5,0,0
168881,-125,4,2,1,70,0,0
169049,-66.6666666666667,4,2,1,70,0,0
169555,-100,4,2,1,70,0,0
169892,-76.9230769230769,4,2,1,70,0,0
170145,-58.8235294117647,4,2,1,5,0,0
170229,-100,4,2,1,70,0,0
170397,-83.3333333333333,4,2,1,70,0,0
170650,-58.8235294117647,4,2,1,5,0,0
170734,-100,4,2,1,70,0,0
171409,-83.3333333333333,4,2,1,70,0,0
171999,-58.8235294117647,4,2,1,5,0,0
172083,-125,4,2,1,70,0,0
172588,-62.5,4,2,1,70,0,0
172841,-58.8235294117647,4,2,1,5,0,0
172925,-125,4,2,1,70,0,0
173094,-62.5,4,2,1,70,0,0
173347,-58.8235294117647,4,2,1,5,0,0
173431,-125,4,2,1,70,0,0
173937,-62.5,4,2,1,70,0,0
174190,-58.8235294117647,4,2,1,5,0,0
174274,-62.5,4,2,1,70,0,0
174442,-100,4,2,1,70,0,0
176633,-58.8235294117647,4,2,1,70,0,0
177139,-76.9230769230769,4,2,1,70,0,0
177392,-58.8235294117647,4,2,1,5,0,0
177476,-100,4,2,1,70,0,0
177982,-58.8235294117647,4,2,1,70,0,0
178234,-58.8235294117647,4,2,1,5,0,0
178319,-100,4,2,1,70,0,0
178656,-100,4,2,2,70,0,0
179161,-100,4,2,1,70,0,0
180088,-100,4,2,2,70,0,0
180257,-100,4,2,1,70,0,0
180594,-100,4,2,2,70,0,0
180931,-133.333333333333,4,2,2,70,0,0
181184,-100,4,2,1,80,0,0
181438,-58.8235294117647,4,2,1,5,0,0
181523,337.078651685393,4,2,1,70,1,0
185905,-83.3333333333333,4,2,1,70,0,0
186073,-83.3333333333333,4,2,1,75,0,0
186916,-58.8235294117647,4,2,1,80,0,1
187169,-58.8235294117647,4,2,1,5,0,1
187253,-100,4,2,1,80,0,1
187421,-58.8235294117647,4,2,1,80,0,1
187674,-58.8235294117647,4,2,1,5,0,1
187758,-58.8235294117647,4,2,1,80,0,1
187927,-100,4,2,1,80,0,1
188095,-52.6315789473684,4,2,1,80,0,1
188517,-58.8235294117647,4,2,1,5,0,1
188601,-83.3333333333333,4,2,1,80,0,1
189275,-100,4,2,1,80,0,1
189444,-71.4285714285714,4,2,1,80,0,1
189865,-58.8235294117647,4,2,1,5,0,1
189949,-71.4285714285714,4,2,1,80,0,1
190287,-100,4,2,1,80,0,1
190792,-62.5,4,2,1,80,0,1
191045,-58.8235294117647,4,2,1,5,0,1
191129,-166.666666666667,4,2,1,80,0,1
191298,-125,4,2,1,80,0,1
191466,-100,4,2,1,80,0,1
191635,-83.3333333333333,4,2,1,80,0,1
192225,-83.3333333333333,4,2,2,80,0,1
192309,-333.333333333333,4,2,1,80,0,1
192562,-58.8235294117647,4,2,1,5,0,1
192646,-100,4,2,1,80,0,1
193489,-76.9230769230769,4,2,1,80,0,1
193742,-58.8235294117647,4,2,1,5,0,1
193826,-76.9230769230769,4,2,1,80,0,1
194331,-100,4,2,1,80,0,1
194921,-58.8235294117647,4,2,1,5,0,1
195006,-76.9230769230769,4,2,1,80,0,1
195258,-58.8235294117647,4,2,1,5,0,1
195343,-76.9230769230769,4,2,1,80,0,1
195511,-125,4,2,1,80,0,1
196185,-83.3333333333333,4,2,1,80,0,1
197365,-333.333333333333,4,2,1,80,0,1
197618,-58.8235294117647,4,2,1,5,0,1
197702,-333.333333333333,4,2,1,80,0,1
199725,-100,4,2,1,80,0,1
200399,-250,4,2,1,80,0,1
200652,-58.8235294117647,4,2,1,5,0,1
200736,-83.3333333333333,4,2,1,80,0,1
201579,-100,4,2,1,80,0,1
201747,-66.6666666666667,4,2,1,80,0,1
202000,-58.8235294117647,4,2,1,5,0,1
202084,-66.6666666666667,4,2,1,80,0,1
203011,-58.8235294117647,4,2,1,5,0,1
203096,-83.3333333333333,4,2,1,80,0,1
203601,-100,4,2,1,80,0,1
204444,-83.3333333333333,4,2,1,80,0,1
204697,-58.8235294117647,4,2,1,5,0,1
204781,-83.3333333333333,4,2,1,80,0,1
204949,-71.4285714285714,4,2,1,80,0,1
205202,-58.8235294117647,4,2,1,5,0,1
205287,-100,4,2,1,80,0,1
205792,-66.6666666666667,4,2,1,80,0,1
205876,-66.6666666666667,4,2,1,5,0,0
206129,-125,4,2,1,80,0,0
206298,-66.6666666666667,4,2,1,80,0,1
206382,-66.6666666666667,4,2,1,5,0,0
206635,-125,4,2,1,80,0,0
206803,-66.6666666666667,4,2,1,80,0,1
206888,-66.6666666666667,4,2,1,5,0,0
207140,-125,4,2,1,80,0,0
207309,-66.6666666666667,4,2,1,80,0,1
207393,-66.6666666666667,4,2,1,5,0,0
207646,-125,4,2,1,80,0,0
207815,-83.3333333333333,4,2,1,80,0,1
207899,-66.6666666666667,4,2,1,80,0,0
208152,-83.3333333333333,4,2,1,80,0,1
208236,-66.6666666666667,4,2,1,80,0,0
208489,-66.6666666666667,4,2,1,85,0,1
208573,-66.6666666666667,4,2,1,85,0,0
208657,-66.6666666666667,4,2,1,85,0,1
208742,-66.6666666666667,4,2,1,85,0,0
208826,-66.6666666666667,4,2,1,85,0,1
208910,-66.6666666666667,4,2,1,85,0,0
209331,-66.6666666666667,4,2,1,55,0,0
209669,-66.6666666666667,4,2,1,80,0,1
209921,-58.8235294117647,4,2,1,5,0,1
210006,-100,4,2,1,80,0,1
210343,-62.5,4,2,1,80,0,1
210596,-58.8235294117647,4,2,1,5,0,1
210680,-62.5,4,2,1,80,0,1
211185,-71.4285714285714,4,2,1,85,0,1
211438,-58.8235294117647,4,2,1,5,0,1
211522,-100,4,2,1,85,0,1
211691,-83.3333333333333,4,2,1,85,0,1
212197,-100,4,2,1,85,0,1
212365,-71.4285714285714,4,2,1,85,0,1
212618,-58.8235294117647,4,2,1,5,0,1
212702,-71.4285714285714,4,2,1,85,0,1
213208,-83.3333333333333,4,2,1,85,0,1
213798,-58.8235294117647,4,2,1,5,0,1
213882,-58.8235294117647,4,2,1,85,0,1
214135,-58.8235294117647,4,2,1,5,0,1
214219,-58.8235294117647,4,2,1,85,0,1
214388,-100,4,2,1,85,0,1
215062,-66.6666666666667,4,2,1,85,0,1
215567,-83.3333333333333,4,2,1,85,0,1
216242,-333.333333333333,4,2,1,85,0,1
216494,-58.8235294117647,4,2,1,5,0,1
216579,-58.8235294117647,4,2,1,85,0,1
216831,-58.8235294117647,4,2,1,5,0,1
216916,-83.3333333333333,4,2,1,85,0,1
219107,-83.3333333333333,4,2,2,85,0,1
219275,-333.333333333333,4,2,1,85,0,1
219528,-58.8235294117647,4,2,1,5,0,1
219612,-55.5555555555556,4,2,1,85,0,1
219865,-58.8235294117647,4,2,1,5,0,1
219949,-55.5555555555556,4,2,1,85,0,1
220287,-83.3333333333333,4,2,1,85,0,1
220624,-166.666666666667,4,2,1,85,0,1
220792,-125,4,2,1,85,0,1
220961,-100,4,2,1,85,0,1
221466,-125,4,2,1,85,0,1
221635,-166.666666666667,4,2,1,85,0,1
221888,-58.8235294117647,4,2,1,5,0,1
221972,-166.666666666667,4,2,1,90,0,1
223320,-166.666666666667,4,2,1,90,0,0
223826,-166.666666666667,4,2,1,50,0,0
225680,-166.666666666667,4,2,1,60,0,0
226017,-333.333333333334,4,2,1,70,0,0
226270,-333.333333333334,4,2,1,5,0,0
226354,-62.5,4,2,1,75,0,0
226607,-333.333333333334,4,2,1,5,0,0
226691,-62.5,4,2,1,65,0,0
227197,-100,4,2,1,65,0,0
228966,-333.333333333334,4,2,1,5,0,0
229051,-76.9230769230769,4,2,1,65,0,0
229303,-333.333333333334,4,2,1,5,0,0
229388,-76.9230769230769,4,2,1,65,0,0
229725,-100,4,2,1,65,0,0
229893,-66.6666666666667,4,2,1,65,0,0
230567,-100,4,2,1,65,0,0
231410,337.078651685393,7,2,1,75,1,0
231410,-100,7,2,1,75,0,1
231494,-100,7,2,1,75,0,0
231915,-58.8235294117647,7,2,1,75,0,1
231999,-58.8235294117647,7,2,1,5,0,0
232252,-58.8235294117647,7,2,1,75,0,0
232589,-58.8235294117647,7,2,1,75,0,1
232674,-58.8235294117647,7,2,1,5,0,0
232926,-58.8235294117647,7,2,1,75,0,0
233090,-125,7,2,1,75,0,0
233769,-125,7,2,1,80,0,1
233853,-58.8235294117647,7,2,1,80,0,0
234275,-58.8235294117647,7,2,1,80,0,1
234359,-58.8235294117647,7,2,1,5,0,0
234612,-58.8235294117647,7,2,1,80,0,0
234949,-50,7,2,1,80,0,1
235033,-58.8235294117647,7,2,1,5,0,0
235286,-100,7,2,1,80,0,0
235454,-100,7,2,1,80,0,1
235539,-58.8235294117647,7,2,1,80,0,0
236129,-100,7,2,1,85,0,1
236213,-100,7,2,1,85,0,0
236634,-58.8235294117647,7,2,1,85,0,1
236718,-58.8235294117647,7,2,1,5,0,0
236971,-100,7,2,1,85,0,0
237308,-76.9230769230769,7,2,1,85,0,1
237393,-58.8235294117647,7,2,1,85,0,0
238488,-58.8235294117647,7,2,1,90,0,1
238572,-58.8235294117647,7,2,1,90,0,0
238657,-58.8235294117647,7,2,1,90,0,1
238699,-58.8235294117647,7,2,1,90,0,0

[Colours]
Combo1 : 255,128,192
Combo2 : 192,192,192

[HitObjects]
468,356,684,6,0,P|436:327|383:316,1,90,2|2,0:0|0:0,0:0:0:0:
391,315,1189,1,2,0:0:0:0:
492,263,1358,1,2,0:0:0:0:
328,189,1552,5,2,0:0:0:0:
328,189,1889,1,2,0:0:0:0:
404,160,2057,2,0,P|384:133|357:114,1,67.5000025749208,2|0,0:0|0:0,0:0:0:0:
495,31,2394,2,0,P|461:57|439:96,1,67.5000025749208,2|0,0:0|0:0,0:0:0:0:
236,166,2731,6,0,B|242:132|214:106|214:106|248:127|281:122,1,135.000005149842,2|0,0:0|0:0,0:0:0:0:
156,167,3237,2,0,P|91:136|21:125,2,135.000005149842,2|2|2,0:0|0:0|0:0,0:0:0:0:
391,5,4248,6,0,P|326:36|256:47,1,135.000005149842,2|2,0:0|0:0,0:0:0:0:
15,59,4754,2,0,L|30:131,1,67.5000025749208,2|0,0:0|0:0,0:0:0:0:
61,272,5091,2,0,L|66:299,2,26.9999991760254,2|2|2,0:0|0:0|0:0,0:0:0:0:
160,350,5596,6,0,B|187:312|241:326|241:326|253:358|296:367,1,135.000005149842,2|0,0:0|0:0,0:0:0:0:
434,257,6102,2,0,P|367:255|312:293,1,135.000005149842,2|2,0:0|0:0,0:0:0:0:
312,293,6608,1,2,0:0:0:0:
252,203,6776,1,2,0:0:0:0:
160,350,6945,5,2,0:0:0:0:
160,350,7282,1,2,0:0:0:0:
80,321,7450,2,0,P|101:287|126:272,1,67.5000025749208,2|0,0:0|0:0,0:0:0:0:
0,171,7787,2,0,P|27:189|43:219,1,67.5000025749208,2|0,0:0|0:0,0:0:0:0:
192,166,8125,2,0,L|119:181,2,67.5000025749208,2|2|0,0:0|0:0|0:0,0:0:0:0:
299,136,8630,6,0,P|278:101|257:81,1,67.5000025749208,2|0,0:0|0:0,0:0:0:0:
415,0,8967,2,0,P|391:24|375:53,1,67.5000025749208,2|0,0:0|0:0,0:0:0:0:
479,192,9304,1,2,0:0:0:0:
479,192,9641,6,0,B|431:178|403:211|403:211|395:244|358:255,1,135.000005149842,2|0,0:0|0:0,0:0:0:0:
371,249,10147,1,2,0:0:0:0:
233,318,10316,6,0,B|231:343|202:373|202:373|286:362|331:258|269:157|144:161|86:247|115:314,1,472.500018024445,2|0,0:0|0:0,0:0:0:0:
112,307,11640,5,10,3:2:0:0:
347,180,11808,1,10,3:2:0:0:
141,118,11977,1,2,0:0:0:0:
142,91,12061,1,2,0:0:0:0:
164,56,12145,1,2,3:2:0:0:
223,45,12229,1,2,3:2:0:0:
274,73,12308,6,0,L|227:291,1,202.500007724762,6|0,3:2|0:0,0:0:0:0:
208,371,12645,2,0,P|259:343|304:338,1,90,8|0,0:0|0:0,0:0:0:0:
42,223,12982,1,2,3:2:0:0:
70,384,13150,1,2,3:2:0:0:
325,252,13319,1,10,0:0:0:0:
112,266,13487,6,0,B|100:287|73:303|73:303|231:270,1,215.999993408203,0|0,3:2|3:2,0:0:0:0:
208,371,13993,1,8,0:0:0:0:
42,223,14161,2,0,L|61:129,1,90,2|0,0:0|3:2,0:0:0:0:
243,0,14499,1,2,3:2:0:0:
263,98,14667,1,10,0:0:0:0:
78,37,14836,1,2,0:0:0:0:
144,201,15004,6,0,B|195:192|194:138|194:138|185:172|166:182,1,135,2|0,3:2|0:0,0:0:0:0:
144,201,15341,2,0,B|194:166|248:209|248:209|257:243|301:247,1,161.999995056153,10|0,0:0|0:0,0:0:0:0:
355,222,15678,1,2,3:2:0:0:
296,372,15847,1,2,3:2:0:0:
471,298,16015,2,0,L|462:258,1,36,10|0,0:0|0:0,0:0:0:0:
373,108,16184,6,0,B|379:61|430:23|498:44|529:113|484:163|484:163|461:170|444:192,1,270.000010299683,6|0,3:2|3:2,0:0:0:0:
263,98,16690,1,8,0:0:0:0:
373,310,16858,2,0,L|349:201,1,90,2|0,0:0|3:2,0:0:0:0:
317,16,17195,1,2,3:2:0:0:
177,239,17364,1,8,0:0:0:0:
191,234,17448,1,0,1:2:0:0:
205,230,17532,1,8,0:3:0:0:
99,128,17701,5,6,3:2:0:0:
45,378,17869,1,2,3:2:0:0:
274,182,18038,1,10,0:0:0:0:
31,282,18206,2,0,L|238:326,1,202.500007724762,6|0,3:2|0:0,0:0:0:0:
306,337,18543,1,2,3:2:0:0:
197,146,18712,1,10,0:0:0:0:
486,71,18881,6,0,B|441:151|357:158|357:158|348:134|327:120,1,202.500007724762,6|0,3:2|0:0,0:0:0:0:
259,97,19218,1,2,3:2:0:0:
368,288,19386,1,10,0:0:0:0:
119,200,19555,2,0,B|63:169|102:80|179:117|179:117|188:146|214:158,1,202.500007724762,6|0,3:2|0:0,0:0:0:0:
274,182,19892,1,0,3:2:0:0:
147,348,20060,1,10,0:0:0:0:
146,331,20145,1,2,0:0:0:0:
160,311,20229,1,2,0:0:0:0:
191,304,20313,1,2,0:0:0:0:
229,324,20397,6,0,L|180:312,1,45,10|0,0:0|0:0,0:0:0:0:
31,282,20566,1,0,3:2:0:0:
274,182,20734,6,0,L|239:218,1,45,10|0,0:0|0:0,0:0:0:0:
77,384,20903,1,0,3:2:0:0:
26,139,21072,6,0,P|49:144|73:164,1,45,8|0,0:0|0:0,0:0:0:0:
241,23,21240,2,0,P|248:46|243:76,1,45,2|0,3:2|0:0,0:0:0:0:
447,152,21409,2,0,P|430:169|401:180,1,45,10|0,0:0|0:0,0:0:0:0:
229,324,21577,6,0,L|180:100,1,202.500007724762,6|0,3:2|0:0,0:0:0:0:
167,54,21914,6,0,L|116:34,1,45,10|0,3:2|0:0,0:0:0:0:
447,152,22083,1,8,3:3:0:0:
447,152,22588,5,0,3:2:0:0:
345,34,22757,1,8,0:0:0:0:
347,25,22841,1,8,0:0:0:0:
350,15,22925,1,8,0:3:0:0:
288,154,23094,6,0,P|235:131|178:126,1,107.999996704102,4|2,3:2|0:0,0:0:0:0:
58,187,23600,2,0,P|82:186|111:163,1,53.9999983520508,2|2,0:0|0:0,0:0:0:0:
174,263,23937,2,0,P|185:241|179:205,1,53.9999983520508,2|0,0:0|0:0,0:0:0:0:
120,37,24274,6,0,P|108:58|114:94,1,53.9999983520508,2|0,3:2|0:0,0:0:0:0:
288,154,24611,2,0,L|347:141,2,53.9999983520508,2|2|2,0:0|0:0|0:0,0:0:0:0:
363,63,25116,1,0,0:0:0:0:
473,138,25285,2,0,L|413:125,2,53.9999983520508,2|2|2,0:0|0:0|3:2,0:0:0:0:
505,265,25791,6,0,P|444:261|406:293,1,107.999996704102,2|2,3:2|0:0,0:0:0:0:
253,350,26296,2,0,L|241:297,1,53.9999983520508,2|0,0:0|0:0,0:0:0:0:
337,369,26633,2,0,L|325:316,1,53.9999983520508,2|0,0:0|0:0,0:0:0:0:
222,202,26970,6,0,P|203:224|165:234,1,53.9999983520508,2|0,3:2|0:0,0:0:0:0:
105,298,27307,2,0,P|133:303|161:331,2,53.9999983520508,2|2|2,0:0|0:0|0:0,0:0:0:0:
93,209,27813,1,0,0:0:0:0:
241,297,27982,1,2,0:0:0:0:
241,297,28150,2,0,P|265:286|282:265,1,53.9999983520508,2|0,0:0|3:2,0:0:0:0:
352,183,28487,6,0,L|378:308,1,107.999996704102,2|2,3:2|0:0,0:0:0:0:
447,187,28993,2,0,P|476:168|500:166,1,53.9999983520508,2|0,0:0|0:0,0:0:0:0:
352,85,29330,2,0,P|381:104|405:106,1,53.9999983520508,2|0,0:0|0:0,0:0:0:0:
265,12,29667,2,0,P|236:31|212:33,1,53.9999983520508,2|0,3:2|0:0,0:0:0:0:
47,15,30004,5,2,0:0:0:0:
124,87,30173,2,0,L|138:21,2,53.9999983520508,2|0|0,0:0|0:0|0:0,0:0:0:0:
23,139,30678,1,2,0:0:0:0:
193,145,30847,1,2,0:0:0:0:
44,242,31015,1,2,3:2:0:0:
134,281,31184,6,0,L|110:170,1,107.999996704102,2|2,3:2|0:0,0:0:0:0:
229,308,31690,2,0,L|215:245,1,53.9999983520508,2|0,3:2|0:0,0:0:0:0:
33,363,32027,2,0,P|50:341|96:328,1,53.9999983520508,2|0,0:0|0:0,0:0:0:0:
293,377,32364,6,0,B|338:404|375:351|369:349|392:293|457:326,1,180,6|0,3:2|3:2,0:0:0:0:
316,287,32869,1,8,0:0:0:0:
471,131,33038,1,0,3:2:0:0:
261,108,33206,1,8,0:0:0:0:
459,214,33375,1,0,3:2:0:0:
217,255,33543,1,8,0:0:0:0:
205,257,33627,1,0,1:2:0:0:
194,259,33712,2,0,L|200:228,1,26.9999991760254,8|0,0:3|0:0,0:0:0:0:
177,86,33881,6,0,B|102:55|61:115|61:115|39:174|-26:160,1,215.999993408203,6|2,3:2|3:2,0:0:0:0:
104,206,34386,2,0,B|133:196|132:159|132:159|120:181|98:192,1,90,2|0,0:0|3:2,0:0:0:0:
21,329,34723,2,0,P|63:303|112:294,1,90,2|0,0:0|3:2,0:0:0:0:
212,347,35060,6,0,L|191:249,1,90,2|0,0:0|3:2,0:0:0:0:
304,160,35397,2,0,L|291:220,2,53.9999983520508,2|2|2,0:0|3:2|0:0,0:0:0:0:
177,86,35903,1,0,3:2:0:0:
335,39,36072,1,2,0:0:0:0:
346,27,36240,1,2,3:2:0:0:
331,22,36409,2,0,L|368:29,1,26.9999991760254,10|0,0:0|0:0,0:0:0:0:
386,156,36577,6,0,P|428:79|512:51,1,180,2|2,3:2|3:2,0:0:0:0:
330,223,37083,2,0,P|309:195|303:159,1,72,2|0,0:0|3:2,0:0:0:0:
359,308,37420,2,0,P|323:312|285:298,1,67.5,2|0,0:0|0:0,0:0:0:0:
359,308,37757,6,0,P|372:324|384:348,1,36,2|0,0:0|3:2,0:0:0:0:
475,244,38094,2,0,P|461:260|449:284,2,36,2|2|2,0:0|3:2|0:0,0:0:0:0:
387,157,38600,1,0,3:2:0:0:
507,125,38768,1,0,0:0:0:0:
475,244,38937,1,2,3:2:0:0:
303,159,39105,2,0,P|288:151|273:149,1,26.9999991760254,8|0,0:0|0:0,0:0:0:0:
161,131,39274,6,0,B|165:72|239:71|239:71|202:92|198:133,1,180,2|2,3:2|3:2,0:0:0:0:
105,219,39779,2,0,P|65:193|21:179,1,90,2|0,0:0|3:2,0:0:0:0:
158,335,40116,2,0,P|198:309|242:295,1,90,2|0,0:0|3:2,0:0:0:0:
387,157,40454,6,0,L|366:254,1,90,2|0,0:0|3:2,0:0:0:0:
303,159,40791,1,2,0:0:0:0:
480,146,40959,2,0,B|483:114|451:106|451:106|467:128|465:155,2,90,2|0|0,3:2|0:0|3:2,0:0:0:0:
463,252,41465,1,2,0:0:0:0:
463,252,41633,1,2,3:2:0:0:
284,249,41802,2,0,L|293:292,1,36,10|0,0:0|0:0,0:0:0:0:
223,383,41970,6,0,L|183:198,1,180,2|2,3:2|3:2,0:0:0:0:
35,305,42476,2,0,P|60:268|113:256,1,90,2|0,0:0|3:2,0:0:0:0:
116,345,42813,1,2,0:0:0:0:
175,132,42982,2,0,P|197:128|218:135,1,45,8|0,0:0|0:0,0:0:0:0:
291,284,43150,6,0,P|374:210|475:195,1,215.999993408203,4|0,3:2|3:2,0:0:0:0:
313,377,43656,1,8,0:0:0:0:
184,207,43824,1,0,3:2:0:0:
441,88,43993,1,8,0:0:0:0:
398,295,44161,1,0,3:2:0:0:
101,254,44331,1,8,0:0:0:0:
92,252,44415,1,0,1:0:0:0:
82,249,44499,1,8,0:3:0:0:
291,284,44667,6,0,B|334:245|311:192|311:192|258:166|264:116,1,180,6|0,3:2|3:2,0:0:0:0:
332,33,45173,1,2,0:0:0:0:
406,130,45341,2,0,P|370:119|329:113,1,67.5000025749208,2|0,3:2|0:0,0:0:0:0:
176,75,45678,2,0,L|184:116,1,33.7500012874604,8|0,0:0|0:0,0:0:0:0:
113,171,45847,5,2,0:0:0:0:
113,171,45931,1,2,0:3:0:0:
113,171,46015,2,0,L|89:59,1,101.250003862381,2|0,3:2|0:0,0:0:0:0:
91,71,46352,1,2,3:2:0:0:
202,291,46690,2,0,B|170:252|112:259|112:259|98:281|78:284,1,135,2|0,3:2|0:0,0:0:0:0:
46,223,47027,1,2,3:2:0:0:
106,355,47195,2,0,P|123:349|137:338,1,36,8|0,0:0|0:0,0:0:0:0:
258,220,47364,6,0,B|319:233|319:233|322:237|322:237|399:254,1,135,0|0,3:2|0:0,0:0:0:0:
466,252,47701,2,0,P|458:216|429:183,1,72,2|0,3:2|0:0,0:0:0:0:
477,112,47954,1,2,0:3:0:0:
477,112,48038,2,0,P|441:100|398:109,1,72,2|0,3:2|0:0,0:0:0:0:
258,220,48375,1,8,3:2:0:0:
322,88,48543,5,2,0:3:0:0:
322,88,48628,1,2,0:3:0:0:
322,88,48712,2,0,L|338:164,1,72,2|0,3:2|0:0,0:0:0:0:
382,20,49049,1,2,3:2:0:0:
240,129,49218,2,0,P|203:106|168:100,1,72,2|2,0:0|3:2,0:0:0:0:
16,163,49555,2,0,L|112:142,1,90,8|2,0:0|3:2,0:0:0:0:
142,29,49892,2,0,P|121:42|100:77,1,45,8|0,0:0|0:0,0:0:0:0:
60,233,50060,6,0,B|29:276|63:320|97:317|98:314|99:310|135:292|181:321|171:375,1,215.999993408203,2|0,3:2|3:2,0:0:0:0:
46,378,50566,1,2,0:0:0:0:
208,259,50734,2,0,P|245:232|293:228,1,90,0|0,3:2|0:0,0:0:0:0:
382,250,51072,2,0,L|373:210,1,36,8|0,3:2|0:0,0:0:0:0:
344,51,51240,1,2,0:0:0:0:
490,160,51409,6,0,L|355:131,1,135,2|0,3:2|0:0,0:0:0:0:
283,109,51746,2,0,L|203:125,1,72,2|0,3:2|0:0,0:0:0:0:
42,42,52083,2,0,B|113:20|149:79|149:79|135:97|137:128,1,161.999995056153,2|0,3:2|0:0,0:0:0:0:
161,186,52420,1,2,3:2:0:0:
49,182,52588,2,0,L|92:172,1,36,8|0,0:0|0:0,0:0:0:0:
244,208,52757,6,0,B|229:244|251:287|251:287|206:258|154:278,1,161.999995056153,4|0,3:2|0:0,0:0:0:0:
99,249,53094,1,2,3:2:0:0:
172,384,53263,1,0,1:2:0:0:
28,350,53431,2,0,L|126:329,1,90,2|0,0:0|3:2,0:0:0:0:
341,384,53768,2,0,L|242:363,1,90,8|0,3:2|0:0,0:0:0:0:
372,280,54105,5,0,3:2:0:0:
469,363,54274,1,0,3:2:0:0:
444,202,54442,1,8,0:0:0:0:
341,384,54611,1,0,3:2:0:0:
512,263,54779,1,10,0:0:0:0:
334,179,54948,1,2,1:2:0:0:
333,123,55032,1,0,1:2:0:0:
358,83,55116,1,8,3:3:0:0:
395,68,55201,1,8,0:3:0:0:
432,68,55285,1,8,0:3:0:0:
458,78,55369,1,8,0:3:0:0:
465,91,55454,6,0,L|254:46,1,202.500007724762,6|0,3:2|0:0,0:0:0:0:
190,27,55791,1,8,0:0:0:0:
39,203,55959,1,2,0:0:0:0:
244,147,56128,1,2,3:2:0:0:
5,77,56296,1,2,3:2:0:0:
217,273,56465,2,0,L|228:218,1,45,10|0,0:0|0:0,0:0:0:0:
190,27,56633,6,0,L|142:250,1,215.999993408203,0|0,3:2|3:2,0:0:0:0:
346,134,57139,2,0,B|342:99|307:89|307:89|328:110|328:137,1,107.999996704102,8|0,0:0|0:0,0:0:0:0:
316,296,57476,1,2,3:2:0:0:
439,203,57645,1,2,3:2:0:0:
349,213,57813,1,10,0:0:0:0:
504,267,57982,1,2,0:0:0:0:
355,368,58150,6,0,B|309:399|267:369|267:369|247:327|195:331,1,161.999995056153,2|0,3:2|0:0,0:0:0:0:
139,346,58487,1,8,0:0:0:0:
32,197,58656,1,2,0:0:0:0:
232,242,58824,1,2,3:2:0:0:
32,351,58993,1,2,3:2:0:0:
135,194,59161,2,0,L|146:248,1,45,10|0,0:0|0:0,0:0:0:0:
316,296,59330,6,0,B|340:198|446:219|446:219|455:254|479:265,1,215.999993408203,0|0,3:2|3:2,0:0:0:0:
214,331,59836,2,0,L|233:240,1,90,8|0,0:0|0:0,0:0:0:0:
274,39,60173,1,2,3:2:0:0:
309,147,60341,1,2,3:2:0:0:
440,43,60510,1,10,0:0:0:0:
197,123,60678,1,2,0:0:0:0:
412,254,60847,6,0,L|377:93,1,161.999995056153,6|0,3:2|0:0,0:0:0:0:
362,21,61184,1,10,0:0:0:0:
464,130,61352,2,0,B|498:127|515:149|515:149|505:121|516:84,1,107.999996704102,2|0,0:0|3:2,0:0:0:0:
195,28,61690,6,0,P|153:9|108:2,1,90,2|8,3:2|0:0,0:0:0:0:
12,176,62027,2,0,P|56:168|97:150,1,90,2|0,3:2|0:0,0:0:0:0:
301,78,62364,1,2,3:2:0:0:
176,209,62532,2,0,P|191:167|196:122,1,90,8|0,0:0|0:0,0:0:0:0:
45,282,62869,2,0,L|39:249,1,33.7500012874604,0|0,3:2|0:0,0:0:0:0:
31,257,63038,2,0,L|39:290,1,33.7500012874604,0|0,3:2|0:0,0:0:0:0:
196,375,63206,1,10,0:0:0:0:
269,192,63375,1,2,0:0:0:0:
118,330,63543,6,0,P|201:285|295:282,1,188.999994232178,6|0,3:2|0:0,0:0:0:0:
350,220,63881,2,0,P|367:231|382:251,1,36,10|0,0:0|0:0,0:0:0:0:
400,365,64049,2,0,B|432:210|432:210|461:205|485:177,1,202.500007724762,6|0,3:2|0:0,0:0:0:0:
422,132,64386,2,0,L|380:123,1,36,2|0,3:2|0:0,0:0:0:0:
300,35,64555,2,0,L|271:66,1,36,10|0,0:0|0:0,0:0:0:0:
96,184,64723,6,0,B|83:154|50:145|50:145|119:116|180:167|180:167|185:207|223:224,1,270.000010299683,4|0,3:2|3:2,0:0:0:0:
168,0,65229,5,8,0:0:0:0:
25,224,65397,1,0,3:2:0:0:
257,154,65566,5,8,0:0:0:0:
4,42,65734,1,0,3:2:0:0:
156,308,65904,5,8,0:0:0:0:
208,297,65987,1,8,0:0:0:0:
260,286,66072,1,8,0:0:0:0:
312,275,66156,1,8,0:0:0:0:
312,275,66746,6,0,P|291:249|264:238,1,53.9999983520508,2|2,0:0|0:0,0:0:0:0:
272,240,67251,1,2,0:0:0:0:
296,231,67336,1,2,0:0:0:0:
300,211,67420,1,2,0:0:0:0:
280,184,67504,1,2,0:0:0:0:
245,183,67588,6,0,L|452:138,1,202.500007724762,6|0,3:2|0:0,0:0:0:0:
453,58,67925,2,0,L|401:69,1,45,10|0,0:0|0:0,0:0:0:0:
199,101,68094,2,0,P|155:73|93:59,1,107.999996704102,2|0,0:0|3:2,0:0:0:0:
6,308,68431,1,2,3:2:0:0:
157,184,68600,1,8,0:0:0:0:
8,144,68768,2,0,L|20:203,1,45,2|0,0:0|0:0,0:0:0:0:
57,372,68937,6,0,B|75:357|81:335|81:335|237:301,1,188.999994232178,0|0,3:2|0:0,0:0:0:0:
297,294,69274,1,10,0:0:0:0:
260,209,69442,1,0,0:0:0:0:
443,139,69611,1,2,3:2:0:0:
426,229,69779,1,0,3:2:0:0:
173,204,69948,2,0,B|168:141|241:122|241:122|291:135|324:90,1,188.999994232178,10|0,0:0|0:0,0:0:0:0:
306,33,70285,6,0,L|347:230,1,188.999994232178,2|0,3:2|0:0,0:0:0:0:
260,209,70622,1,10,0:0:0:0:
451,322,70791,2,0,B|476:316|486:284|486:284|467:303|449:307,1,90,2|0,0:0|3:2,0:0:0:0:
297,294,71128,1,0,3:2:0:0:
443,139,71296,2,0,L|424:45,1,90,8|0,0:0|0:0,0:0:0:0:
425,50,71549,5,2,0:3:0:0:
425,50,71633,1,2,3:3:0:0:
306,33,71802,1,2,0:3:0:0:
232,129,71970,1,8,0:0:0:0:
64,74,72139,2,0,B|69:47|58:21|58:21|77:40|124:46,1,107.999996704102,2|0,0:0|3:2,0:0:0:0:
134,271,72476,2,0,P|117:289|91:294,1,45,2|0,3:2|0:0,0:0:0:0:
29,232,72645,2,0,P|21:208|30:183,1,45,10|0,0:0|0:0,0:0:0:0:
115,160,72813,2,0,P|139:165|156:185,1,45,2|0,0:0|0:0,0:0:0:0:
343,296,72982,6,0,B|363:298|376:315|376:315|466:296|466:296|487:271|471:218|430:229,1,229.500004377365,6|0,3:2|0:0,0:0:0:0:
381,173,73319,2,0,P|364:191|358:217,1,45,10|0,0:0|0:0,0:0:0:0:
254,364,73487,2,0,B|215:373|199:321|220:296|220:296|310:277|310:277|323:294|344:296,1,229.500004377365,2|0,0:0|0:0,0:0:0:0:
431,228,73824,1,2,3:2:0:0:
289,169,73993,2,0,P|296:147|311:131,1,45,8|0,0:0|0:0,0:0:0:0:
508,55,74161,6,0,B|452:108|388:78|388:78|350:19|288:42,1,233.999989288331,2|0,3:2|3:2,0:0:0:0:
84,203,74667,2,0,P|55:167|16:143,1,90,10|0,0:0|0:0,0:0:0:0:
219,27,75004,2,0,P|181:51|153:86,1,90,2|0,3:2|3:2,0:0:0:0:
32,13,75341,2,0,P|53:23|72:41,1,45,10|0,0:0|0:0,0:0:0:0:
208,179,75510,5,2,0:3:0:0:
208,179,75594,1,2,0:3:0:0:
208,179,75678,2,0,B|226:207|214:250|186:266|185:263|184:261|140:259|109:279|117:320,1,188.999994232178,2|0,3:2|0:0,0:0:0:0:
144,384,76015,1,8,0:0:0:0:
84,203,76184,1,2,0:0:0:0:
289,314,76352,2,0,P|341:285|388:285,1,90,2|0,3:2|3:2,0:0:0:0:
469,384,76690,2,0,L|458:334,1,45,8|0,0:0|0:0,0:0:0:0:
424,140,76858,6,0,B|431:166|456:188|456:188|390:161|328:165|328:165|319:190|292:203,1,229.500004377365,6|0,3:2|0:0,0:0:0:0:
202,126,77195,2,0,P|229:133|256:137,1,53.9999983520508,0|0,3:2|0:0,0:0:0:0:
122,166,77364,2,0,P|134:187|152:212,1,45,8|0,0:0|0:0,0:0:0:0:
52,136,77532,2,0,P|47:151|44:171,1,36,0|0,3:2|0:0,0:0:0:0:
22,73,77701,2,0,P|11:79|0:87,1,26.9999991760254,8|0,0:0|0:0,0:0:0:0:
42,10,77869,2,0,P|26:7|12:4,1,18,0|0,3:2|0:0,0:0:0:0:
180,104,78038,5,10,0:0:0:0:
124,131,78122,1,0,1:2:0:0:
74,111,78206,1,8,0:3:0:0:
54,66,78291,1,8,0:3:0:0:
68,22,78375,6,0,B|125:-11|184:39|184:39|208:86|250:83,1,202.500007724762,6|0,3:2|0:0,0:0:0:0:
292,1,78712,2,0,L|247:10,1,36,10|0,0:0|0:0,0:0:0:0:
441,83,78881,2,0,L|344:62,1,90,2|0,0:0|3:2,0:0:0:0:
486,9,79218,1,2,3:2:0:0:
320,185,79386,2,0,L|309:137,1,45,8|0,0:0|0:0,0:0:0:0:
496,262,79555,6,0,B|464:204|398:212|398:212|386:244|354:258,1,161.999995056153,2|0,3:2|0:0,0:0:0:0:
295,264,79892,1,0,3:2:0:0:
418,384,80060,1,10,0:0:0:0:
427,366,80145,1,2,0:0:0:0:
423,340,80229,1,2,0:0:0:0:
395,317,80313,1,2,0:0:0:0:
350,324,80397,2,0,P|303:360|238:368,1,107.999996704102,2|0,3:2|3:2,0:0:0:0:
106,263,80734,2,0,B|154:238|202:260|211:299|211:299|191:311|181:336,1,161.999995056153,8|0,0:0|0:0,0:0:0:0:
94,360,81072,6,0,L|137:156,1,188.999994232178,2|0,3:2|0:0,0:0:0:0:
148,99,81409,1,8,0:0:0:0:
38,214,81577,2,0,L|49:160,1,45,2|0,0:0|0:0,0:0:0:0:
81,1,81746,1,2,3:2:0:0:
209,158,81914,1,0,3:2:0:0:
0,92,82083,2,0,L|47:81,1,45,10|0,0:0|0:0,0:0:0:0:
250,16,82251,6,0,B|339:34|339:34|361:65|361:65|459:85,1,215.999993408203,2|0,3:2|3:2,0:0:0:0:
312,224,82757,2,0,L|287:109,1,107.999996704102,8|0,0:0|0:0,0:0:0:0:
427,169,83094,1,0,3:2:0:0:
234,295,83263,1,0,3:2:0:0:
414,376,83431,6,0,L|404:325,1,40.4999987640381,10|0,0:0|0:0,0:0:0:0:
475,285,83768,6,0,B|516:279|534:324|534:324|508:374|434:381|404:332,1,229.500004377365,6|0,3:2|0:0,0:0:0:0:
312,224,84105,2,0,P|260:204|208:193,1,107.999996704102,8|0,0:0|0:0,0:0:0:0:
6,229,84442,1,2,3:2:0:0:
231,113,84611,1,2,3:2:0:0:
0,50,84779,1,10,0:0:0:0:
42,133,84948,1,2,0:0:0:0:
293,22,85116,5,2,3:2:0:0:
220,266,85285,1,12,0:0:0:0:
94,55,85454,1,14,0:0:0:0:
361,134,85622,1,0,3:2:0:0:
47,229,85791,1,10,0:0:0:0:
168,8,85959,1,0,1:2:0:0:
168,8,86043,1,0,1:2:0:0:
168,8,86128,2,0,L|181:69,1,53.9999983520508,2|0,3:2|0:0,0:0:0:0:
227,273,86296,5,2,1:2:0:0:
227,273,86381,1,0,1:2:0:0:
227,273,86465,2,0,L|240:334,1,53.9999983520508,6|0,3:2|0:0,0:0:0:0:
195,384,86802,6,0,B|163:351|172:309|209:282|210:285|211:289|278:291|303:234|270:189,1,229.500004377365,12|0,0:0|0:0,0:0:0:0:
301,125,87139,2,0,P|270:87|231:71,1,90,0|0,3:2|3:2,0:0:0:0:
357,198,87476,1,8,0:0:0:0:
488,29,87645,6,0,B|413:24|387:87|387:87|398:109|403:140,1,161.999995056153,2|0,0:3|0:0,0:0:0:0:
401,285,87982,2,0,P|420:264|429:240,1,36,2|0,0:3|0:0,0:0:0:0:
259,203,88150,2,0,P|266:229|282:250,1,36,8|0,0:0|0:0,0:0:0:0:
243,322,88319,2,0,P|270:328|295:324,1,36,2|0,0:3|0:0,0:0:0:0:
400,122,88487,2,0,P|372:115|347:119,1,36,2|0,3:3|0:0,0:0:0:0:
306,48,88656,2,0,P|286:68|277:92,1,36,2|0,3:3|0:0,0:0:0:0:
512,240,88824,6,0,P|504:213|488:192,1,54,10|0,0:0|0:0,0:0:0:0:
400,122,89161,5,10,3:2:0:0:
88,339,89330,1,10,3:2:0:0:
423,257,89499,1,10,3:2:0:0:
120,65,89667,1,10,3:2:0:0:
231,375,89836,1,10,3:2:0:0:
379,9,90004,1,10,3:2:0:0:
36,197,90173,1,10,3:2:0:0:
400,122,90341,2,0,L|387:180,1,45,10|0,3:2|0:0,0:0:0:0:
231,375,90510,6,0,L|222:334,1,33.75,10|0,3:2|0:0,0:0:0:0:
292,298,90847,6,0,L|296:320,2,22.5,2|2|2,0:0|0:0|0:0,0:0:0:0:
292,298,91352,1,0,3:2:0:0:
91,331,91521,5,10,0:0:0:0:
87,276,91605,1,10,0:0:0:0:
122,234,91689,1,10,0:0:0:0:
176,228,91773,1,10,0:0:0:0:
220,262,91858,6,0,P|236:242|247:233,1,40.4999987640381,6|0,3:2|0:0,0:0:0:0:
390,165,92195,6,0,L|165:117,1,229.500004377365,6|0,3:2|0:0,0:0:0:0:
89,98,92532,1,2,3:2:0:0:
280,25,92701,1,2,3:2:0:0:
247,232,92869,1,10,0:0:0:0:
10,93,93038,6,0,B|25:34|-9:-6|-9:-6|31:29|96:17,1,215.999993408203,2|0,3:2|3:2,0:0:0:0:
40,233,93543,1,8,0:0:0:0:
253,98,93712,2,0,L|163:116,1,90,2|0,0:0|3:2,0:0:0:0:
313,167,94049,1,2,3:2:0:0:
280,25,94218,1,10,0:0:0:0:
477,72,94386,1,2,0:0:0:0:
311,267,94555,6,0,B|265:267|251:221|251:221|275:247|307:249,1,135,2|0,3:2|0:0,0:0:0:0:
311,267,94892,2,0,B|253:254|222:295|222:295|208:331|175:340,1,161.999995056153,10|0,0:0|0:0,0:0:0:0:
101,335,95229,1,2,3:2:0:0:
290,353,95397,1,2,3:2:0:0:
138,224,95566,2,0,L|148:271,1,45,10|0,0:0|0:0,0:0:0:0:
11,164,95734,6,0,B|34:66|157:72|157:72|176:100|213:111,1,251.999992309571,6|0,3:2|3:2,0:0:0:0:
138,224,96240,1,8,0:0:0:0:
300,57,96409,2,0,B|278:28|281:-3|281:-3|266:25|233:33,1,125.999996154785,2|0,0:0|3:2,0:0:0:0:
311,267,96746,1,2,3:2:0:0:
488,111,96914,1,8,0:0:0:0:
484,98,96999,1,8,0:0:0:0:
480,85,97083,1,8,0:3:0:0:
235,200,97251,5,6,3:2:0:0:
512,215,97420,1,2,3:2:0:0:
300,57,97588,1,10,0:0:0:0:
426,339,97757,2,0,B|383:141|383:141|355:139|334:124,1,251.999992309571,6|0,3:2|3:2,0:0:0:0:
416,56,98178,1,2,0:3:0:0:
416,56,98263,2,0,L|371:65,1,36,0|0,3:2|0:0,0:0:0:0:
109,135,98431,5,6,3:2:0:0:
109,135,98768,5,2,0:0:0:0:
17,72,98937,1,2,0:0:0:0:
114,31,99105,1,2,0:0:0:0:
191,88,99274,1,2,0:0:0:0:
187,168,99442,2,0,P|169:181|157:200,1,36,0|0,3:2|0:0,0:0:0:0:
120,282,99611,6,0,P|108:259|81:244,1,54,8|0,0:2|0:0,0:0:0:0:
120,282,99948,6,0,B|206:311|275:265|273:178|265:183|237:115|352:13|476:59|515:172|465:250|394:289|343:273|322:215,1,585,6|0,3:2|0:0,0:0:0:0:
187,168,101128,2,0,P|169:181|157:200,1,36,10|0,3:2|0:0,0:0:0:0:
369,374,101465,6,0,L|360:331,1,36,10|0,3:2|0:0,0:0:0:0:
308,48,101634,1,10,3:2:0:0:
308,48,102139,5,0,3:2:0:0:
311,64,102223,1,0,3:2:0:0:
322,75,102307,2,0,P|340:94|354:98,1,40.4999987640381,8|0,0:0|0:0,0:0:0:0:
437,115,102645,6,0,B|409:84|355:96|336:141|339:142|343:142|336:192|288:212|247:175,1,215.999993408203,6|10,3:2|0:0,0:0:0:0:
35,87,103150,2,0,P|65:63|85:19,1,72,2|0,0:0|3:2,0:0:0:0:
185,182,103487,2,0,P|155:158|135:114,1,72,2|8,3:2|0:0,0:0:0:0:
58,302,103824,6,0,P|93:288|141:292,1,72,2|0,0:2|3:2,0:0:0:0:
247,332,104161,2,0,L|237:285,2,36,2|10|2,0:0|0:0|0:0,0:0:0:0:
432,302,104667,1,0,3:2:0:0:
285,205,104836,1,0,3:2:0:0:
327,365,105004,2,0,L|351:248,1,108,10|0,0:0|0:0,0:0:0:0:
367,183,105341,6,0,B|390:132|437:147|437:147|408:153|392:181,1,135,2|0,3:2|0:0,0:0:0:0:
454,221,105678,1,10,0:0:0:0:
308,124,105847,2,0,P|271:107|234:99,1,72,2|0,0:0|3:2,0:0:0:0:
431,37,106184,2,0,P|392:51|360:71,1,72,2|8,3:2|0:0,0:0:0:0:
217,189,106521,6,0,P|185:163|151:145,1,72,2|0,0:0|3:2,0:0:0:0:
0,109,106858,1,2,0:0:0:0:
206,25,107027,2,0,P|138:43|76:88,1,144,10|0,0:0|3:2,0:0:0:0:
308,124,107532,1,2,3:2:0:0:
431,37,107701,1,10,0:0:0:0:
293,6,107869,1,2,0:0:0:0:
471,204,108038,6,0,B|497:78|497:78|479:105|452:118,1,175.499991966248,6|0,3:2|0:0,0:0:0:0:
385,106,108375,2,0,L|394:151,1,36,10|0,0:0|0:0,0:0:0:0:
247,358,108543,2,0,B|214:348|190:293|239:244|299:272|299:272|302:300|314:315,1,202.500007724762,6|0,3:2|0:0,0:0:0:0:
413,268,108881,2,0,L|375:275,1,36,2|0,3:2|0:0,0:0:0:0:
134,327,109049,1,8,0:0:0:0:
399,384,109218,6,0,L|132:327,1,270.000010299683,6|0,3:2|3:2,0:0:0:0:
31,166,109723,1,8,0:0:0:0:
315,223,109892,1,0,3:2:0:0:
247,12,110060,1,10,0:0:0:0:
71,72,110229,1,0,3:2:0:0:
224,238,110397,1,10,0:0:0:0:
229,224,110482,1,8,0:0:0:0:
234,210,110566,1,8,0:3:0:0:
96,333,110734,6,0,B|45:317|17:249|105:199|146:254|146:254|148:276|170:288,1,215.999993408203,6|0,3:2|3:2,0:0:0:0:
151,270,111240,1,2,3:2:0:0:
318,365,111409,2,0,B|291:307|230:311|230:311|223:332|198:344,1,144,10|0,0:0|0:0,0:0:0:0:
406,384,111914,5,2,3:2:0:0:
512,310,112083,1,2,0:0:0:0:
331,253,112251,2,0,P|359:274|381:304,2,72,8|2|0,0:0|3:2|3:2,0:0:0:0:
506,151,112757,2,0,B|425:147|395:217|443:261|481:235|485:199|445:170,1,202.500007724762,10|0,0:0|0:0,0:0:0:0:
360,114,113094,2,0,P|331:100|296:94,1,62.9999980773926,10|0,0:0|0:0,0:0:0:0:
118,75,113431,6,0,B|163:102|221:69|221:69|234:23|291:17,1,180,6|2,3:2|0:0,0:0:0:0:
161,0,113937,1,0,3:2:0:0:
63,152,114105,2,0,P|36:87|-12:22,1,144,8|2,0:0|0:0,0:0:0:0:
189,245,114611,1,0,3:2:0:0:
162,171,114779,6,0,P|128:194|112:222,1,72,2|8,0:0|0:0,0:0:0:0:
48,384,115116,1,2,3:2:0:0:
9,295,115285,1,2,3:2:0:0:
178,329,115454,2,0,L|99:313,1,72,10|0,0:0|0:0,0:0:0:0:
297,231,115791,2,0,L|375:215,1,72,10|0,0:0|0:0,0:0:0:0:
349,384,116128,6,0,B|365:322|445:312|445:312|468:344|511:345,1,180,6|0,3:2|3:2,0:0:0:0:
349,384,116633,1,2,3:2:0:0:
512,259,116802,2,0,L|477:96,1,144,10|0,0:0|0:0,0:0:0:0:
359,0,117307,5,2,3:2:0:0:
338,92,117476,1,2,0:0:0:0:
498,36,117645,2,0,L|424:51,2,72,8|2|0,0:0|3:2|3:2,0:0:0:0:
312,190,118150,2,0,P|275:171|254:137,1,72,10|0,0:0|0:0,0:0:0:0:
83,0,118487,2,0,P|63:61|20:99,1,108,10|0,0:0|0:0,0:0:0:0:
6,178,118824,6,0,B|56:173|91:224|91:224|79:163|124:116,1,202.500007724762,6|0,3:2|0:0,0:0:0:0:
182,160,119161,2,0,P|170:178|166:205,1,36,8|0,0:0|0:0,0:0:0:0:
96,340,119330,2,0,B|95:318|60:298|60:298|158:324|158:324|160:354|178:370,1,202.500007724762,4|0,3:2|0:0,0:0:0:0:
270,311,119667,2,0,L|230:319,1,36,0|0,3:2|0:0,0:0:0:0:
28,367,119836,1,8,0:0:0:0:
348,292,120004,6,0,B|355:321|345:348|345:348|380:250|449:187|510:297|477:335|424:332,1,306.000005836487,4|0,3:2|3:2,0:0:0:0:
270,311,120510,1,8,0:0:0:0:
472,108,120678,1,0,3:2:0:0:
182,160,120847,2,0,L|234:171,1,36,10|0,0:0|0:0,0:0:0:0:
443,330,121015,1,2,1:2:0:0:
481,287,121100,1,0,1:2:0:0:
476,235,121184,1,2,3:2:0:0:
442,196,121268,1,0,1:2:0:0:
398,189,121352,1,10,0:0:0:0:
366,202,121437,1,8,0:0:0:0:
349,222,121521,6,0,L|358:266,1,40.4999987640381,6|0,3:2|0:0,0:0:0:0:
270,311,121858,6,0,L|257:254,1,53.9999983520508,12|0,0:0|0:0,0:0:0:0:
209,22,122027,1,2,0:0:0:0:
369,101,122195,1,2,3:2:0:0:
129,232,122364,1,2,3:2:0:0:
298,10,122532,1,10,0:0:0:0:
270,168,122701,6,0,B|218:105|125:123|125:123|109:159|72:176,1,215.999993408203,2|0,3:2|3:2,0:0:0:0:
27,11,123206,2,0,L|50:119,1,90,8|0,0:0|0:0,0:0:0:0:
137,372,123543,1,2,3:2:0:0:
4,305,123712,1,2,3:2:0:0:
142,222,123881,1,10,0:0:0:0:
93,302,124049,1,2,0:0:0:0:
142,222,124218,6,0,B|138:184|99:177|99:177|125:198|124:224,1,108,6|0,3:2|0:0,0:0:0:0:
187,298,124555,2,0,L|231:288,1,36,12|0,0:0|0:0,0:0:0:0:
471,256,124723,1,2,0:0:0:0:
257,173,124892,1,2,3:2:0:0:
358,384,125060,1,2,3:2:0:0:
512,177,125229,2,0,L|467:167,1,36,10|0,0:0|0:0,0:0:0:0:
336,66,125397,6,0,B|325:87|300:102|300:102|483:63,1,215.999993408203,2|0,3:2|3:2,0:0:0:0:
262,29,125903,2,0,P|227:1|179:1,1,90,8|0,0:0|0:0,0:0:0:0:
102,230,126241,2,0,L|96:203,1,26.9999991760254,2|0,3:2|0:0,0:0:0:0:
75,122,126409,2,0,L|69:95,1,26.9999991760254,2|0,3:2|0:0,0:0:0:0:
165,135,126577,2,0,L|170:161,1,26.9999991760254,10|0,0:0|0:0,0:0:0:0:
8,200,126746,2,0,L|2:173,1,26.9999991760254,2|0,3:2|0:0,0:0:0:0:
109,39,126914,6,0,L|57:280,1,242.999992584229,6|0,3:2|0:0,0:0:0:0:
40,358,127251,1,10,0:0:0:0:
197,348,127420,2,0,B|176:302|130:308|130:308|117:329|96:341,1,107.999996704102,2|0,0:0|3:2,0:0:0:0:
276,384,127757,6,0,P|319:361|365:346,1,90,2|8,3:2|0:0,0:0:0:0:
512,291,128094,2,0,P|469:276|430:254,1,90,2|0,3:2|0:0,0:0:0:0:
465,373,128431,1,0,3:2:0:0:
322,246,128600,2,0,L|343:145,1,90,8|0,0:0|0:0,0:0:0:0:
483,29,128937,2,0,L|489:62,1,33.7500012874604,0|0,3:2|0:0,0:0:0:0:
483,70,129105,2,0,L|475:37,1,33.7500012874604,0|0,3:2|0:0,0:0:0:0:
297,0,129274,1,10,0:0:0:0:
498,167,129442,1,2,0:0:0:0:
259,150,129611,6,0,B|279:65|383:81|383:81|393:109|419:127,1,202.500007724762,6|0,3:2|0:0,0:0:0:0:
368,184,129948,2,0,P|351:173|340:157,1,40.4999987640381,10|0,0:0|0:0,0:0:0:0:
216,41,130116,2,0,B|148:12|106:64|106:64|85:114|40:113,1,202.500007724762,6|0,3:2|0:0,0:0:0:0:
0,25,130454,2,0,P|21:31|41:50,1,36,2|0,3:2|0:0,0:0:0:0:
170,111,130622,2,0,P|175:132|168:159,1,36,2|0,0:0|0:0,0:0:0:0:
63,317,130791,6,0,B|36:323|6:304|2:267|2:267|46:210|121:236|147:282|142:327,1,270.000010299683,6|0,3:2|3:2,0:0:0:0:
326,384,131296,2,0,L|349:272,1,90,8|2,0:0|0:0,0:0:0:0:
382,105,131633,1,0,3:2:0:0:
236,254,131802,1,0,3:2:0:0:
458,206,131970,1,8,0:0:0:0:
300,43,132139,5,0,1:2:0:0:
291,34,132223,1,0,1:2:0:0:
281,24,132307,2,0,L|228:34,1,45,4|0,3:2|0:0,0:0:0:0:
74,114,132476,2,0,L|38:73,1,45,0|0,1:2|0:0,0:0:0:0:
261,176,132645,5,0,3:2:0:0:
263,219,132729,1,0,1:2:0:0:
236,254,132813,1,2,1:2:0:0:
192,261,132897,1,0,1:2:0:0:
155,238,132982,2,0,P|175:251|188:276,1,45,0|0,3:2|0:0,0:0:0:0:
395,381,133150,1,2,1:2:0:0:
453,384,133234,1,0,1:2:0:0:
495,344,133318,1,0,3:2:0:0:
494,286,133402,1,8,0:3:0:0:
451,247,133487,1,8,0:3:0:0:
393,252,133571,1,8,0:3:0:0:
357,299,133656,6,0,B|439:280|462:187|386:109|311:202|341:231,1,242.999992584229,6|0,3:2|0:0,0:0:0:0:
281,338,133993,2,0,P|289:358|311:377,1,45,14|0,0:0|0:0,0:0:0:0:
461,120,134161,2,0,P|413:97|360:92,1,107.999996704102,2|0,0:2|3:0,0:0:0:0:
79,311,134499,2,0,P|124:281|154:237,1,107.999996704102,2|8,3:2|0:2,0:0:0:0:
58,17,134836,2,0,L|68:67,1,45,2|0,0:0|0:0,0:0:0:0:
262,144,135004,6,0,B|226:75|142:91|142:91|127:121|94:138,1,188.999994232178,0|0,3:2|0:0,0:0:0:0:
32,139,135341,1,10,0:0:0:0:
140,15,135510,1,0,0:0:0:0:
81,204,135678,1,2,3:2:0:0:
183,174,135847,1,0,3:2:0:0:
43,289,136015,2,0,B|110:259|155:320|155:320|150:358|177:382,1,188.999994232178,8|0,0:0|0:0,0:0:0:0:
238,324,136352,6,0,P|306:292|422:270,1,188.999994232178,2|0,3:2|0:0,0:0:0:0:
498,277,136690,1,10,0:0:0:0:
336,157,136858,2,0,B|302:142|315:103|315:103|322:126|341:137,1,107.999996704102,2|0,0:0|3:2,0:0:0:0:
257,225,137195,1,0,3:2:0:0:
388,78,137364,2,0,L|501:102,1,107.999996704102,8|0,0:0|0:0,0:0:0:0:
493,100,137616,5,2,0:3:0:0:
493,100,137701,1,2,3:3:0:0:
420,188,137869,1,2,0:3:0:0:
326,8,138038,1,8,0:0:0:0:
257,225,138206,2,0,B|229:225|205:245|205:245|210:215|194:190,1,107.999996704102,2|0,0:0|3:2,0:0:0:0:
59,148,138543,2,0,P|84:144|108:127,1,45,2|0,3:2|0:0,0:0:0:0:
139,42,138712,2,0,P|125:24|106:12,1,45,10|0,0:0|0:0,0:0:0:0:
8,25,138881,2,0,P|0:45|0:68,1,45,2|0,0:0|0:0,0:0:0:0:
198,117,139049,6,0,B|375:79|375:79|386:109|421:124,1,229.500004377365,6|0,3:2|0:0,0:0:0:0:
371,188,139386,2,0,P|356:178|345:165,1,36,10|0,0:0|0:0,0:0:0:0:
500,26,139555,2,0,L|447:266,1,229.500004377365,2|0,0:0|0:0,0:0:0:0:
434,325,139892,1,2,3:2:0:0:
313,296,140060,2,0,P|328:287|346:284,1,36,8|0,0:0|0:0,0:0:0:0:
131,361,140229,6,0,B|76:292|156:208|241:262|241:262|226:289|235:336,1,270.000010299683,2|0,3:2|3:2,0:0:0:0:
52,232,140734,2,0,P|32:191|-1:155,1,90,10|0,0:0|0:0,0:0:0:0:
217,23,141072,2,0,P|187:56|167:96,1,90,2|0,3:2|3:2,0:0:0:0:
22,26,141409,2,0,P|43:42|64:64,1,45,10|0,0:0|0:0,0:0:0:0:
217,177,141577,5,2,0:0:0:0:
217,177,141661,1,2,0:0:0:0:
217,177,141746,2,0,B|264:213|326:187|326:187|342:142|396:137,1,202.500007724762,2|0,3:2|0:0,0:0:0:0:
463,166,142083,1,10,0:0:0:0:
275,117,142251,2,0,B|240:101|245:58|245:58|258:83|276:91,1,107.999996704102,2|0,0:0|3:2,0:0:0:0:
401,216,142588,1,0,3:2:0:0:
466,22,142757,2,0,L|408:34,1,45,8|0,0:0|0:0,0:0:0:0:
166,96,142925,6,0,B|113:86|108:32|108:32|49:-17|2:29,1,202.500007724762,4|0,3:2|0:0,0:0:0:0:
41,91,143263,1,0,3:2:0:0:
333,28,143431,1,8,0:0:0:0:
86,279,143600,1,0,3:2:0:0:
184,22,143768,1,8,0:0:0:0:
279,283,143937,1,0,3:2:0:0:
27,204,144105,5,10,0:0:0:0:
76,193,144189,1,8,0:0:0:0:
126,182,144273,1,10,0:0:0:0:
175,172,144357,1,8,0:0:0:0:
225,161,144442,6,0,L|215:206,1,40.4999987640381,6|0,3:2|0:0,0:0:0:0:
279,283,144779,6,0,L|290:227,1,53.9999983520508,12|0,0:0|0:0,0:0:0:0:
333,28,144948,2,0,P|390:4|439:4,1,90,2|0,0:0|3:2,0:0:0:0:
184,22,145285,1,2,3:2:0:0:
369,172,145454,2,0,L|358:123,1,45,8|0,0:0|0:0,0:0:0:0:
491,30,145622,6,0,L|451:204,1,175.499991966248,2|0,3:2|0:0,0:0:0:0:
436,278,145959,1,0,3:2:0:0:
249,334,146128,1,10,0:0:0:0:
253,304,146212,1,2,0:0:0:0:
279,283,146296,1,2,0:0:0:0:
325,286,146381,1,2,0:0:0:0:
344,333,146465,2,0,P|297:316|278:276,1,90,2|0,3:2|3:2,0:0:0:0:
119,171,146802,2,0,B|80:160|55:132|55:132|80:160|75:199,1,135,10|0,0:0|0:0,0:0:0:0:
3,184,147139,6,0,L|195:143,1,188.999994232178,2|0,3:2|0:0,0:0:0:0:
264,129,147476,1,8,0:0:0:0:
120,79,147645,2,0,L|191:63,1,45,2|0,0:0|0:0,0:0:0:0:
413,32,147813,1,2,3:2:0:0:
238,206,147982,1,0,3:2:0:0:
234,6,148150,2,0,L|246:62,1,45,10|0,0:0|0:0,0:0:0:0:
404,240,148319,6,0,B|446:222|470:158|399:107|343:144|343:144|338:176|308:197,1,233.999989288331,6|0,3:2|3:2,0:0:0:0:
385,384,148824,2,0,P|431:347|499:328,1,116.999994644165,8|0,0:0|0:0,0:0:0:0:
238,206,149161,1,0,3:2:0:0:
156,384,149330,1,0,3:2:0:0:
350,308,149499,6,0,L|309:299,1,40.4999987640381,10|0,0:0|0:0,0:0:0:0:
238,206,149836,6,0,B|207:176|164:181|145:222|148:223|151:224|131:264|87:278|60:250,1,202.500007724762,6|0,3:2|0:0,0:0:0:0:
14,195,150173,2,0,B|35:168|70:181|70:181|38:181|21:197,1,107.999996704102,8|0,0:0|0:0,0:0:0:0:
18,345,150510,1,2,3:2:0:0:
135,127,150678,1,2,3:2:0:0:
238,359,150847,1,10,0:0:0:0:
67,256,151015,1,2,0:0:0:0:
401,162,151184,5,2,3:2:0:0:
194,21,151352,2,0,L|205:75,1,45,12|0,0:0|0:0,0:0:0:0:
299,142,151521,2,0,L|287:87,1,45,14|0,0:0|0:0,0:0:0:0:
135,127,151690,1,0,3:2:0:0:
411,269,151858,1,10,0:0:0:0:
481,52,152027,1,0,3:2:0:0:
481,52,152111,1,0,3:2:0:0:
481,52,152195,2,0,L|425:62,1,45,2|0,3:2|0:0,0:0:0:0:
213,200,152364,5,2,1:2:0:0:
213,200,152448,1,0,1:2:0:0:
213,200,152532,2,0,L|157:210,1,44.5499998640442,6|0,3:2|0:0,0:0:0:0:
33,221,152869,6,0,B|74:130|184:161|184:161|192:192|224:206,1,229.500004377365,12|0,0:0|0:0,0:0:0:0:
261,135,153206,1,0,3:2:0:0:
164,340,153375,1,0,3:2:0:0:
411,269,153543,1,8,0:0:0:0:
212,199,153712,1,2,0:0:0:0:
312,303,153881,6,0,L|288:191,1,90,2|0,3:2|0:0,0:0:0:0:
447,56,154218,2,0,L|423:167,1,90,10|0,0:0|0:0,0:0:0:0:
477,324,154555,2,0,P|443:282|378:269,1,90,2|0,3:2|3:2,0:0:0:0:
164,340,154892,1,10,0:0:0:0:
261,135,155060,1,2,0:0:0:0:
31,184,155229,5,10,3:2:0:0:
312,303,155397,1,10,3:2:0:0:
289,35,155566,1,10,3:2:0:0:
38,307,155734,1,10,3:2:0:0:
407,174,155903,1,10,3:2:0:0:
112,13,156072,1,10,3:2:0:0:
196,376,156240,1,10,3:2:0:0:
400,87,156409,2,0,L|330:100,1,45,10|0,3:2|0:0,0:0:0:0:
31,184,156577,6,0,L|79:194,1,40.4999987640381,10|0,3:2|0:0,0:0:0:0:
124,125,156914,6,0,L|96:119,2,26.9999991760254,2|2|2,0:0|0:0|0:0,0:0:0:0:
124,125,157420,1,0,3:2:0:0:
289,35,157588,1,8,0:0:0:0:
267,16,157673,1,0,1:2:0:0:
226,19,157757,1,8,0:3:0:0:
203,48,157841,1,8,0:3:0:0:
209,83,157925,6,0,L|191:1,3,72,4|0|0|0,3:2|3:2|3:2|3:2,0:0:0:0:
312,201,159274,5,0,3:2:0:0:
368,141,159442,2,0,P|346:121|320:117,2,53.9999983520508,0|0|0,0:0|3:2|0:0,0:0:0:0:
246,141,159948,1,0,3:2:0:0:
389,220,160116,2,0,P|417:207|437:184,1,53.9999983520508,2|0,0:3|3:2,0:0:0:0:
312,201,160454,1,2,0:3:0:0:
365,350,160622,6,0,P|411:316|432:310,2,72,0|0|0,3:2|3:2|3:2,0:0:0:0:
234,384,161465,2,0,P|205:364|180:355,1,53.9999983520508,2|0,0:3|3:2,0:0:0:0:
292,319,161802,2,0,P|263:299|238:290,1,53.9999983520508,2|0,0:3|3:2,0:0:0:0:
111,204,162139,5,0,0:0:0:0:
126,286,162307,2,0,P|175:254|195:200,1,107.999996704102,0|0,3:2|3:2,0:0:0:0:
85,114,162813,2,0,L|138:102,1,53.9999983520508,2|0,0:3|3:2,0:0:0:0:
17,61,163150,1,2,0:3:0:0:
214,129,163319,5,4,3:2:0:0:
258,67,163487,1,2,0:3:0:0:
227,0,163656,1,2,3:3:0:0:
258,67,163824,1,2,0:3:0:0:
332,75,163993,2,0,P|371:47|437:36,1,107.999996704102,2|0,3:3|3:2,0:0:0:0:
415,189,164499,5,2,0:3:0:0:
415,189,164583,1,2,0:3:0:0:
415,189,164667,2,0,L|403:136,1,53.9999983520508,2|0,3:3|0:0,0:0:0:0:
512,31,165004,2,0,L|486:150,1,107.999996704102,2|0,3:3|3:2,0:0:0:0:
407,281,165510,2,0,L|463:268,1,53.9999983520508,2|0,0:3|3:2,0:0:0:0:
331,233,165847,1,2,0:3:0:0:
360,380,166015,6,0,L|475:355,1,107.999996704102,2|0,3:3|3:2,0:0:0:0:
271,328,166521,2,0,P|244:306|223:303,1,53.9999983520508,2|0,0:3|3:2,0:0:0:0:
44,337,166858,2,0,P|37:310|31:278,1,53.9999983520508,2|0,0:3|3:2,0:0:0:0:
131,359,167195,2,0,P|124:332|118:300,1,53.9999983520508,2|0,0:3|3:2,0:0:0:0:
19,172,167532,6,0,L|64:181,1,45,8|0,0:0|0:0,0:0:0:0:
134,109,167701,2,0,L|45:90,1,72,8|0,0:0|3:2,0:0:0:0:
256,192,168038,1,0,1:2:0:0:
299,177,168122,1,0,3:2:0:0:
323,149,168206,1,0,3:2:0:0:
326,120,168291,1,0,3:2:0:0:
318,98,168375,2,0,P|329:112|347:124,1,36,8|0,0:0|0:0,0:0:0:0:
444,36,168543,6,0,L|213:85,1,229.500004377365,6|0,3:2|0:0,0:0:0:0:
123,19,168881,2,0,L|160:26,1,36,0|0,3:2|0:0,0:0:0:0:
468,245,169049,2,0,B|532:231|546:159|500:103|426:126|426:126|425:154|408:178,1,270.000010299683,12|0,0:0|3:2,0:0:0:0:
228,284,169555,2,0,L|296:269,1,45,2|0,3:2|0:0,0:0:0:0:
377,255,169723,1,8,0:0:0:0:
262,362,169892,6,0,B|207:385|161:342|161:342|148:292|98:294,1,175.499991966248,2|0,3:2|0:0,0:0:0:0:
42,382,170229,2,0,P|68:374|89:355,1,45,2|0,3:2|0:0,0:0:0:0:
0,147,170397,2,0,L|34:311,1,161.999995056153,10|0,0:0|0:0,0:0:0:0:
104,223,170734,2,0,L|93:173,1,45,2|0,3:2|0:0,0:0:0:0:
62,23,170903,2,0,B|48:-1|19:-2|19:-2|41:14|43:31,1,90,2|8,3:2|0:0,0:0:0:0:
192,163,171240,2,0,P|210:148|234:140,1,45,2|0,3:2|0:0,0:0:0:0:
371,107,171409,6,0,P|316:86|285:39,1,107.999996704102,0|0,0:0|3:2,0:0:0:0:
484,13,171746,2,0,L|448:181,1,161.999995056153,10|0,0:0|0:0,0:0:0:0:
372,229,172083,2,0,L|363:187,1,36,2|0,3:2|0:0,0:0:0:0:
481,270,172251,2,0,L|473:305,1,36,2|0,3:2|0:0,0:0:0:0:
336,365,172420,2,0,L|328:329,1,36,8|0,0:0|0:0,0:0:0:0:
230,140,172588,6,0,B|209:128|199:109|199:109|107:148|107:148|100:200|54:210,1,216,2|0,0:0|0:0,0:0:0:0:
0,129,172925,2,0,P|17:132|42:148,1,36,2|0,3:2|0:0,0:0:0:0:
74,353,173094,2,0,B|13:368|-36:313|9:248|9:248|26:275|72:281,1,216,10|0,0:0|0:0,0:0:0:0:
122,264,173431,2,0,L|164:272,1,36,0|0,3:2|0:0,0:0:0:0:
201,352,173600,2,0,L|229:320,1,36,0|0,3:2|0:0,0:0:0:0:
328,329,173768,2,0,L|314:288,1,36,8|0,0:0|0:0,0:0:0:0:
270,71,173937,6,0,B|299:-5|389:34|394:32|394:32|403:79|449:95,1,216,6|0,3:2|0:0,0:0:0:0:
469,19,174274,1,2,3:2:0:0:
371,138,174442,2,0,P|351:121|338:99,1,45,10|0,0:0|0:0,0:0:0:0:
509,88,174611,1,2,0:0:0:0:
484,274,174779,2,0,P|460:282|433:283,1,45,2|0,3:2|0:0,0:0:0:0:
249,234,174948,1,2,3:2:0:0:
450,165,175116,1,10,0:0:0:0:
384,374,175285,6,0,P|364:357|351:335,1,45,6|0,3:2|0:0,0:0:0:0:
371,138,175454,1,2,0:0:0:0:
205,313,175622,1,2,3:2:0:0:
98,165,175791,2,0,L|158:177,1,45,10|0,0:0|0:0,0:0:0:0:
384,216,175959,1,0,0:0:0:0:
439,42,176128,2,0,L|379:54,1,45,2|0,3:2|0:0,0:0:0:0:
247,78,176296,2,0,L|187:90,1,45,2|0,3:2|0:0,0:0:0:0:
14,128,176465,1,8,0:0:0:0:
205,313,176633,6,0,B|214:345|267:352|267:352|298:283|269:229|203:224|203:224|172:254|128:250,1,306.000005836487,6|0,3:2|3:2,0:0:0:0:
56,46,177139,2,0,B|105:9|160:41|160:41|172:83|224:92,1,175.499991966248,8|0,0:0|0:0,0:0:0:0:
336,117,177476,2,0,L|325:69,1,45,2|0,3:2|0:0,0:0:0:0:
448,0,177645,2,0,L|437:47,1,45,2|0,3:2|0:0,0:0:0:0:
392,307,177813,1,8,0:0:0:0:
505,159,177982,6,0,L|281:207,1,229.500004377365,6|0,3:2|0:0,0:0:0:0:
155,248,178319,2,0,L|111:238,1,45,2|0,3:2|0:0,0:0:0:0:
11,164,178487,1,8,0:3:0:0:
20,174,178572,1,8,0:3:0:0:
33,179,178656,2,0,P|57:173|90:146,1,45,8|0,0:3|0:0,0:0:0:0:
202,86,178824,1,8,0:3:0:0:
199,57,178909,1,8,0:3:0:0:
177,35,178993,1,8,3:3:0:0:
136,26,179077,1,8,3:3:0:0:
101,45,179161,2,0,L|114:110,1,45,8|0,0:0|0:0,0:0:0:0:
236,282,179330,5,6,3:2:0:0:
289,277,179414,1,2,0:0:0:0:
323,232,179499,1,2,0:0:0:0:
313,176,179583,1,2,0:0:0:0:
262,150,179667,1,2,3:2:0:0:
215,160,179751,1,2,0:0:0:0:
195,183,179836,5,10,0:0:0:0:
254,196,179920,1,10,0:3:0:0:
313,176,180004,1,10,0:3:0:0:
344,137,180088,1,10,0:3:0:0:
350,88,180173,1,8,3:3:0:0:
370,55,180257,1,10,0:3:0:0:
406,39,180341,1,10,0:3:0:0:
446,49,180425,1,10,0:3:0:0:
467,78,180510,5,10,0:0:0:0:
449,87,180594,1,8,0:3:0:0:
442,102,180678,1,8,0:3:0:0:
443,119,180763,1,8,0:3:0:0:
454,131,180847,1,8,3:3:0:0:
467,134,180931,2,0,P|486:122|506:117,2,33.7500012874604,8|8|8,0:3|0:3|0:3,0:0:0:0:
409,309,181184,6,0,P|378:240|313:212,1,135,12|0,0:0|0:0,0:0:0:0:
256,192,181523,5,4,3:2:0:0:
277,6,185567,5,8,3:2:0:0:
101,272,185736,1,8,3:2:0:0:
101,272,186073,6,0,P|119:252|143:239,1,53.9999983520508,10|0,3:2|0:0,0:0:0:0:
429,239,186241,2,0,P|402:244|376:241,1,53.9999983520508,10|0,3:2|0:0,0:0:0:0:
142,74,186410,2,0,P|166:85|186:103,1,53.9999983520508,10|0,3:2|0:0,0:0:0:0:
277,374,186579,2,0,P|264:351|259:325,1,53.9999983520508,2|2,0:0|0:0,0:0:0:0:
351,54,186747,2,0,P|348:80|337:105,1,53.9999983520508,4|0,3:2|0:0,0:0:0:0:
257,191,186916,6,0,B|237:187|220:201|220:201|137:160|137:160|123:131|151:84|188:104,1,229.500004377365,2|0,0:0|0:0,0:0:0:0:
250,61,187253,2,0,P|261:84|261:110,1,45,10|0,0:0|0:0,0:0:0:0:
325,279,187421,2,0,B|361:296|390:250|375:221|375:221|292:180|292:180|275:194|255:190,1,229.500004377365,2|0,0:0|0:0,0:0:0:0:
186,103,187758,1,2,3:2:0:0:
259,325,187927,2,0,P|247:302|247:276,1,45,8|0,0:0|0:0,0:0:0:0:
108,182,188096,6,0,B|93:221|128:244|128:244|392:133|392:133|430:162|410:203,1,427.499988584519,2|0,3:2|0:0,0:0:0:0:
468,285,188601,2,0,B|492:259|485:229|485:229|470:254|454:263,1,107.999996704102,10|0,0:0|0:0,0:0:0:0:
315,384,188938,2,0,P|360:357|425:352,1,107.999996704102,2|0,3:2|3:2,0:0:0:0:
170,339,189275,2,0,P|149:324|118:319,1,45,10|0,0:0|0:0,0:0:0:0:
0,246,189444,5,2,0:3:0:0:
0,246,189528,1,2,0:3:0:0:
0,246,189612,2,0,B|89:251|126:171|126:171|106:145|106:114,1,188.999994232178,2|0,3:2|0:0,0:0:0:0:
106,66,189949,1,8,0:0:0:0:
233,212,190118,1,2,0:0:0:0:
266,86,190287,2,0,L|158:108,1,90,2|0,3:2|3:2,0:0:0:0:
315,4,190624,2,0,L|361:13,1,45,8|0,0:0|0:0,0:0:0:0:
484,182,190792,6,0,B|444:85|345:111|345:111|336:141|305:157,1,216,6|0,3:2|0:0,0:0:0:0:
361,216,191129,2,0,P|372:210|382:200,1,26.9999991760254,0|0,3:2|0:0,0:0:0:0:
320,296,191298,2,0,P|337:299|355:296,1,36,8|0,0:0|0:0,0:0:0:0:
223,319,191466,2,0,P|232:333|254:349,1,45,0|0,3:2|0:0,0:0:0:0:
129,263,191635,2,0,P|125:280|134:318,1,53.9999983520508,8|0,0:0|0:0,0:0:0:0:
107,160,191803,2,0,P|92:169|71:203,1,53.9999983520508,0|0,3:2|0:0,0:0:0:0:
285,207,191972,5,10,0:0:0:0:
250,246,192056,1,0,1:2:0:0:
199,241,192140,1,8,0:3:0:0:
173,195,192224,1,8,0:3:0:0:
195,148,192309,6,0,L|237:156,1,40.4999987640381,6|0,3:2|0:0,0:0:0:0:
57,69,192646,6,0,L|-5:81,1,45,10|0,0:0|0:0,0:0:0:0:
204,19,192815,2,0,L|114:0,1,90,2|0,0:0|3:2,0:0:0:0:
195,148,193152,1,2,3:2:0:0:
340,61,193320,2,0,L|277:73,1,45,8|0,0:0|0:0,0:0:0:0:
506,163,193489,6,0,B|513:125|478:75|416:98|416:98|402:128|367:134,1,175.499991966248,2|0,3:2|0:0,0:0:0:0:
314,143,193826,1,0,3:2:0:0:
430,376,193994,1,10,0:0:0:0:
455,369,194079,1,2,0:0:0:0:
476,343,194163,1,2,0:0:0:0:
476,302,194247,1,2,0:0:0:0:
436,267,194331,2,0,L|335:288,1,90,2|0,3:2|3:2,0:0:0:0:
153,355,194669,2,0,B|145:307|191:293|191:293|166:314|167:353,1,135,8|0,0:0|0:0,0:0:0:0:
242,351,195006,6,0,B|197:371|152:355|152:355|121:298|79:310,1,175.499991966248,2|0,3:2|0:0,0:0:0:0:
7,323,195343,1,8,0:0:0:0:
155,227,195511,2,0,P|128:215|103:213,1,36,2|0,0:0|0:0,0:0:0:0:
0,203,195680,1,2,3:2:0:0:
183,93,195848,1,0,3:2:0:0:
26,27,196017,2,0,L|37:82,1,36,10|0,0:0|0:0,0:0:0:0:
288,135,196185,6,0,B|329:62|431:58|431:58|445:85|487:99,1,215.999993408203,6|0,3:2|3:2,0:0:0:0:
271,232,196691,2,0,B|238:231|227:194|227:194|248:213|272:215,1,107.999996704102,8|0,0:0|0:0,0:0:0:0:
451,335,197028,1,0,3:2:0:0:
399,144,197197,1,0,3:2:0:0:
254,322,197365,6,0,L|302:311,1,40.4999987640381,10|0,0:0|0:0,0:0:0:0:
370,298,197702,5,6,3:2:0:0:
105,198,197871,1,0,3:2:0:0:
342,202,198039,5,12,0:0:0:0:
77,302,198208,1,0,3:2:0:0:
344,380,198376,5,6,3:2:0:0:
137,116,198545,1,2,3:2:0:0:
131,373,198714,5,14,0:0:0:0:
399,144,198882,1,2,3:2:0:0:
63,68,199051,5,14,0:0:0:0:
216,351,199219,1,0,3:2:0:0:
337,42,199388,5,14,0:0:0:0:
77,302,199556,1,0,3:2:0:0:
409,234,199725,5,14,0:0:0:0:
445,207,199809,1,0,1:2:0:0:
440,163,199894,1,0,1:2:0:0:
399,144,199978,1,0,1:2:0:0:
363,170,200062,1,8,0:0:0:0:
307,204,200146,1,8,0:0:0:0:
240,189,200230,1,8,0:0:0:0:
221,126,200315,1,8,0:0:0:0:
261,72,200399,6,0,P|272:98|296:113,1,54,6|0,3:2|0:0,0:0:0:0:
389,30,200736,6,0,L|320:44,1,53.9999983520508,14|0,0:0|0:0,0:0:0:0:
80,112,200905,2,0,P|53:65|0:28,1,107.999996704102,2|0,0:0|3:2,0:0:0:0:
170,268,201242,2,0,P|197:221|250:184,1,107.999996704102,2|8,3:2|0:0,0:0:0:0:
0,305,201579,2,0,P|19:319|32:340,1,45,2|0,0:0|0:0,0:0:0:0:
230,384,201747,6,0,B|389:350|389:350|389:328|401:310,1,202.500007724762,0|0,3:2|0:0,0:0:0:0:
469,347,202084,1,10,0:0:0:0:
314,245,202253,1,0,0:0:0:0:
501,142,202421,1,2,3:2:0:0:
461,269,202590,1,0,3:2:0:0:
239,188,202758,2,0,B|220:137|292:109|293:114|295:118|371:131|373:43,1,202.500007724762,10|0,0:0|0:0,0:0:0:0:
296,38,203096,6,0,B|259:28|266:-11|266:-11|282:13|297:19,1,107.999996704102,2|0,3:2|0:0,0:0:0:0:
403,179,203433,1,10,0:0:0:0:
204,72,203601,2,0,P|162:53|119:43,1,90,2|0,0:0|3:2,0:0:0:0:
0,305,203938,2,0,P|41:286|84:276,1,90,2|10,3:2|0:0,0:0:0:0:
273,336,204275,1,2,0:0:0:0:
116,172,204444,6,0,P|186:203|257:290,1,161.999995056153,0|0,3:2|0:0,0:0:0:0:
273,336,204781,1,10,0:0:0:0:
472,246,204949,2,0,B|388:226|349:298|349:298|363:329|352:363,1,188.999994232178,2|0,0:0|0:0,0:0:0:0:
429,362,205287,2,0,P|434:340|432:318,1,45,2|0,3:2|0:0,0:0:0:0:
381,179,205455,2,0,P|359:185|341:198,1,45,10|0,0:0|0:0,0:0:0:0:
195,324,205624,2,0,P|173:317|155:304,1,45,2|0,3:2|0:0,0:0:0:0:
7,196,205792,6,0,L|226:149,1,202.500007724762,14|0,3:2|0:0,0:0:0:0:
237,85,206129,2,0,P|257:93|273:111,1,36,2|0,3:2|0:0,0:0:0:0:
512,316,206298,6,0,L|292:269,1,202.500007724762,14|0,0:0|0:0,0:0:0:0:
273,336,206635,2,0,P|253:324|241:303,1,36,2|0,3:2|0:0,0:0:0:0:
237,85,206803,6,0,B|289:88|324:42|324:42|299:94|322:155,1,202.500007724762,12|0,0:0|0:0,0:0:0:0:
381,179,207140,2,0,P|369:199|352:209,1,36,0|0,3:2|0:0,0:0:0:0:
273,336,207309,6,0,B|221:333|186:379|186:379|211:327|192:280,1,202.500007724762,12|0,0:0|0:0,0:0:0:0:
123,248,207646,2,0,P|135:228|152:218,1,36,0|0,3:2|0:0,0:0:0:0:
387,102,207815,6,0,L|508:76,1,107.999996704102,14|0,0:0|3:2,0:0:0:0:
125,329,208152,2,0,L|3:303,1,107.999996704102,14|0,0:0|0:0,0:0:0:0:
212,12,208489,5,10,3:2:0:0:
299,373,208657,1,10,3:2:0:0:
256,192,208826,5,10,3:2:0:0:
256,192,209331,5,2,0:3:0:0:
253,186,209416,1,2,0:3:0:0:
257,180,209500,1,2,0:3:0:0:
264,181,209584,1,2,0:3:0:0:
267,188,209669,6,0,B|200:217|160:168|160:168|133:116|81:130,1,202.500007724762,4|0,3:2|0:0,0:0:0:0:
46,209,210006,2,0,L|94:198,1,45,0|0,3:2|0:0,0:0:0:0:
356,152,210174,1,8,0:0:0:0:
181,320,210343,2,0,L|229:90,1,216,6|0,3:2|0:0,0:0:0:0:
247,17,210680,5,8,0:0:0:0:
280,51,210764,1,8,0:0:0:0:
322,74,210848,1,10,0:0:0:0:
369,83,210932,1,8,0:0:0:0:
416,78,211017,1,10,0:0:0:0:
460,60,211101,1,8,0:0:0:0:
495,29,211185,6,0,P|415:79|341:180,1,188.999994232178,6|0,3:2|0:0,0:0:0:0:
273,159,211522,2,0,P|279:186|295:212,1,45,10|0,0:0|0:0,0:0:0:0:
374,381,211691,2,0,P|418:346|469:330,1,107.999996704102,2|0,0:0|3:2,0:0:0:0:
364,236,212028,1,2,3:2:0:0:
156,384,212197,2,0,L|109:374,1,45,8|0,0:0|0:0,0:0:0:0:
91,289,212365,6,0,B|232:319|232:319|231:353|254:379,1,188.999994232178,2|0,3:2|0:0,0:0:0:0:
312,321,212702,1,0,3:2:0:0:
36,354,212871,1,10,0:0:0:0:
13,339,212955,1,2,0:0:0:0:
1,312,213039,1,2,0:0:0:0:
0,273,213123,1,2,0:0:0:0:
27,234,213208,2,0,B|64:229|78:190|78:190|57:211|36:214,1,107.999996704102,2|0,3:2|3:2,0:0:0:0:
169,183,213545,2,0,B|167:109|103:92|103:92|80:111|46:118,1,161.999995056153,8|0,0:0|0:0,0:0:0:0:
0,149,213882,6,0,L|239:98,1,229.500004377365,2|0,3:2|0:0,0:0:0:0:
299,85,214219,1,8,0:0:0:0:
190,261,214388,2,0,P|214:251|236:222,1,45,2|0,0:0|0:0,0:0:0:0:
248,25,214556,1,2,3:2:0:0:
376,236,214725,1,0,3:2:0:0:
482,44,214893,2,0,L|427:55,1,45,10|0,0:0|0:0,0:0:0:0:
169,183,215062,6,0,B|184:106|124:58|47:92|44:89|44:89|33:143|-13:154,1,270.000010299683,6|0,3:2|3:2,0:0:0:0:
144,382,215567,2,0,L|265:356,1,107.999996704102,8|0,0:0|0:0,0:0:0:0:
475,320,215905,1,0,3:2:0:0:
227,237,216073,1,0,3:2:0:0:
469,121,216242,6,0,L|459:166,1,40.4999987640381,10|0,0:0|0:0,0:0:0:0:
321,93,216579,6,0,B|317:7|412:1|442:43|442:43|410:54|397:86,1,229.500004377365,6|0,3:2|0:0,0:0:0:0:
310,185,216916,2,0,P|263:160|212:143,1,107.999996704102,8|0,0:0|0:0,0:0:0:0:
15,204,217253,1,2,3:2:0:0:
222,40,217421,1,2,3:2:0:0:
36,15,217590,2,0,L|65:146,1,107.999996704102,10|2,0:0|0:0,0:0:0:0:
102,383,217927,5,2,3:2:0:0:
426,246,218096,1,8,0:0:0:0:
104,195,218264,1,10,0:0:0:0:
428,58,218433,1,0,3:2:0:0:
206,323,218601,5,10,0:0:0:0:
172,259,218685,1,0,1:2:0:0:
190,191,218770,1,0,1:2:0:0:
238,160,218854,1,0,1:2:0:0:
280,159,218938,1,8,3:3:0:0:
319,146,219022,1,8,0:3:0:0:
337,110,219107,1,8,0:3:0:0:
323,74,219191,1,8,0:3:0:0:
299,58,219275,6,0,P|274:61|255:74,1,40.4999987640381,6|0,3:2|0:0,0:0:0:0:
147,70,219612,6,0,L|420:128,1,242.999992584229,12|0,0:0|0:0,0:0:0:0:
461,135,219949,1,0,3:2:0:0:
262,255,220118,1,0,3:2:0:0:
445,357,220287,2,0,L|417:225,1,107.999996704102,8|2,0:0|0:0,0:0:0:0:
189,376,220624,6,0,P|173:362|164:347,1,26.9999991760254,2|0,3:3|0:0,0:0:0:0:
72,338,220792,2,0,P|77:315|85:293,1,36,2|0,0:3|0:0,0:0:0:0:
34,205,220961,2,0,P|56:198|79:194,1,45,10|0,0:2|0:0,0:0:0:0:
147,70,221129,2,0,P|180:85|219:126,1,90,2|2,0:3|3:2,0:0:0:0:
422,251,221466,6,0,L|431:206,1,36,0|0,3:2|0:0,0:0:0:0:
363,125,221635,2,0,L|343:217,1,80.9999975280763,10|0,0:0|0:0,0:0:0:0:
343,288,221972,5,10,3:2:0:0:
77,194,222140,1,10,3:2:0:0:
427,65,222309,1,10,3:2:0:0:
161,359,222478,1,10,3:2:0:0:
78,25,222646,1,10,3:2:0:0:
422,251,222815,1,10,3:2:0:0:
30,292,222983,1,10,3:2:0:0:
240,4,223152,1,10,3:2:0:0:
369,384,223320,1,10,3:2:0:0:
256,192,223826,12,0,225511,3:2:0:0:
35,120,225680,5,10,0:0:0:0:
74,111,225764,1,10,0:0:0:0:
114,103,225848,1,10,0:0:0:0:
153,95,225932,1,10,0:0:0:0:
193,87,226017,6,0,L|183:130,1,40.4999987640381,6|0,3:2|0:0,0:0:0:0:
232,284,226354,6,0,L|281:49,1,216,12|0,0:0|0:0,0:0:0:0:
293,0,226691,1,2,3:2:0:0:
437,166,226860,1,2,3:2:0:0:
166,206,227028,1,10,0:0:0:0:
352,57,227197,6,0,B|399:9|453:59|453:59|457:99|501:109,1,180,2|0,3:2|3:2,0:0:0:0:
276,72,227702,1,8,0:0:0:0:
458,260,227871,2,0,B|495:261|494:224|494:224|478:243|455:243,1,90,2|0,0:0|3:2,0:0:0:0:
264,213,228208,1,2,3:2:0:0:
370,380,228376,1,10,0:0:0:0:
437,166,228545,1,2,0:0:0:0:
213,346,228714,6,0,B|201:303|148:300|148:300|181:323|183:339,1,135,6|0,3:2|0:0,0:0:0:0:
213,346,229051,2,0,B|260:371|302:335|302:335|331:291|387:303,1,175.499991966248,10|0,0:0|0:0,0:0:0:0:
439,335,229388,1,2,3:2:0:0:
264,213,229556,1,2,3:2:0:0:
512,78,229725,2,0,L|501:127,1,45,10|0,0:0|0:0,0:0:0:0:
371,209,229893,6,0,B|320:106|201:125|201:125|187:168|142:176,1,270.000010299683,4|0,3:2|3:2,0:0:0:0:
0,132,230399,1,8,0:0:0:0:
109,13,230567,2,0,L|131:116,1,90,2|0,0:0|3:2,0:0:0:0:
169,337,230905,1,2,3:2:0:0:
25,261,231073,2,0,L|71:251,1,45,10|0,0:0|0:0,0:0:0:0:
272,220,231242,5,8,0:0:0:0:
272,220,231326,1,8,0:0:0:0:
272,220,231410,1,6,3:2:0:0:
40,65,231578,1,2,3:2:0:0:
169,337,231747,1,10,0:0:0:0:
406,99,231915,6,0,L|161:150,1,229.500004377365,6|0,3:2|0:0,0:0:0:0:
107,162,232252,1,2,3:2:0:0:
252,0,232421,1,10,0:0:0:0:
397,284,232589,6,0,B|420:261|456:258|456:258|502:214|459:154|459:154|435:177|394:181,1,229.500004377365,6|0,3:2|0:0,0:0:0:0:
328,218,232926,1,0,3:2:0:0:
459,372,233095,2,0,L|449:327,1,36,10|0,0:0|0:0,0:0:0:0:
406,99,233264,1,2,3:2:0:0:
399,70,233348,1,0,3:3:0:0:
409,42,233432,1,8,3:3:0:0:
433,25,233516,1,8,3:3:0:0:
462,24,233601,1,8,3:3:0:0:
487,40,233685,1,8,3:3:0:0:
499,67,233769,6,0,L|447:53,1,36,6|0,3:2|0:0,0:0:0:0:
252,0,233938,1,0,3:2:0:0:
397,284,234106,1,10,0:0:0:0:
27,190,234275,6,0,B|73:122|163:156|163:156|184:204|238:204,1,229.500004377365,6|0,3:2|0:0,0:0:0:0:
238,125,234612,1,2,3:2:0:0:
28,268,234780,1,10,0:0:0:0:
225,341,234949,6,0,L|167:65,1,270,6|0,3:2|0:0,0:0:0:0:
252,0,235286,2,0,L|239:58,1,45,2|0,3:2|0:0,0:0:0:0:
116,268,235454,2,0,L|103:209,1,45,10|0,0:0|0:0,0:0:0:0:
52,52,235623,5,6,3:2:0:0:
110,64,235707,1,0,3:2:0:0:
169,76,235791,1,0,3:2:0:0:
228,89,235875,1,0,3:2:0:0:
286,101,235960,1,0,3:2:0:0:
345,114,236044,1,0,3:2:0:0:
404,126,236129,6,0,L|348:137,1,45,6|0,3:2|0:0,0:0:0:0:
106,223,236297,1,2,3:2:0:0:
396,384,236466,2,0,L|379:304,1,45,10|0,0:0|0:0,0:0:0:0:
213,200,236634,6,0,B|208:299|317:310|317:310|330:275|378:267,1,229.500004377365,6|0,3:2|0:0,0:0:0:0:
332,202,236971,2,0,P|310:207|292:221,1,45,2|0,3:2|0:0,0:0:0:0:
170,371,237140,1,10,0:0:0:0:
462,317,237308,6,0,L|435:191,1,116.999994644165,6|0,3:2|0:0,0:0:0:0:
138,56,237645,1,2,3:2:0:0:
165,110,237730,1,0,1:2:0:0:
221,131,237814,1,2,1:2:0:0:
274,111,237898,1,0,1:2:0:0:
302,76,237983,1,2,1:2:0:0:
299,66,238067,1,0,3:2:0:0:
297,56,238151,1,0,3:2:0:0:
295,47,238235,1,0,3:2:0:0:
293,37,238320,1,0,3:2:0:0:
291,28,238404,1,0,3:2:0:0:
289,18,238488,5,6,3:2:0:0:
170,371,238657,1,6,3:2:0:0:
