osu file format v14

[General]
AudioFilename: audio.mp3
AudioLeadIn: 0
PreviewTime: 67901
Countdown: 0
SampleSet: Soft
StackLeniency: 0.7
Mode: 0
LetterboxInBreaks: 0
WidescreenStoryboard: 1

[Editor]
Bookmarks: 47844,49193
DistanceSpacing: 1
BeatDivisor: 4
GridSize: 4
TimelineZoom: 1

[Metadata]
Title:Arcadia (Short ver.)
TitleUnicode:アルカディア (Short ver.)
Artist:Chitose Sara
ArtistUnicode:千歳サラ
Creator:joker-
Version:Normal
Source:11月のアルカディア
Tags:thzz __Ag 11gatsu no Juuichigatsu of November LevoL visual novel eroge opening
BeatmapID:1064132
BeatmapSetID:491559

[Difficulty]
HPDrainRate:3.5
CircleSize:3.5
OverallDifficulty:4
ApproachRate:5
SliderMultiplier:0.999999999999999
SliderTickRate:1

[Events]
//Background and Video events
0,0,"bg.jpg",0,0
Video,0,"Arcadia movie.avi"
//Break Periods
//Storyboard Layer 0 (Background)
//Storyboard Layer 1 (Fail)
//Storyboard Layer 2 (Pass)
//Storyboard Layer 3 (Foreground)
//Storyboard Sound Samples

[TimingPoints]
1328,337.078651685393,4,2,1,45,1,0
1328,-100,4,2,1,45,0,0
12788,-100,4,2,2,60,0,0
18856,-100,4,2,2,65,0,0
24249,-100,4,2,1,50,0,0
35035,-100,4,2,1,50,0,0
45822,-100,4,2,1,50,0,0
56608,-100,4,2,1,60,0,0
64698,-100,4,2,1,60,0,0
68743,-100,4,2,2,70,0,1
78013,-100,4,2,2,65,0,1
79530,-100,4,2,2,70,0,1
91665,-100,4,2,2,60,0,0
100766,337.078651685393,4,2,2,60,1,0
103125,337.078651685393,4,2,2,65,1,0
105484,337.078651685393,4,2,2,70,1,0

[Colours]
Combo1 : 255,85,85
Combo2 : 255,255,40
Combo3 : 145,145,255
Combo4 : 100,255,100

[HitObjects]
168,184,2676,6,0,P|150:235|167:285,1,99.9999999999999,2|0,0:0|0:0,0:0:0:0:
192,318,3181,1,2,0:0:0:0:
284,357,3519,1,0,0:0:0:0:
379,326,3856,2,0,L|384:207,1,99.9999999999999,2|0,0:0|0:0,0:0:0:0:
371,177,4361,2,0,P|331:144|281:137,1,99.9999999999999,2|2,0:0|0:0,0:0:0:0:
226,55,5035,1,0,0:0:0:0:
178,143,5372,6,0,L|166:254,1,99.9999999999999,2|2,0:0|0:0,0:0:0:0:
170,291,5878,2,0,P|243:330|296:281,1,150,2|2,0:0|0:0,0:0:0:0:
386,265,6721,2,0,P|360:212|301:200,1,99.9999999999999,2|0,0:0|0:0,0:0:0:0:
275,187,7226,2,0,B|263:136|284:81,1,99.9999999999999,2|2,0:0|0:0,0:0:0:0:
287,41,7732,2,0,L|343:60,1,50,2|0,0:0|0:0,0:0:0:0:
383,68,8069,6,0,P|442:72|482:110,1,99.9999999999999,2|0,0:0|0:0,0:0:0:0:
505,134,8575,1,2,0:0:0:0:
463,225,8912,1,2,0:0:0:0:
367,194,9249,2,0,P|319:183|261:199,1,99.9999999999999,2|0,0:0|0:0,0:0:0:0:
223,210,9754,2,0,L|215:109,2,99.9999999999999,2|2|2,0:0|0:0|0:0,0:0:0:0:
232,309,10766,6,0,B|164:374|79:321,1,150,2|0,0:0|0:0,0:0:0:0:
48,310,11440,2,0,B|-12:257|1:174|1:174|89:125|163:172,1,300
221,226,12788,2,0,L|228:297,1,50,8|8,0:0|0:0,0:0:0:0:
366,329,13462,6,0,B|415:343|415:343|477:322,1,99.9999999999999,6|8,0:0|0:0,0:0:0:0:
490,231,14136,2,0,P|499:186|489:124,1,99.9999999999999,2|8,0:0|0:0,0:0:0:0:
453,100,14642,2,0,B|407:76|407:76|339:87,2,99.9999999999999,2|0|2,0:0|0:0|0:0,0:0:0:0:
408,189,15653,2,0,L|405:256,2,50,2|8|2,0:0|0:0|0:0,0:0:0:0:
358,196,16159,6,0,P|304:185|252:193,2,99.9999999999999,2|8|2,0:0|0:0|0:0,0:0:0:0:
354,145,17002,2,0,L|359:92,1,50,2|8,0:0|0:0,0:0:0:0:
315,67,17339,2,0,P|250:57|203:78,1,99.9999999999999,4|0,0:0|0:0,0:0:0:0:
176,94,17844,1,8,0:0:0:0:
160,141,18013,2,0,B|147:190|147:190|161:237,1,99.9999999999999,2|2,0:0|0:0,0:0:0:0:
179,284,18519,1,8,0:0:0:0:
254,349,18856,6,0,P|307:365|356:347,1,99.9999999999999,6|8,0:0|0:0,0:0:0:0:
378,313,19361,2,0,L|362:198,1,99.9999999999999,6|0,0:0|0:0,0:0:0:0:
343,116,20035,2,0,B|298:101|298:101|236:117,1,99.9999999999999,6|0,0:0|0:0,0:0:0:0:
199,128,20541,1,8,0:0:0:0:
159,159,20710,2,0,P|136:207|136:269,1,99.9999999999999,6|2,0:0|0:0,0:0:0:0:
134,302,21215,1,8,0:0:0:0:
232,285,21552,6,0,L|220:391,1,99.9999999999999,14|10,0:0|0:0,0:0:0:0:
318,365,22226,2,0,L|372:359,2,50,14|0|8,0:0|0:0|0:0,0:0:0:0:
310,315,22732,2,0,P|322:268|305:197,1,99.9999999999999,14|2,0:0|0:0,0:0:0:0:
298,170,23238,1,14,0:0:0:0:
24,293,24249,6,0,L|39:193,1,99.9999999999999,2|0,0:0|0:0,0:0:0:0:
51,146,24754,2,0,B|110:130|155:171,1,99.9999999999999,2|2,0:0|0:0,0:0:0:0:
235,208,25429,2,0,P|280:222|342:195,2,99.9999999999999,0|0|2,0:0|0:0|0:0,0:0:0:0:
135,197,26440,2,0,L|139:257,2,50,2|2|2,0:0|0:0|0:0,0:0:0:0:
98,163,26945,6,0,P|80:106|101:53,1,99.9999999999999,2|2,0:0|0:0,0:0:0:0:
114,24,27451,2,0,L|217:11,1,99.9999999999999,2|0,0:0|0:0,0:0:0:0:
306,49,28125,2,0,P|361:59|407:44,1,99.9999999999999,2|2,0:0|0:0,0:0:0:0:
450,32,28631,1,0,0:0:0:0:
486,65,28799,2,0,L|468:171,1,99.9999999999999,2|0,0:0|0:0,0:0:0:0:
457,212,29305,1,2,0:0:0:0:
357,219,29642,6,0,B|342:263|342:263|363:321,1,99.9999999999999,2|0,0:0|0:0,0:0:0:0:
374,361,30148,2,0,P|325:373|272:361,1,99.9999999999999,2|2,0:0|0:0,0:0:0:0:
189,315,30822,2,0,B|167:267|196:213,1,99.9999999999999,2|2,0:0|0:0,0:0:0:0:
206,170,31327,2,0,P|172:132|110:120,1,99.9999999999999,2|0,0:0|0:0,0:0:0:0:
77,106,31833,1,0,0:0:0:0:
41,141,32002,2,0,L|25:208,1,50,2|2,0:0|0:0,0:0:0:0:
41,238,32339,6,0,P|69:266|129:274,1,99.9999999999999,2|0,0:0|0:0,0:0:0:0:
176,273,32844,2,0,L|284:241,1,99.9999999999999,2|0,0:0|0:0,0:0:0:0:
305,150,33519,2,0,P|332:107|389:87,1,99.9999999999999,2|2,0:0|0:0,0:0:0:0:
425,81,34024,2,0,L|435:185,1,99.9999999999999,0|0,1:0|1:0,0:0:0:0:
447,279,34698,1,0,1:0:0:0:
354,316,35035,6,0,P|303:318|257:348,1,99.9999999999999,2|0,0:0|0:0,0:0:0:0:
225,377,35541,2,0,L|107:362,1,99.9999999999999,2|2,0:0|0:0,0:0:0:0:
95,268,36215,2,0,P|86:225|105:159,1,99.9999999999999,2|2,0:0|0:0,0:0:0:0:
129,132,36721,1,0,0:0:0:0:
166,99,36889,2,0,B|195:84|195:84|274:101,1,99.9999999999999,2|2,0:0|0:0,0:0:0:0:
307,117,37395,2,0,L|306:166,1,50,2|8,0:0|0:0,0:0:0:0:
339,204,37732,6,0,P|395:210|453:192,1,99.9999999999999,2|0,0:0|0:0,0:0:0:0:
481,177,38238,2,0,B|490:108|490:108|477:81,1,99.9999999999999,2|2,0:0|0:0,0:0:0:0:
401,15,38912,2,0,L|300:40,1,99.9999999999999,2|0,0:0|0:0,0:0:0:0:
288,86,39417,1,2,0:0:0:0:
270,134,39586,2,0,P|211:125|179:91,1,99.9999999999999,2|2,0:0|0:0,0:0:0:0:
157,55,40092,2,0,L|109:68,1,50,2|8,0:0|0:0,0:0:0:0:
61,85,40429,6,0,L|68:194,1,99.9999999999999,2|0,0:0|0:0,0:0:0:0:
76,234,40934,2,0,P|65:288|93:336,1,99.9999999999999,2|2,0:0|0:0,0:0:0:0:
183,332,41608,2,0,P|237:315|288:339,1,99.9999999999999,2|2,0:0|0:0,0:0:0:0:
322,346,42114,2,0,L|314:238,1,99.9999999999999,2|0,0:0|0:0,0:0:0:0:
330,198,42620,2,0,L|383:192,2,50,2|2|8,0:0|0:0|0:0,0:0:0:0:
304,155,43125,6,0,P|253:130|201:140,1,99.9999999999999,2|0,0:0|0:0,0:0:0:0:
175,170,43631,1,2,0:0:0:0:
218,259,43968,1,0,0:0:0:0:
313,287,44305,2,0,P|366:283|408:245,1,99.9999999999999,12|0,0:0|0:0,0:0:0:0:
407,205,44811,1,0,1:0:0:0:
385,107,45148,1,4,0:2:0:0:
298,56,45485,1,0,1:0:0:0:
201,31,45822,6,0,P|155:55|135:118,1,99.9999999999999,6|0,0:0|0:0,0:0:0:0:
121,144,46327,1,0,0:0:0:0:
130,193,46496,2,0,B|179:218|250:189,1,99.9999999999999,2|0,0:0|1:0,0:0:0:0:
277,188,47002,1,2,0:0:0:0:
323,205,47170,2,0,L|341:310,1,99.9999999999999,2|2,0:0|0:0,0:0:0:0:
431,344,47844,2,0,L|446:229,1,99.9999999999999,2|2,0:0|0:0,0:0:0:0:
447,194,48350,1,0,1:0:0:0:
448,143,48519,6,0,P|436:84|407:54,1,99.9999999999999,0|2,0:0|0:0,0:0:0:0:
321,8,49193,2,0,L|211:39,1,99.9999999999999,2|0,0:0|1:0,0:0:0:0:
159,111,49867,2,0,P|113:128|50:124,1,99.9999999999999,2|0,0:0|0:0,0:0:0:0:
13,131,50372,1,0,0:0:0:0:
3,180,50541,2,0,L|8:288,1,99.9999999999999,10|10,0:0|0:0,0:0:0:0:
75,353,51215,6,0,P|104:304|103:250,1,99.9999999999999,2|0,0:0|0:0,0:0:0:0:
100,212,51721,1,2,0:0:0:0:
100,162,51889,2,0,P|145:144|203:150,1,99.9999999999999,2|0,0:0|1:0,0:0:0:0:
244,160,52395,1,0,0:0:0:0:
291,173,52563,2,0,P|345:169|382:133,1,99.9999999999999,2|0,0:0|0:0,0:0:0:0:
451,71,53238,2,0,P|471:117|458:182,1,99.9999999999999,2|2,0:0|0:0,0:0:0:0:
449,212,53743,1,0,1:0:0:0:
419,252,53912,6,0,B|372:267|372:267|319:251,1,99.9999999999999,4|2,0:0|0:0,0:0:0:0:
228,222,54586,2,0,B|253:272|225:331,1,99.9999999999999,2|2,0:0|0:0,0:0:0:0:
140,273,55260,1,10,0:0:0:0:
75,196,55597,1,0,1:0:0:0:
146,125,55934,2,0,L|207:137,1,50,0|8,1:0|0:0,0:0:0:0:
239,109,56271,2,0,L|292:98,1,50,8|8,0:0|0:0,0:0:0:0:
335,115,56608,6,0,P|348:164|339:216,1,99.9999999999999,6|0,0:0|1:0,0:0:0:0:
330,261,57114,1,0,0:0:0:0:
350,308,57283,2,0,P|395:324|453:316,1,99.9999999999999,2|0,0:0|1:0,0:0:0:0:
483,286,57788,2,0,B|507:237|481:174,1,99.9999999999999,2|0,0:0|0:0,0:0:0:0:
463,143,58294,1,0,1:0:0:0:
387,77,58631,2,0,P|339:62|275:83,1,99.9999999999999,2|0,0:0|1:0,0:0:0:0:
246,93,59136,1,0,0:0:0:0:
209,127,59305,6,0,B|184:171|183:227,1,99.9999999999999,2|0,0:0|1:0,0:0:0:0:
179,272,59811,1,2,0:0:0:0:
180,321,59979,2,0,P|246:336|294:326,1,99.9999999999999,2|0,0:0|1:0,0:0:0:0:
321,307,60485,2,0,B|304:263|304:263|324:203|324:203|305:157,1,150,2|0,0:0|1:0,0:0:0:0:
303,66,61327,2,0,P|349:40|413:46,1,99.9999999999999,2|0,0:0|1:0,0:0:0:0:
441,57,61833,1,0,0:0:0:0:
468,99,62002,6,0,B|480:147|480:147|464:210,1,99.9999999999999,6|0,0:0|1:0,0:0:0:0:
450,242,62507,2,0,P|401:259|351:258,1,99.9999999999999,2|2,0:0|0:0,0:0:0:0:
303,258,63013,1,0,1:0:0:0:
253,256,63181,2,0,B|208:235|155:257|155:257|94:232,1,150,2|0,0:0|1:0,0:0:0:0:
51,156,64024,1,2,0:0:0:0:
148,136,64361,6,0,L|216:149,1,50,0|0,1:0|0:0,0:0:0:0:
245,153,64698,2,0,P|298:147|347:177,1,99.9999999999999,4|0,0:0|1:0,0:0:0:0:
346,217,65204,2,0,B|398:229|398:229|450:198,1,99.9999999999999,4|8,0:0|0:0,0:0:0:0:
472,168,65710,1,0,1:0:0:0:
256,192,65878,12,4,67395,0:0:0:0:
349,164,68743,6,0,L|367:281,1,99.9999999999999,6|8,0:0|0:0,0:0:0:0:
376,310,69249,2,0,P|432:304|449:255,1,99.9999999999999,2|2,0:0|0:0,0:0:0:0:
428,171,69923,2,0,P|401:106|321:90,1,150,2|8,0:0|0:0,0:0:0:0:
253,144,70766,2,0,L|262:253,1,99.9999999999999,2|8,0:0|0:0,0:0:0:0:
279,341,71440,6,0,P|327:330|377:345,1,99.9999999999999,2|8,0:0|0:0,0:0:0:0:
420,363,71945,2,0,B|457:324|457:324|440:224,1,150,2|8,0:0|0:0,0:0:0:0:
463,131,72788,2,0,P|406:116|363:149,1,99.9999999999999,2|8,0:0|0:0,0:0:0:0:
327,155,73294,2,0,B|338:90|338:90|311:62,1,99.9999999999999,2|0,0:0|0:0,0:0:0:0:
278,30,73799,2,0,P|239:25|220:32,1,50,8|0,0:0|0:0,0:0:0:0:
197,66,74136,6,0,L|188:170,1,99.9999999999999,6|8,0:0|0:0,0:0:0:0:
184,215,74642,2,0,B|216:230|216:230|290:215,1,99.9999999999999,0|2,0:0|0:0,0:0:0:0:
377,197,75316,2,0,P|343:150|366:66,1,150,2|8,0:0|0:0,0:0:0:0:
441,1,76159,1,2,0:0:0:0:
467,97,76496,1,8,0:0:0:0:
494,193,76833,6,0,P|511:237|500:289,1,99.9999999999999,2|8,0:0|0:0,0:0:0:0:
467,325,77339,1,0,0:0:0:0:
417,319,77507,2,0,P|360:304|322:321,1,99.9999999999999,2|8,0:0|0:0,0:0:0:0:
284,349,78013,2,0,B|221:338|186:351|186:351|162:341|145:306,1,150,6|8,0:0|0:0,0:0:0:0:
196,226,78856,1,8,0:0:0:0:
166,130,79193,2,0,L|157:60,1,50,2|2,0:0|0:0,0:0:0:0:
133,37,79530,6,0,P|83:30|41:62,1,99.9999999999999,6|8,0:0|0:0,0:0:0:0:
18,99,80035,2,0,B|4:147|4:147|18:206,1,99.9999999999999,2|2,0:0|0:0,0:0:0:0:
25,245,80541,1,8,0:0:0:0:
43,291,80710,2,0,P|82:322|139:328,1,99.9999999999999,2|0,0:0|0:0,0:0:0:0:
180,328,81215,1,8,0:0:0:0:
165,229,81552,1,2,0:0:0:0:
145,130,81889,1,8,0:0:0:0:
128,31,82226,6,0,P|172:13|245:24,1,99.9999999999999,6|8,0:0|0:0,0:0:0:0:
272,28,82732,1,2,0:0:0:0:
295,72,82901,2,0,L|278:184,1,99.9999999999999,2|8,0:0|0:0,0:0:0:0:
276,220,83406,2,0,P|338:204|380:229,2,99.9999999999999,2|2|2,0:0|0:0|0:0,0:0:0:0:
240,254,84249,2,0,B|226:321|226:321|240:370,1,99.9999999999999,2|8,0:0|0:0,0:0:0:0:
331,325,84923,6,0,P|376:307|436:322,1,99.9999999999999,6|8,0:0|0:0,0:0:0:0:
486,236,85597,2,0,P|488:205|478:166,1,50,2|0,0:0|0:0,0:0:0:0:
472,137,85934,2,0,P|465:105|465:75,1,50,8|2,0:0|0:0,0:0:0:0:
464,37,86271,1,6,0:0:0:0:
383,95,86608,2,0,P|355:141|363:191,1,99.9999999999999,8|2,0:0|0:0,0:0:0:0:
405,275,87283,2,0,L|359:304,1,50,2|0,0:0|0:0,0:0:0:0:
319,327,87620,6,0,P|271:340|216:319,2,99.9999999999999,6|8|2,0:0|0:0|0:0,0:0:0:0:
272,241,88631,2,0,P|265:183|280:133,1,99.9999999999999,8|2,0:0|0:0,0:0:0:0:
338,66,89305,1,8,0:0:0:0:
380,156,89642,1,2,0:0:0:0:
353,252,89979,2,0,L|360:316,1,50,8|2,0:0|0:0,0:0:0:0:
381,346,90316,6,0,P|432:361|482:340,1,99.9999999999999,0|0,1:2|1:2,0:0:0:0:
501,249,90990,1,0,1:2:0:0:
453,161,91327,1,0,1:2:0:0:
485,66,91665,1,14,0:0:0:0:
142,272,93013,6,0,P|191:259|244:284,1,99.9999999999999,6|8,0:0|0:0,0:0:0:0:
326,318,93687,2,0,B|340:264|340:264|325:214,1,99.9999999999999,0|8,0:0|0:0,0:0:0:0:
311,174,94193,2,0,P|275:135|190:158,1,150,2|8,0:0|0:0,0:0:0:0:
155,193,94867,2,0,P|103:202|56:172,1,99.9999999999999,2|2,0:0|0:0,0:0:0:0:
19,155,95372,1,8,0:0:0:0:
49,59,95710,6,0,P|97:34|160:51,1,99.9999999999999,6|8,0:0|0:0,0:0:0:0:
216,105,96384,2,0,L|205:156,1,50,0|2,0:0|0:0,0:0:0:0:
207,203,96721,1,8,0:0:0:0:
214,252,96889,2,0,B|258:246|258:246|285:256|285:256|331:234|381:257,1,150,6|8,0:0|0:0,0:0:0:0:
409,256,97563,2,0,L|436:148,1,99.9999999999999,2|2,0:0|0:0,0:0:0:0:
468,123,98069,2,0,L|460:64,1,50,8|2,0:0|0:0,0:0:0:0:
447,25,98406,6,0,L|345:53,1,99.9999999999999,6|8,0:0|0:0,0:0:0:0:
306,75,98912,2,0,P|293:126|303:176,1,99.9999999999999,6|0,0:0|0:0,0:0:0:0:
281,269,99586,2,0,P|240:254|209:196,1,99.9999999999999,6|2,0:0|0:0,0:0:0:0:
179,113,100260,2,0,P|134:106|79:148,1,99.9999999999999,2|2,0:0|0:0,0:0:0:0:
64,176,100766,6,0,L|74:283,1,99.9999999999999,6|8,0:0|0:0,0:0:0:0:
108,310,101271,2,0,P|160:325|209:304,1,99.9999999999999,6|2,0:0|0:0,0:0:0:0:
285,254,101945,2,0,L|276:134,1,99.9999999999999,6|2,0:0|0:0,0:0:0:0:
262,55,102619,2,0,P|209:58|160:89,1,99.9999999999999,2|2,0:0|0:0,0:0:0:0:
135,117,103125,6,0,L|127:233,1,99.9999999999999,6|8,0:0|0:0,0:0:0:0:
161,254,103630,2,0,P|203:284|256:281,1,99.9999999999999,6|2,0:0|0:0,0:0:0:0:
332,227,104304,2,0,L|438:207,1,99.9999999999999,6|2,0:0|0:0,0:0:0:0:
405,111,104978,2,0,P|349:101|292:119,1,99.9999999999999,6|2,0:0|0:0,0:0:0:0:
267,141,105484,6,0,L|259:199,1,50,14|14,0:0|0:0,0:0:0:0:
