osu file format v14

[General]
AudioFilename: audio.mp3
AudioLeadIn: 0
PreviewTime: 67901
Countdown: 0
SampleSet: Soft
StackLeniency: 0.7
Mode: 0
LetterboxInBreaks: 0
WidescreenStoryboard: 1

[Editor]
DistanceSpacing: 0.2
BeatDivisor: 4
GridSize: 4
TimelineZoom: 2.3

[Metadata]
Title:Arcadia (Short ver.)
TitleUnicode:アルカディア (Short ver.)
Artist:Chitose Sara
ArtistUnicode:千歳サラ
Creator:joker-
Version:Insane
Source:11月のアルカディア
Tags:thzz __Ag 11gatsu no Juuichigatsu of November LevoL visual novel eroge opening
BeatmapID:1047464
BeatmapSetID:491559

[Difficulty]
HPDrainRate:6
CircleSize:4
OverallDifficulty:7
ApproachRate:9
SliderMultiplier:1.7
SliderTickRate:1

[Events]
//Background and Video events
0,0,"bg.jpg",0,0
Video,0,"Arcadia movie.avi"
//Break Periods
//Storyboard Layer 0 (Background)
//Storyboard Layer 1 (Fail)
//Storyboard Layer 2 (Pass)
//Storyboard Layer 3 (Foreground)
//Storyboard Sound Samples

[TimingPoints]
1328,337.078651685393,4,2,1,45,1,0
1328,-133.333333333333,4,2,1,45,0,0
12788,-100,4,2,2,60,0,0
13462,-100,4,2,2,60,0,0
18856,-90.9090909090909,4,2,2,70,0,0
23743,-111.111111111111,4,2,1,60,0,0
24249,-133.333333333333,4,2,1,50,0,0
34361,-100,4,2,1,50,0,0
35035,-111.111111111111,4,2,1,50,0,0
45822,-111.111111111111,4,2,1,50,0,0
56608,-100,4,2,1,60,0,0
64698,-90.9090909090909,4,2,1,60,0,0
67058,-90.9090909090909,4,2,1,40,0,0
67901,-125,4,2,1,50,0,0
68743,-90.9090909090909,4,2,2,70,0,1
78013,-90.9090909090909,4,2,2,65,0,1
79530,-90.9090909090909,4,2,2,70,0,1
91665,-100,4,2,2,60,0,0
100766,337.078651685393,4,2,2,60,1,0
103125,337.078651685393,4,2,2,65,1,0
105484,337.078651685393,4,2,2,70,1,0

[Colours]
Combo1 : 255,85,85
Combo2 : 255,255,40
Combo3 : 145,145,255
Combo4 : 100,255,100

[HitObjects]
184,281,1833,6,0,P|167:221|194:137,1,127.500004863739,2|0,0:0|0:0,0:0:0:0:
283,111,2339,1,0,0:0:0:0:
283,111,2507,1,0,0:0:0:0:
290,220,2676,6,0,B|354:237|354:237|417:218,1,127.500004863739,2|0,0:0|0:0,0:0:0:0:
368,350,3181,2,0,B|304:333|304:333|245:350,1,127.500004863739,2|0,0:0|0:0,0:0:0:0:
117,229,3856,6,0,P|102:294|127:350,1,127.500004863739,2|0,0:0|0:0,0:0:0:0:
271,313,4361,2,0,L|286:179,2,127.500004863739,2|2|0,0:0|0:0|0:0,0:0:0:0:
357,217,5372,6,0,P|352:145|288:107,1,127.500004863739,2|2,0:0|0:0,0:0:0:0:
190,123,5878,2,0,L|209:208,1,63.7500024318696,2|0,0:0|0:0,0:0:0:0:
234,290,6215,1,0,0:0:0:0:
234,290,6384,2,0,P|267:293|302:282,1,63.7500024318696,2|0,0:0|0:0,0:0:0:0:
424,168,6721,2,0,P|365:154|290:170,1,127.500004863739,2|0,0:0|0:0,0:0:0:0:
204,227,7226,6,0,L|221:353,1,127.500004863739,2|2,0:0|0:0,0:0:0:0:
335,348,7732,1,2,0:0:0:0:
312,240,7901,1,0,0:0:0:0:
139,273,8069,2,0,P|128:208|171:153,1,127.500004863739,2|0,0:0|0:0,0:0:0:0:
277,97,8575,1,2,0:0:0:0:
277,97,8912,2,0,L|287:189,1,63.7500024318696,2|0,0:0|0:0,0:0:0:0:
204,227,9249,6,0,P|188:277|221:347,1,127.500004863739,2|0,0:0|0:0,0:0:0:0:
332,372,9754,2,0,P|344:372|396:360,1,63.7500024318696,2|0,0:0|0:0,0:0:0:0:
500,268,10092,2,0,P|488:268|436:256,1,63.7500024318696,2|0,0:0|0:0,0:0:0:0:
338,153,10429,1,2,0:0:0:0:
338,153,10766,6,0,P|301:214|307:277,1,127.500004863739,2|0,0:0|0:0,0:0:0:0:
256,192,11440,12,0,12451,0:0:0:0:
162,252,12788,5,8,0:0:0:0:
198,60,12957,1,8,0:0:0:0:
339,169,13125,1,0,0:0:0:0:
370,168,13209,1,0,0:0:0:0:
401,167,13293,1,0,0:0:0:0:
433,166,13377,1,0,0:0:0:0:
458,164,13462,6,0,P|479:254|435:326,1,170,6|8,0:0|0:0,0:0:0:0:
324,378,13968,1,0,0:0:0:0:
287,253,14136,2,0,P|299:209|290:155,1,85,2|0,0:0|0:0,0:0:0:0:
224,53,14474,1,8,0:0:0:0:
158,200,14642,6,0,B|59:239|3:164,1,170,2|0,0:0|0:0,0:0:0:0:
110,16,15148,1,8,0:0:0:0:
90,126,15316,2,0,B|60:303,1,170,2|2,0:0|0:0,0:0:0:0:
228,354,15822,1,8,0:0:0:0:
158,200,15990,1,2,0:0:0:0:
53,372,16159,6,0,B|103:371|134:389|134:389|165:370|230:369,1,170,2|8,0:0|0:0,0:0:0:0:
350,342,16665,1,0,0:0:0:0:
329,205,16833,2,0,P|324:149|333:99,1,85,2|2,0:0|0:0,0:0:0:0:
446,167,17170,1,8,0:0:0:0:
430,337,17339,6,2,B|388:328|388:328|314:354|314:354|263:342,1,170,4|0,0:0|0:0,0:0:0:0:
145,311,17844,1,8,0:0:0:0:
205,197,18013,2,0,B|231:142|231:142|207:15,1,170,2|2,0:0|0:0,0:0:0:0:
27,111,18519,1,8,0:0:0:0:
31,136,18603,1,4,3:0:0:0:
36,160,18687,1,4,3:0:0:0:
90,344,18856,6,0,B|134:368|183:331,1,93.5000028533936,6|0,0:0|0:0,0:0:0:0:
295,196,19193,1,8,0:0:0:0:
104,96,19361,2,0,L|119:240,1,140.25000428009,6|0,0:0|0:0,0:0:0:0:
125,276,19698,1,0,0:0:0:0:
295,196,19867,1,8,0:0:0:0:
258,368,20035,6,0,B|322:340|408:358,1,140.25000428009,6|0,0:0|0:0,0:0:0:0:
432,368,20372,1,0,0:0:0:0:
371,211,20541,1,8,0:0:0:0:
511,245,20710,2,0,L|501:103,1,140.25000428009,6|0,0:0|0:0,0:0:0:0:
498,68,21047,1,2,0:0:0:0:
369,120,21215,2,0,P|360:177|383:230,1,93.5000028533936,8|0,0:0|0:0,0:0:0:0:
228,291,21552,5,14,0:0:0:0:
192,122,21721,1,0,0:0:0:0:
370,210,21889,1,10,0:0:0:0:
162,243,22058,1,0,0:0:0:0:
279,108,22226,2,0,B|267:153|267:153|284:214,1,93.5000028533936,14|0,0:0|0:0,0:0:0:0:
370,329,22563,1,8,0:0:0:0:
351,86,22732,6,0,P|304:36|208:82,1,187.000005706787,14|2,0:0|0:0,0:0:0:0:
137,283,23238,1,14,0:0:0:0:
291,216,23743,1,0,0:0:0:0:
122,179,23912,1,8,0:0:0:0:
122,179,23996,1,8,0:0:0:0:
122,179,24080,1,8,0:0:0:0:
134,58,24249,6,0,B|197:72|197:72|265:49,1,127.500004863739,2|0,0:0|0:0,0:0:0:0:
359,17,24754,2,0,L|352:96,1,63.7500024318696,2|0,0:0|0:0,0:0:0:0:
341,189,25092,1,2,0:0:0:0:
341,189,25260,2,0,P|377:185|413:194,1,63.7500024318696
463,114,25597,5,2,0:0:0:0:
353,80,25766,2,0,L|357:15,1,63.7500024318696,0|2,0:0|0:0,0:0:0:0:
403,190,26103,2,0,L|395:339,1,127.500004863739,2|2,0:0|0:0,0:0:0:0:
289,293,26608,1,2,0:0:0:0:
287,280,26777,1,2,0:0:0:0:
286,267,26945,6,0,B|219:261|219:261|154:304,1,127.500004863739,2|2,0:0|0:0,0:0:0:0:
76,351,27451,2,0,P|57:298|76:222,1,127.500004863739,2|0,0:0|0:0,0:0:0:0:
78,219,27957,1,0,0:0:0:0:
86,210,28125,6,0,L|225:224,1,127.500004863739,2|2,0:0|0:0,0:0:0:0:
260,139,28631,1,0,0:0:0:0:
79,118,28799,2,0,L|4:111,1,63.7500024318696,2|0,0:0|0:0,0:0:0:0:
53,19,29136,1,0,0:0:0:0:
161,122,29305,2,0,B|147:73|147:73|160:18,1,95.6250036478044,2|0,0:0|0:0,0:0:0:0:
181,12,29642,6,0,P|240:4|322:16,1,127.500004863739,2|0,0:0|0:0,0:0:0:0:
419,64,30148,2,0,L|427:192,1,127.500004863739,2|2,0:0|0:0,0:0:0:0:
436,298,30653,1,0,0:0:0:0:
244,274,30822,6,0,L|248:204,1,63.7500024318696,2|0,0:0|0:0,0:0:0:0:
207,117,31159,1,2,0:0:0:0:
173,302,31327,2,0,P|225:349|281:342,1,127.500004863739,2|0,0:0|0:0,0:0:0:0:
244,274,31833,1,0,0:0:0:0:
347,324,32002,1,2,0:0:0:0:
434,262,32170,1,2,0:0:0:0:
434,262,32339,6,0,B|413:198|413:198|434:128,1,127.500004863739,2|0,0:0|0:0,0:0:0:0:
506,238,32844,2,0,P|498:304|446:337,1,127.500004863739,2|0,0:0|0:0,0:0:0:0:
351,362,33350,1,0,0:0:0:0:
242,276,33519,6,0,L|367:250,1,127.500004863739,2|2,0:0|0:0,0:0:0:0:
321,176,34024,1,0,1:0:0:0:
278,352,34193,1,0,0:0:0:0:
150,214,34361,2,0,P|141:168|164:117,1,85,0|2,1:0|0:0,0:0:0:0:
314,276,34698,1,0,1:0:0:0:
314,276,34783,1,0,1:0:0:0:
314,276,34867,1,4,3:0:0:0:
150,214,35035,6,0,L|162:388,1,152.999995330811,2|0,0:0|0:0,0:0:0:0:
40,314,35541,2,0,B|10:241|48:147,1,152.999995330811,2|2,0:0|0:0,0:0:0:0:
173,147,36047,1,0,0:0:0:0:
172,276,36215,2,0,B|241:256|241:256|319:276,1,152.999995330811,2|2,0:0|0:0,0:0:0:0:
297,158,36721,1,0,0:0:0:0:
319,276,36889,2,0,L|334:360,1,76.4999976654053,2|0,0:0|0:0,0:0:0:0:
242,332,37226,1,2,0:0:0:0:
406,305,37395,1,2,0:0:0:0:
258,226,37563,1,8,0:0:0:0:
421,184,37732,6,0,P|391:112|417:34,1,152.999995330811,2|0,0:0|0:0,0:0:0:0:
473,111,38238,2,0,L|301:127,1,152.999995330811,2|2,0:0|0:0,0:0:0:0:
427,218,38743,1,0,0:0:0:0:
323,50,38912,2,0,P|253:86|253:160,1,152.999995330811,2|0,0:0|0:0,0:0:0:0:
320,264,39417,1,2,0:0:0:0:
151,211,39586,2,0,L|161:126,1,76.4999976654053,2|0,0:0|0:0,0:0:0:0:
338,160,39923,1,2,0:0:0:0:
227,263,40092,2,0,L|238:349,1,76.4999976654053,2|8,0:0|0:0,0:0:0:0:
407,297,40429,6,0,B|426:249|426:249|408:129,1,152.999995330811,2|0,0:0|0:0,0:0:0:0:
392,38,40934,2,0,P|323:20|234:46,1,152.999995330811,2|2,0:0|0:0,0:0:0:0:
145,83,41440,1,0,0:0:0:0:
241,189,41608,2,0,P|256:114|238:23,1,152.999995330811,2|2,0:0|0:0,0:0:0:0:
71,45,42114,2,0,L|58:138,1,76.4999976654053,2|0,0:0|0:0,0:0:0:0:
43,233,42451,1,0,0:0:0:0:
181,233,42620,2,0,L|172:317,2,76.4999976654053,2|2|8,0:0|0:0|0:0,0:0:0:0:
280,131,43125,6,0,B|332:135|390:156|390:156|432:134,1,152.999995330811,2|0,0:0|0:0,0:0:0:0:
192,56,43631,2,0,B|140:52|82:31|82:31|40:53,1,152.999995330811,2|0,0:0|0:0,0:0:0:0:
6,152,44136,1,8,0:0:0:0:
39,266,44305,2,0,P|84:267|150:173,1,152.999995330811,12|0,0:0|0:0,0:0:0:0:
274,223,44811,5,0,1:0:0:0:
184,118,44979,1,0,0:0:0:0:
214,289,45148,1,4,0:2:0:0:
325,152,45316,1,0,0:0:0:0:
158,198,45485,1,0,1:0:0:0:
158,198,45569,1,0,1:0:0:0:
158,198,45653,1,4,3:0:0:0:
349,239,45822,6,0,P|411:236|495:194,1,152.999995330811,6|0,0:0|0:0,0:0:0:0:
384,106,46327,1,0,0:0:0:0:
269,189,46496,2,0,P|253:114|267:40,1,152.999995330811,2|0,0:0|1:0,0:0:0:0:
120,140,47002,1,2,0:0:0:0:
168,312,47170,6,0,L|182:231,1,76.4999976654053,2|0,0:0|0:0,0:0:0:0:
24,112,47507,2,0,L|36:214,1,76.4999976654053,2|0,0:0|0:0,0:0:0:0:
168,312,47844,2,0,P|222:313|256:296,1,76.4999976654053,2|0,0:0|0:0,0:0:0:0:
147,201,48181,1,2,0:0:0:0:
61,318,48350,1,0,1:0:0:0:
242,304,48519,6,0,L|328:297,1,76.4999976654053
497,207,48856,2,0,L|332:195,1,152.999995330811,2|2,0:0|0:0,0:0:0:0:
212,223,49361,2,0,L|218:147,1,76.4999976654053,0|0,0:0|1:0,0:0:0:0:
293,301,49698,1,0,0:0:0:0:
420,116,49867,6,0,P|366:79|277:110,1,152.999995330811,2|0,0:0|0:0,0:0:0:0:
84,57,50372,2,0,L|9:71,1,76.4999976654053,0|10,0:0|0:0,0:0:0:0:
203,87,50710,1,0,1:0:0:0:
119,159,50878,2,0,P|110:214|123:253,1,76.4999976654053,10|0,0:0|1:0,0:0:0:0:
203,87,51215,6,0,P|224:40|320:30,1,152.999995330811,2|0,0:0|0:0,0:0:0:0:
393,125,51721,1,2,0:0:0:0:
393,125,51889,2,0,L|380:215,1,76.4999976654053,2|0,0:0|0:0,0:0:0:0:
280,94,52226,1,0,1:0:0:0:
405,40,52395,1,0,0:0:0:0:
382,200,52563,6,0,B|408:277|382:356,1,152.999995330811,2|0,0:0|0:0,0:0:0:0:
260,312,53069,1,0,0:0:0:0:
264,163,53238,2,0,P|255:199|261:254,1,76.4999976654053,2|0,0:0|0:0,0:0:0:0:
382,200,53575,1,2,0:0:0:0:
313,372,53743,1,0,1:0:0:0:
443,313,53912,6,0,L|452:234,1,76.4999976654053,4|0,0:0|0:0,0:0:0:0:
301,138,54249,1,2,0:0:0:0:
346,283,54417,1,0,0:0:0:0:
369,110,54586,2,0,P|317:64|240:93,1,152.999995330811,2|2,0:0|0:0,0:0:0:0:
155,184,55092,1,0,0:0:0:0:
155,184,55260,6,0,L|161:283,1,76.4999976654053,10|0,0:0|0:0,0:0:0:0:
305,252,55597,2,0,L|297:338,1,76.4999976654053,0|0,1:0|0:0,0:0:0:0:
159,260,55934,1,0,1:0:0:0:
272,176,56103,1,8,0:0:0:0:
309,171,56187,1,8,0:0:0:0:
345,183,56271,1,8,0:0:0:0:
372,210,56355,1,8,0:0:0:0:
384,246,56440,1,8,0:0:0:0:
379,283,56524,1,8,0:0:0:0:
356,314,56608,6,0,L|376:137,1,170,6|0,0:0|1:0,0:0:0:0:
271,72,57114,1,0,0:0:0:0:
294,219,57283,1,2,0:0:0:0:
410,118,57451,1,0,0:0:0:0:
230,148,57620,1,0,1:0:0:0:
447,188,57788,6,0,P|485:134|431:42,1,170,2|0,0:0|0:0,0:0:0:0:
447,188,58294,2,0,L|459:285,1,85,0|0,1:0|0:0,0:0:0:0:
351,371,58631,1,2,0:0:0:0:
359,221,58799,1,0,0:0:0:0:
461,316,58968,1,0,1:0:0:0:
273,294,59136,1,0,0:0:0:0:
408,164,59305,6,0,P|316:158|284:233,1,170,2|0,0:0|1:0,0:0:0:0:
206,358,59811,2,0,L|199:256,1,85,2|2,0:0|0:0,0:0:0:0:
189,169,60148,1,0,0:0:0:0:
30,237,60316,1,0,1:0:0:0:
115,359,60485,6,0,B|93:296|120:237|120:237|97:192,1,170,2|0,0:0|0:0,0:0:0:0:
12,70,60990,2,0,L|108:86,1,85,0|0,1:0|0:0,0:0:0:0:
237,106,61327,1,2,0:0:0:0:
125,3,61496,1,0,0:0:0:0:
99,197,61665,1,0,1:0:0:0:
12,70,61833,1,0,0:0:0:0:
169,72,62002,6,0,P|246:30|310:89,1,170,6|0,0:0|1:0,0:0:0:0:
257,223,62507,2,0,P|248:270|262:315,1,85,2|0,0:0|0:0,0:0:0:0:
366,374,62844,1,2,0:0:0:0:
367,221,63013,1,0,1:0:0:0:
451,317,63181,6,0,B|481:267|481:267|448:147,1,170,2|2,0:0|0:0,0:0:0:0:
299,137,63687,2,0,P|256:132|214:144,1,85,0|0,1:0|0:0,0:0:0:0:
170,270,64024,1,2,0:0:0:0:
315,334,64193,1,0,0:0:0:0:
299,137,64361,1,0,1:0:0:0:
425,242,64530,1,0,0:0:0:0:
231,272,64698,6,0,P|201:211|225:130,1,140.25000428009,4|0,0:0|0:0,0:0:0:0:
229,109,65035,1,0,1:0:0:0:
107,212,65204,2,0,P|115:280|98:319,1,93.5000028533936,4|0,0:0|0:0,0:0:0:0:
58,132,65541,1,8,0:0:0:0:
17,310,65710,1,0,1:0:0:0:
208,359,65878,6,0,L|216:260,1,93.5000028533936,4|0,0:0|0:0,0:0:0:0:
326,199,66215,1,0,0:0:0:0:
315,346,66384,1,0,1:0:0:0:
222,196,66552,1,0,0:0:0:0:
425,199,66721,2,8,P|436:130|371:90,1,140.25000428009,0|8,1:0|0:0,0:0:0:0:
361,101,67058,1,0,1:0:0:0:
333,113,67142,1,0,1:0:0:0:
303,123,67226,1,0,1:0:0:0:
278,133,67311,1,0,1:0:0:0:
278,133,67901,6,0,B|260:231|260:231|315:191,1,136,2|0,0:0|0:0,0:0:0:0:
365,158,68406,1,2,0:0:0:0:
365,158,68575,1,2,0:0:0:0:
439,307,68743,6,0,L|455:111,1,187.000005706787,6|8,0:0|0:0,0:0:0:0:
260,128,69249,1,2,0:0:0:0:
281,307,69417,2,0,B|290:257|290:257|279:214,1,93.5000028533936,0|2,0:0|0:0,0:0:0:0:
86,264,69754,1,8,0:0:0:0:
197,161,69923,1,2,0:0:0:0:
202,335,70092,5,0,0:0:0:0:
108,172,70260,1,0,0:0:0:0:
110,352,70429,2,0,L|234:328,1,93.5000028533936,8|0,0:0|0:0,0:0:0:0:
34,267,70766,2,0,B|5:232|5:232|0:160|41:66,1,187.000005706787,2|8,0:0|0:0,0:0:0:0:
168,76,71271,1,0,0:0:0:0:
258,293,71440,6,0,B|272:246|272:246|258:195,1,93.5000028533936,2|0,0:0|0:0,0:0:0:0:
403,207,71777,1,8,0:0:0:0:
303,356,71945,2,0,P|231:367|189:265,1,187.000005706787,2|0,0:0|0:0,0:0:0:0:
219,136,72451,1,8,0:0:0:0:
313,243,72620,1,0,0:0:0:0:
136,220,72788,5,2,0:0:0:0:
248,331,72957,1,0,0:0:0:0:
299,159,73125,1,8,0:0:0:0:
67,284,73294,2,0,B|20:193|69:104,1,187.000005706787,2|0,0:0|0:0,0:0:0:0:
184,204,73799,1,8,0:0:0:0:
178,29,73968,1,0,0:0:0:0:
23,107,74136,6,0,L|134:101,1,93.5000028533936,6|0,0:0|0:0,0:0:0:0:
258,89,74474,1,8,0:0:0:0:
162,257,74642,2,0,B|151:208|151:208|161:165,1,93.5000028533936,0|2,0:0|0:0,0:0:0:0:
178,29,74979,1,2,0:0:0:0:
245,209,75148,1,8,0:0:0:0:
304,88,75316,6,0,B|340:76|340:76|375:92|375:92|421:66|500:97,1,187.000005706787,2|0,0:0|0:0,0:0:0:0:
426,210,75822,1,8,0:0:0:0:
374,15,75990,1,0,0:0:0:0:
322,208,76159,1,2,0:0:0:0:
482,90,76327,1,0,0:0:0:0:
262,88,76496,2,0,L|163:109,1,93.5000028533936,8|0,0:0|0:0,0:0:0:0:
20,204,76833,6,0,P|103:168|181:214,1,187.000005706787,2|8,0:0|0:0,0:0:0:0:
262,88,77339,1,0,0:0:0:0:
345,221,77507,2,0,L|222:245,1,93.5000028533936,2|0,0:0|0:0,0:0:0:0:
438,202,77844,1,8,0:0:0:0:
180,213,78013,6,0,P|201:296|307:294,1,187.000005706787,6|0,0:0|0:0,0:0:0:0:
282,156,78519,1,8,0:0:0:0:
366,325,78687,1,2,0:0:0:0:
393,158,78856,1,8,0:0:0:0:
257,247,79024,1,2,0:0:0:0:
477,245,79193,1,2,0:0:0:0:
472,207,79277,1,2,0:0:0:0:
467,170,79361,1,2,0:0:0:0:
462,133,79445,1,2,0:0:0:0:
457,98,79530,6,0,P|398:79|264:104,1,187.000005706787,6|8,0:0|0:0,0:0:0:0:
280,260,80035,1,2,0:0:0:0:
472,207,80204,1,0,0:0:0:0:
360,365,80372,2,0,L|373:264,1,93.5000028533936,2|8,0:0|0:0,0:0:0:0:
279,171,80710,1,2,0:0:0:0:
172,300,80878,5,0,0:0:0:0:
153,141,81047,1,0,0:0:0:0:
280,260,81215,2,0,L|381:274,1,93.5000028533936,8|0,0:0|0:0,0:0:0:0:
238,358,81552,1,2,0:0:0:0:
211,200,81721,1,0,0:0:0:0:
372,273,81889,2,0,P|360:206|374:127,1,140.25000428009,8|0,0:0|0:0,0:0:0:0:
422,78,82226,6,0,P|447:131|436:174,1,93.5000028533936,6|0,0:0|0:0,0:0:0:0:
372,273,82563,2,0,L|276:288,1,93.5000028533936,8|2,0:0|0:0,0:0:0:0:
93,251,82901,1,2,0:0:0:0:
238,163,83069,1,0,0:0:0:0:
152,357,83238,1,8,0:0:0:0:
51,186,83406,6,0,P|149:197|165:274,1,187.000005706787,2|2,0:0|0:0,0:0:0:0:
300,330,83912,2,0,L|314:229,1,93.5000028533936,8|2,0:0|0:0,0:0:0:0:
242,125,84249,1,2,0:0:0:0:
75,106,84417,1,0,0:0:0:0:
299,52,84586,1,8,0:0:0:0:
183,206,84754,1,0,0:0:0:0:
177,218,84839,1,0,0:0:0:0:
171,230,84923,6,0,B|185:376|185:376|222:324,1,187.000005706787,6|8,0:0|0:0,0:0:0:0:
281,241,85429,1,0,0:0:0:0:
93,184,85597,2,0,P|85:245|100:291,1,93.5000028533936,2|0,0:0|0:0,0:0:0:0:
216,159,85934,1,8,0:0:0:0:
242,335,86103,1,2,0:0:0:0:
157,109,86271,6,0,P|233:84|292:159,1,187.000005706787,6|8,0:0|0:0,0:0:0:0:
285,321,86777,1,0,0:0:0:0:
216,159,86945,1,2,0:0:0:0:
221,122,87029,1,2,0:0:0:0:
237,91,87113,1,2,0:0:0:0:
264,68,87197,1,2,0:0:0:0:
298,57,87282,1,2,0:0:0:0:
333,61,87366,1,2,0:0:0:0:
364,78,87450,1,2,0:0:0:0:
386,106,87534,1,2,0:0:0:0:
397,136,87620,6,0,L|378:328,1,187.000005706787,6|8,0:0|0:0,0:0:0:0:
229,268,88125,1,0,0:0:0:0:
387,227,88294,1,2,0:0:0:0:
306,367,88462,1,2,0:0:0:0:
304,207,88631,2,0,P|295:159|305:109,1,93.5000028533936,8|0,0:0|0:0,0:0:0:0:
137,228,88968,6,0,L|147:332,1,93.5000028533936,2|0,0:0|0:0,0:0:0:0:
220,144,89305,1,8,0:0:0:0:
64,204,89474,1,0,0:0:0:0:
220,144,89642,2,0,L|211:34,1,93.5000028533936,2|0,0:0|0:0,0:0:0:0:
70,22,89979,1,8,0:0:0:0:
133,168,90148,1,2,0:0:0:0:
2,101,90316,6,8,L|16:195,1,93.5000028533936,0|0,1:2|1:2,0:0:0:0:
212,50,90653,1,0,1:2:0:0:
52,30,90822,1,0,1:2:0:0:
98,259,90990,2,10,L|196:239,1,93.5000028533936,0|0,1:2|1:2,0:0:0:0:
117,73,91327,1,0,1:2:0:0:
34,203,91496,1,0,1:2:0:0:
264,164,91665,1,14,0:0:0:0:
264,164,92676,5,0,1:0:0:0:
260,192,92760,1,0,1:0:0:0:
257,220,92844,1,0,1:0:0:0:
254,248,92928,1,0,1:0:0:0:
250,273,93013,6,0,P|313:280|373:193,1,170,6|8,0:0|0:0,0:0:0:0:
161,256,93519,1,0,0:0:0:0:
188,113,93688,2,0,P|229:98|272:98,1,85
101,124,94024,1,8,0:0:0:0:
299,166,94193,6,0,B|338:138|338:138|371:52|274:12,1,170,2|0,0:0|0:0,0:0:0:0:
171,78,94698,1,8,0:0:0:0:
164,242,94867,2,0,B|155:378|155:378|192:349,1,170,2|2,0:0|0:0,0:0:0:0:
240,231,95372,1,8,0:0:0:0:
88,298,95541,1,2,0:0:0:0:
248,304,95710,6,0,B|290:298|329:322|329:322|369:344|430:323,1,170,6|8,0:0|0:0,0:0:0:0:
327,197,96215,2,0,L|332:76,1,85
444,101,96552,1,2,0:0:0:0:
404,234,96721,1,8,0:0:0:0:
255,185,96889,6,0,P|236:99|248:7,1,170,6|0,0:0|0:0,0:0:0:0:
152,102,97395,1,8,0:0:0:0:
166,222,97563,2,0,L|180:334,1,85,2|0,0:0|0:0,0:0:0:0:
371,239,97901,1,2,0:0:0:0:
271,182,98069,1,8,0:0:0:0:
348,359,98238,1,2,0:0:0:0:
348,359,98322,1,8,0:0:0:0:
348,359,98406,6,0,P|306:349|241:367,1,85,6|0,0:0|0:0,0:0:0:0:
133,374,98743,1,8,0:0:0:0:
138,239,98912,2,0,L|151:79,1,127.5,6|0,0:0|0:0,0:0:0:0:
153,73,99249,1,2,0:0:0:0:
45,228,99417,1,8,0:0:0:0:
236,206,99586,2,0,P|295:185|314:122,1,127.5,6|0,0:0|0:0,0:0:0:0:
308,82,99923,1,2,0:0:0:0:
370,230,100092,1,8,0:0:0:0:
240,129,100260,5,2,0:0:0:0:
237,114,100344,1,2,0:0:0:0:
235,99,100428,1,2,0:0:0:0:
233,84,100512,1,2,0:0:0:0:
230,70,100597,1,2,0:0:0:0:
228,55,100681,1,2,0:0:0:0:
226,42,100766,6,0,L|129:61,1,85,6|0,0:0|0:0,0:0:0:0:
57,153,101103,1,8,0:0:0:0:
144,334,101271,2,0,L|177:185,1,127.5,6|0,0:0|0:0,0:0:0:0:
180,174,101608,1,2,0:0:0:0:
280,278,101777,1,8,0:0:0:0:
294,111,101945,2,0,P|247:85|166:85,1,127.5,6|0,0:0|0:0,0:0:0:0:
136,89,102282,1,2,0:0:0:0:
121,254,102451,1,8,0:0:0:0:
264,238,102620,5,2,0:0:0:0:
278,236,102704,1,2,0:0:0:0:
293,234,102788,1,2,0:0:0:0:
308,232,102872,1,2,0:0:0:0:
322,230,102957,1,2,0:0:0:0:
337,228,103041,1,2,0:0:0:0:
351,226,103125,6,0,L|362:136,1,85,6|0,0:0|0:0,0:0:0:0:
373,34,103462,1,8,0:0:0:0:
460,148,103630,2,0,P|471:216|460:297,1,127.5,6|0,0:0|0:0,0:0:0:0:
451,310,103967,1,2,0:0:0:0:
328,373,104136,1,8,0:0:0:0:
147,289,104304,6,0,L|286:267,1,127.5,6|0,0:0|0:0,0:0:0:0:
310,279,104641,1,2,0:0:0:0:
386,167,104810,1,8,0:0:0:0:
224,172,104978,2,0,P|206:94|225:42,1,127.5,6|0,0:0|0:0,0:0:0:0:
234,14,105316,1,2,0:0:0:0:
118,112,105484,5,14,0:0:0:0:
378,148,105652,1,14,0:0:0:0:
