osu file format v14

[General]
AudioFilename: audio.mp3
AudioLeadIn: 0
PreviewTime: 67901
Countdown: 0
SampleSet: Soft
StackLeniency: 0.7
Mode: 0
LetterboxInBreaks: 0
WidescreenStoryboard: 1

[Editor]
Bookmarks: 49193,59979
DistanceSpacing: 1
BeatDivisor: 2
GridSize: 4
TimelineZoom: 0.9

[Metadata]
Title:Arcadia (Short ver.)
TitleUnicode:アルカディア (Short ver.)
Artist:Chitose Sara
ArtistUnicode:千歳サラ
Creator:joker-
Version:Easy
Source:11月のアルカディア
Tags:thzz __Ag 11gatsu no Juuichigatsu of November LevoL visual novel eroge opening
BeatmapID:1066932
BeatmapSetID:491559

[Difficulty]
HPDrainRate:2
CircleSize:3
OverallDifficulty:2
ApproachRate:3
SliderMultiplier:0.799999999999999
SliderTickRate:1

[Events]
//Background and Video events
0,0,"bg.jpg",0,0
Video,0,"Arcadia movie.avi"
//Break Periods
//Storyboard Layer 0 (Background)
//Storyboard Layer 1 (Fail)
//Storyboard Layer 2 (Pass)
//Storyboard Layer 3 (Foreground)
//Storyboard Sound Samples

[TimingPoints]
1328,337.078651685393,4,2,1,45,1,0
1328,-100,4,2,1,45,0,0
12788,-100,4,2,2,60,0,0
18856,-100,4,2,2,65,0,0
24249,-100,4,2,1,50,0,0
35035,-100,4,2,1,50,0,0
45822,-100,4,2,1,50,0,0
56608,-100,4,2,1,60,0,0
64698,-100,4,2,1,60,0,0
68743,-100,4,2,2,70,0,1
78013,-100,4,2,2,65,0,1
79530,-100,4,2,2,70,0,1
91665,-100,4,2,2,60,0,0
100766,337.078651685393,4,2,2,60,1,0
103125,337.078651685393,4,2,2,65,1,0
105484,337.078651685393,4,2,2,70,1,0

[Colours]
Combo1 : 255,85,85
Combo2 : 255,255,40
Combo3 : 145,145,255
Combo4 : 100,255,100

[HitObjects]
66,289,2676,6,0,B|103:266|160:272|196:312,1,120,2|2,0:0|0:0,0:0:0:0:
236,353,3519,1,0,0:0:0:0:
312,331,3856,2,0,P|335:294|323:209,1,120,2|2,0:0|0:0,0:0:0:0:
307,143,4698,2,0,P|294:103|304:61,1,79.9999999999999,2|0,0:0|0:0,0:0:0:0:
374,34,5372,6,0,P|438:25|493:78,2,120,2|2|2,0:0|0:0|0:0,0:0:0:0:
416,101,6721,2,0,L|412:199,1,79.9999999999999,2|0,0:0|0:0,0:0:0:0:
386,255,7395,2,0,P|337:272|287:254,1,79.9999999999999,2|2,0:0|0:0,0:0:0:0:
240,227,8069,6,0,L|265:95,1,120,2|2,0:0|0:0,0:0:0:0:
204,53,8912,1,2,0:0:0:0:
126,31,9249,2,0,P|81:75|80:160,1,120,2|2,0:0|0:0,0:0:0:0:
96,205,10092,2,0,L|188:228,1,79.9999999999999,2|2,0:0|0:0,0:0:0:0:
251,243,10766,5,2,0:0:0:0:
407,275,11440,2,0,B|466:268|509:218|509:218|480:139|398:121,1,240,0|0,0:0|0:0,0:0:0:0:
354,105,12788,1,8,0:0:0:0:
257,232,13462,6,0,L|248:118,1,79.9999999999999,6|8,0:0|0:0,0:0:0:0:
227,75,14136,2,0,P|190:28|123:15,2,120,2|2|8,0:0|0:0|0:0,0:0:0:0:
174,135,15485,2,0,P|143:171|90:185,1,79.9999999999999,2|8,0:0|0:0,0:0:0:0:
53,236,16159,6,0,B|62:284|117:318,1,79.9999999999999,2|8,0:0|0:0,0:0:0:0:
165,339,16833,2,0,P|224:336|309:359,2,120,2|4|8,0:0|0:0|0:0,0:0:0:0:
151,260,18181,2,0,P|200:254|249:261,1,79.9999999999999,2|8,0:0|0:0,0:0:0:0:
306,233,18856,6,0,B|316:193|316:193|303:157|303:157|313:116,1,120,6|6,0:0|0:0,0:0:0:0:
370,62,19698,1,0,0:0:0:0:
439,100,20035,2,0,P|467:167|470:212,1,79.9999999999999,6|0,0:0|0:0,0:0:0:0:
486,251,20710,2,0,P|429:264|355:244,1,120,6|8,0:0|0:0,0:0:0:0:
292,230,21552,6,0,L|262:329,1,79.9999999999999,14|10,0:0|0:0,0:0:0:0:
337,347,22226,2,0,P|399:369|455:342,2,120,14|14|14,0:0|0:0|0:0,0:0:0:0:
367,117,24249,6,0,P|389:170|371:243,1,120,2|2,0:0|0:0,0:0:0:0:
349,304,25092,1,2,0:0:0:0:
270,320,25429,2,0,P|223:312|181:325,1,79.9999999999999,0|0,0:0|0:0,0:0:0:0:
115,343,26103,2,0,P|61:373|-9:339,1,120,2|2,0:0|0:0,0:0:0:0:
55,293,26945,6,0,L|77:167,1,120,2|2,0:0|0:0,0:0:0:0:
71,94,27788,1,0,0:0:0:0:
140,55,28125,2,0,P|186:63|230:50,1,79.9999999999999,2|2,0:0|0:0,0:0:0:0:
291,23,28799,2,0,P|336:13|403:60,1,120,2|2,0:0|0:0,0:0:0:0:
446,112,29642,6,0,B|425:160|425:160|442:251,1,120,2|2,0:0|0:0,0:0:0:0:
454,304,30485,1,2,0:0:0:0:
375,320,30822,2,0,P|307:324|258:275,1,120,2|2,0:0|0:0,0:0:0:0:
244,217,31665,2,0,L|236:115,1,79.9999999999999,0|2,0:0|0:0,0:0:0:0:
202,65,32339,6,0,P|144:60|65:95,1,120,2|2,0:0|0:0,0:0:0:0:
32,138,33181,1,0,0:0:0:0:
26,218,33519,2,0,P|70:266|132:259,1,120,2|0,0:0|1:0,0:0:0:0:
201,259,34361,1,0,1:0:0:0:
255,200,34698,1,0,1:0:0:0:
295,130,35035,6,0,P|334:180|305:260,1,120,2|2,0:0|0:0,0:0:0:0:
294,305,35878,1,2,0:0:0:0:
238,362,36215,2,0,P|193:373|140:350,1,79.9999999999999,2|2,0:0|0:0,0:0:0:0:
91,325,36889,2,0,P|55:283|56:215,1,120,2|2,0:0|0:0,0:0:0:0:
61,140,37732,6,0,P|73:88|138:49,1,120,2|2,0:0|0:0,0:0:0:0:
204,36,38575,1,2,0:0:0:0:
266,88,38912,2,0,L|274:198,1,79.9999999999999,2|0,0:0|0:0,0:0:0:0:
288,246,39586,2,0,P|331:282|418:284,1,120,2|2,0:0|0:0,0:0:0:0:
469,267,40429,6,0,P|499:219|490:133,1,120,2|2,0:0|0:0,0:0:0:0:
449,93,41270,1,2,0:0:0:0:
372,116,41608,2,0,P|331:128|264:120,1,79.9999999999999,2|2,0:0|0:0,0:0:0:0:
223,90,42283,2,0,P|161:83|100:107,1,120,0|2,0:0|0:0,0:0:0:0:
40,145,43125,6,0,L|53:264,1,120,2|2,0:0|0:0,0:0:0:0:
90,335,43968,1,0,0:0:0:0:
168,320,44305,2,0,P|219:349|286:322,1,120,12|0,0:0|1:0,0:0:0:0:
318,265,45148,2,0,P|284:245|217:248,1,79.9999999999999,4|0,0:2|1:0,0:0:0:0:
164,233,45822,6,0,P|142:160|184:76,1,160,6|2,0:0|0:0,0:0:0:0:
239,40,46833,1,0,1:0:0:0:
303,87,47170,2,0,P|340:100|396:95,1,79.9999999999999,2|2,0:0|0:0,0:0:0:0:
459,95,47844,2,0,P|467:50|452:3,2,79.9999999999999,2|2|0,0:0|0:0|0:0,0:0:0:0:
446,174,48856,5,2,0:0:0:0:
366,180,49193,2,0,P|327:170|270:196,1,79.9999999999999,2|0,0:0|1:0,0:0:0:0:
220,221,49867,2,0,B|239:329|350:319,1,160,2|10,0:0|0:0,0:0:0:0:
401,290,50878,1,10,0:0:0:0:
443,220,51215,6,0,P|472:142|425:54,1,160,2|2,0:0|0:0,0:0:0:0:
383,22,52226,1,0,1:0:0:0:
308,51,52563,2,0,P|297:92|296:155,1,79.9999999999999,2|0,0:0|0:0,0:0:0:0:
311,207,53238,2,0,P|304:264|276:318,1,79.9999999999999,2|2,0:0|0:0,0:0:0:0:
229,328,53912,6,0,P|160:327|140:321,1,79.9999999999999,4|2,0:0|0:0,0:0:0:0:
72,304,54586,2,0,P|37:230|40:147,1,160,2|10,0:0|0:0,0:0:0:0:
58,75,55597,1,0,1:0:0:0:
134,53,55934,2,0,L|219:74,1,79.9999999999999,0|8,1:0|0:0,0:0:0:0:
289,52,56608,6,0,L|374:73,1,79.9999999999999,6|0,0:0|1:0,0:0:0:0:
398,144,57283,2,0,P|441:101|433:27,2,120,2|2|0,0:0|0:0|1:0,0:0:0:0:
336,195,58631,2,0,P|297:207|251:198,1,79.9999999999999,2|0,0:0|1:0,0:0:0:0:
199,148,59305,6,0,L|104:158,1,79.9999999999999,2|0,0:0|1:0,0:0:0:0:
67,217,59979,2,0,P|40:166|70:93,2,120,2|2|0,0:0|0:0|1:0,0:0:0:0:
131,264,61327,2,0,P|173:268|219:247,1,79.9999999999999,2|0,0:0|1:0,0:0:0:0:
272,207,62002,6,0,P|316:170|400:184,1,120,6|2,0:0|0:0,0:0:0:0:
444,210,62844,1,2,0:0:0:0:
480,280,63181,2,0,B|446:306|446:306|367:296,1,120,2|0,0:0|1:0,0:0:0:0:
289,293,64024,2,0,P|249:288|200:306,1,79.9999999999999,2|0,0:0|1:0,0:0:0:0:
155,242,64698,6,0,P|143:203|163:114,1,120,4|4,0:0|0:0,0:0:0:0:
256,192,65878,12,4,67395,0:0:0:0:
316,243,68743,6,0,P|266:226|186:280,1,120,6|2,0:0|0:0,0:0:0:0:
143,300,69586,1,2,0:0:0:0:
69,269,69923,2,0,L|98:150,1,120,2|8,0:0|0:0,0:0:0:0:
133,80,70766,2,0,P|177:69|216:82,1,79.9999999999999,2|8,0:0|0:0,0:0:0:0:
285,103,71440,6,0,P|354:113|420:54,2,160,2|2|2,0:0|0:0|0:0,0:0:0:0:
240,169,73125,1,8,0:0:0:0:
181,223,73462,2,0,P|180:271|188:302,1,79.9999999999999,2|8,0:0|0:0,0:0:0:0:
263,329,74136,6,0,P|319:296|338:227,1,120,6|0,0:0|0:0,0:0:0:0:
371,173,74979,1,2,0:0:0:0:
371,93,75316,2,0,P|301:81|248:122,1,120,2|8,0:0|0:0,0:0:0:0:
212,168,76159,2,0,L|224:255,1,79.9999999999999,2|8,0:0|0:0,0:0:0:0:
227,327,76833,6,0,P|186:340|117:328,1,79.9999999999999,2|8,0:0|0:0,0:0:0:0:
87,287,77507,2,0,P|64:235|93:161,2,120,2|6|8,0:0|0:0|0:0,0:0:0:0:
143,229,78856,2,0,P|169:193|225:175,1,79.9999999999999,8|2,0:0|0:0,0:0:0:0:
275,150,79530,6,0,P|339:165|408:126,1,120,6|2,0:0|0:0,0:0:0:0:
430,78,80372,1,2,0:0:0:0:
477,142,80710,2,0,P|489:190|466:259,1,120,2|8,0:0|0:0,0:0:0:0:
412,312,81552,2,0,P|389:265|405:212,1,79.9999999999999,2|8,0:0|0:0,0:0:0:0:
394,158,82226,6,0,P|357:137|298:149,1,79.9999999999999,6|8,0:0|0:0,0:0:0:0:
240,145,82901,2,0,P|163:158|106:142,2,120,2|2|8,0:0|0:0|0:0,0:0:0:0:
265,220,84249,2,0,P|269:273|305:315,1,79.9999999999999,2|8,0:0|0:0,0:0:0:0:
362,294,84923,6,0,P|392:211|363:123,1,160,6|2,0:0|0:0,0:0:0:0:
359,65,85934,1,8,0:0:0:0:
286,31,86271,2,0,L|189:40,2,79.9999999999999,6|8|2,0:0|0:0|0:0,0:0:0:0:
291,111,87283,1,2,0:0:0:0:
307,189,87620,6,0,P|315:237|303:294,1,79.9999999999999,6|8,0:0|0:0,0:0:0:0:
298,346,88294,2,0,P|246:352|192:334,1,79.9999999999999,2|8,0:0|0:0,0:0:0:0:
206,267,88968,1,2,0:0:0:0:
196,188,89305,2,0,P|158:177|106:193,1,79.9999999999999,8|2,0:0|0:0,0:0:0:0:
41,205,89979,1,8,0:0:0:0:
19,282,90316,6,0,P|11:334|35:375,1,79.9999999999999,0|0,1:2|1:2,0:0:0:0:
90,319,90990,2,0,P|131:331|177:311,1,79.9999999999999,0|0,1:2|1:2,0:0:0:0:
130,247,91665,1,14,0:0:0:0:
434,345,93013,6,0,P|446:303|452:245,1,79.9999999999999,6|8,0:0|0:0,0:0:0:0:
471,189,93687,2,0,P|487:130|463:58,2,120,0|2|8,0:0|0:0|0:0,0:0:0:0:
394,213,95035,2,0,P|353:208|302:224,1,79.9999999999999,2|8,0:0|0:0,0:0:0:0:
284,289,95710,6,0,B|246:312|179:286,1,79.9999999999999,6|8,0:0|0:0,0:0:0:0:
126,285,96384,2,0,P|100:234|102:152,1,120,0|6,0:0|0:0,0:0:0:0:
120,95,97226,1,0,0:0:0:0:
160,26,97563,2,0,L|281:70,1,120,2|8,0:0|0:0,0:0:0:0:
249,143,98406,6,0,P|233:199|247:268,1,120,6|6,0:0|0:0,0:0:0:0:
301,313,99249,1,2,0:0:0:0:
362,364,99586,2,0,P|382:314|312:233,1,160,6|2,0:0|0:0,0:0:0:0:
214,186,100766,6,0,P|230:128|209:62,1,120,6|6,0:0|0:0,0:0:0:0:
145,32,101608,1,2,0:0:0:0:
88,89,101945,2,0,B|59:193|59:193|96:253,1,160,6|2,0:0|0:0,0:0:0:0:
176,316,103125,6,0,P|206:336|290:313,1,120,6|6,0:0|0:0,0:0:0:0:
351,277,103967,1,2,0:0:0:0:
385,204,104304,2,0,P|387:155|344:35,1,160,6|6,0:0|0:0,0:0:0:0:
243,7,105484,5,14,0:0:0:0:
