osu file format v14

[General]
AudioFilename: audio.mp3
AudioLeadIn: 0
PreviewTime: 67895
Countdown: 0
SampleSet: None
StackLeniency: 0.7
Mode: 0
LetterboxInBreaks: 0
WidescreenStoryboard: 1

[Editor]
Bookmarks: 2680,13451,24238,35026,45814,56601,68738,93010,105649
DistanceSpacing: 1.5
BeatDivisor: 4
GridSize: 32
TimelineZoom: 1.2

[Metadata]
Title:Arcadia (Short Ver.)
TitleUnicode:アルカディア (Short Ver.)
Artist:Chitose Sara
ArtistUnicode:千歳サラ
Creator:Sharpay
Version:Suou's Insane
Source:11月のアルカディア
Tags:opening visual novel video game eroge jpop pop japanese j-pop levol female vocal vocalist op galgame 11gatsu no arcadia of november shirahane suou -_ex_- wanpachi cycopton
BeatmapID:2971550
BeatmapSetID:1383094

[Difficulty]
HPDrainRate:5
CircleSize:4
OverallDifficulty:8.5
ApproachRate:9
SliderMultiplier:1.6
SliderTickRate:1

[Events]
//Background and Video events
0,0,"BG.jpg",0,0
//Break Periods
//Storyboard Layer 0 (Background)
//Storyboard Layer 1 (Fail)
//Storyboard Layer 2 (Pass)
//Storyboard Layer 3 (Foreground)
//Storyboard Layer 4 (Overlay)
//Storyboard Sound Samples

[TimingPoints]
1828,340.909090909091,4,2,1,50,1,0
1828,-166.666666666667,4,2,1,50,0,0
2680,337.078651685393,4,2,1,50,1,0
2680,-166.666666666667,4,2,1,50,0,0
12792,329.67032967033,4,2,1,60,1,0
13451,337.116529947185,4,2,1,70,1,0
13451,-111.111111111111,4,2,1,70,0,0
19350,-111.111111111111,4,2,1,60,0,0
22721,-111.111111111111,4,2,1,70,0,0
24238,-142.857142857143,4,2,1,50,0,0
33509,-142.857142857143,4,2,1,60,0,0
35026,-125,4,2,1,60,0,0
45814,-125,4,2,1,70,0,0
56601,-111.111111111111,4,2,1,80,0,0
67389,-133.333333333333,4,2,1,80,0,0
67895,-133.333333333333,4,2,1,60,0,0
68738,-100,4,2,1,90,0,1
90313,-100,4,2,1,100,0,1
91746,-111.111111111111,4,2,1,100,0,0
91999,-111.111111111111,4,2,1,60,0,0
92504,-111.111111111111,4,2,1,90,0,0
93010,-111.111111111111,4,2,1,75,0,0
97393,342.857142857143,4,2,1,75,1,0
97393,-111.111111111111,4,2,1,75,0,0
98078,331.491712707182,4,2,1,75,1,0
98409,335.195530726257,4,2,1,90,1,0
98409,-111.111111111111,4,2,1,90,0,0
100755,335.195530726257,4,2,1,90,1,0
100755,-111.111111111111,4,2,1,90,0,0
103101,335.195530726257,4,2,1,90,1,0
104274,361.44578313253,4,2,1,90,1,0
105481,337.078651685393,4,2,1,90,1,0

[Colours]
Combo1 : 217,159,225
Combo2 : 224,152,71
Combo3 : 152,218,135
Combo4 : 236,74,86

[HitObjects]
130,328,1828,6,0,P|136:281|144:234,1,95.9999970703126,2|2,0:0|0:0,0:0:0:0:
194,168,2339,2,0,P|190:144|186:120,1,47.9999985351563,2|2,0:0|0:0,0:0:0:0:
123,26,2680,6,0,P|168:35|210:12,1,95.9999970703126,2|2,0:0|0:0,0:0:0:0:
293,49,3185,1,2,0:0:0:0:
293,49,3522,2,0,P|286:72|283:95,1,47.9999985351563,2|0,0:0|0:0,0:0:0:0:
305,190,3859,2,0,P|346:166|392:175,1,95.9999970703126,2|0,0:0|0:0,0:0:0:0:
464,227,4365,1,2,0:0:0:0:
420,384,4702,1,2,0:0:0:0:
512,303,5039,1,2,0:0:0:0:
358,269,5376,6,0,P|310:276|263:284,1,95.9999970703126,2|2,0:0|0:0,0:0:0:0:
184,322,5882,2,0,P|229:269|216:200,1,143.999995605469,2|0,0:0|0:0,0:0:0:0:
143,54,6724,2,0,P|95:61|48:67,1,95.9999970703126,2|2,0:0|0:0,0:0:0:0:
0,162,7230,2,0,P|46:153|87:176,1,95.9999970703126,2|2,0:0|0:0,0:0:0:0:
128,250,7736,2,0,P|121:273|118:296,1,47.9999985351563,2|2,0:0|0:0,0:0:0:0:
82,384,8073,6,0,P|129:376|176:370,1,95.9999970703126,2|2,0:0|0:0,0:0:0:0:
240,310,8578,1,2,0:0:0:0:
240,310,8915,2,0,P|263:313|286:319,1,47.9999985351563,2|0,0:0|0:0,0:0:0:0:
367,384,9253,2,0,P|373:336|380:289,1,95.9999970703126,2|0,0:0|0:0,0:0:0:0:
436,216,9758,1,2,0:0:0:0:
338,93,10095,1,2,0:0:0:0:
192,161,10432,1,2,0:0:0:0:
102,56,10769,6,0,B|190:31|190:31|236:74,1,143.999995605469,2|2,0:0|0:0,0:0:0:0:
292,175,11444,1,2,0:0:0:0:
256,192,11528,12,0,12623,0:0:0:0:
248,244,12792,5,8,0:0:0:0:
353,95,12956,2,0,L|340:8,1,80,8|0,0:0|1:2,0:0:0:0:
172,117,13286,1,0,1:2:0:0:
172,117,13368,1,0,1:2:0:0:
172,117,13451,6,0,L|251:128,1,71.9999978027344,4|0,1:2|0:0,0:0:0:0:
367,211,13788,2,0,P|319:194|243:256,1,143.999995605469,8|0,0:0|1:2,0:0:0:0:
188,363,14293,1,0,1:2:0:0:
152,249,14462,1,8,0:0:0:0:
289,340,14630,6,0,L|442:321,1,143.999995605469,0|0,1:2|1:2,0:0:0:0:
328,243,15136,1,8,0:0:0:0:
424,99,15305,2,0,B|459:145|459:145|417:245,1,143.999995605469,0|0,1:2|1:2,0:0:0:0:
338,71,15810,1,8,0:0:0:0:
457,19,15979,1,0,1:2:0:0:
354,161,16147,6,0,L|267:152,1,71.9999978027344,4|0,1:2|0:0,0:0:0:0:
144,77,16485,2,0,P|194:124|180:192,1,143.999995605469,8|0,0:0|0:0,0:0:0:0:
206,356,16990,1,0,1:2:0:0:
115,284,17159,1,8,0:0:0:0:
266,258,17327,6,0,L|425:280,1,143.999995605469,4|0,1:2|1:2,0:0:0:0:
303,355,17833,1,8,0:0:0:0:
355,187,18002,2,0,B|382:130|334:88|334:88|320:118,1,143.999995605469,0|0,1:2|0:0,0:0:0:0:
207,166,18507,1,8,0:0:0:0:
224,168,18591,1,8,0:0:0:0:
242,170,18675,1,8,0:0:0:0:
218,10,18844,6,0,L|230:88,1,71.9999978027344,4|0,1:2|1:2,0:0:0:0:
125,202,19181,1,8,0:0:0:0:
18,84,19350,2,0,P|85:67|138:112,1,143.999995605469,4|0,1:2|1:2,0:0:0:0:
11,203,19856,1,8,0:0:0:0:
102,344,20024,6,0,L|127:188,1,143.999995605469,4|0,1:2|1:2,0:0:0:0:
229,81,20530,1,8,0:0:0:0:
359,198,20699,2,0,P|291:181|238:226,1,143.999995605469,4|0,1:2|1:2,0:0:0:0:
227,384,21204,1,8,3:0:0:0:
314,278,21373,1,8,3:0:0:0:
152,292,21541,5,12,1:2:0:0:
323,370,21710,1,0,1:2:0:0:
239,225,21878,5,8,1:2:0:0:
123,377,22047,1,0,1:2:0:0:
122,185,22216,5,8,1:2:0:0:
234,306,22384,1,0,1:2:0:0:
208,130,22553,1,8,1:2:0:0:
44,275,22721,6,0,L|27:148,1,107.999996704102,4|0,1:2|0:0,0:0:0:0:
21,123,23058,1,8,1:2:0:0:
152,292,23227,1,8,1:2:0:0:
152,292,23733,1,0,1:2:0:0:
239,263,23901,1,8,1:2:0:0:
245,279,23985,1,8,1:2:0:0:
245,297,24069,1,8,1:2:0:0:
170,203,24238,6,0,L|181:134,1,55.9999982910157,6|0,0:0|0:0,0:0:0:0:
229,63,24575,1,0,0:0:0:0:
229,63,24912,1,0,0:0:0:0:
229,63,25250,1,2,0:0:0:0:
329,128,25418,1,2,1:2:0:0:
390,32,25587,5,2,0:0:0:0:
390,32,25924,1,2,0:0:0:0:
390,32,26261,1,2,0:0:0:0:
390,32,26598,1,2,0:0:0:0:
483,122,26767,1,0,1:2:0:0:
385,193,26935,6,0,L|320:181,1,55.9999982910157,2|0,0:0|0:0,0:0:0:0:
219,158,27272,1,2,0:0:0:0:
219,158,27609,1,2,0:0:0:0:
219,158,27947,1,2,0:0:0:0:
121,202,28115,1,0,1:2:0:0:
252,273,28284,5,2,0:0:0:0:
252,273,28621,1,2,0:0:0:0:
252,273,28958,1,2,0:0:0:0:
252,273,29295,1,2,0:0:0:0:
167,361,29464,1,0,1:2:0:0:
110,261,29632,6,0,L|126:180,1,55.9999982910157,2|0,0:0|0:0,0:0:0:0:
151,117,29969,1,2,0:0:0:0:
151,117,30306,1,0,0:0:0:0:
151,117,30643,1,2,0:0:0:0:
38,210,30812,1,2,1:2:0:0:
223,187,30981,5,2,0:0:0:0:
223,187,31318,1,2,0:0:0:0:
223,187,31655,1,2,0:0:0:0:
223,187,31992,1,2,0:0:0:0:
278,299,32160,1,2,1:2:0:0:
362,184,32329,6,0,L|380:60,1,111.999996582031,2|2,1:2|0:0,0:0:0:0:
246,77,32835,2,0,P|190:92|143:63,1,111.999996582031,2|2,1:2|0:0,0:0:0:0:
0,171,33340,1,2,0:0:0:0:
47,0,33509,6,0,L|65:121,1,111.999996582031,6|0,1:2|1:2,0:0:0:0:
111,303,34015,5,8,0:0:0:0:
180,148,34183,1,0,1:2:0:0:
209,340,34352,5,8,0:0:0:0:
99,211,34520,1,0,1:2:0:0:
231,241,34689,5,8,0:0:0:0:
214,243,34773,1,8,3:0:0:0:
196,245,34857,1,8,3:0:0:0:
306,310,35026,6,0,L|448:295,1,128,6|2,1:2|1:2,0:0:0:0:
471,202,35532,2,0,L|406:208,1,64,2|0,0:0|1:2,0:0:0:0:
333,105,35869,2,0,L|397:111,1,64,2|0,0:0|1:2,0:0:0:0:
307,195,36206,1,2,0:0:0:0:
230,126,36374,6,0,L|248:-2,2,128,0|0|0,1:2|1:2|1:2,0:0:0:0:
132,139,37217,2,0,L|144:49,1,64,2|2,0:0|1:2,0:0:0:0:
39,181,37554,1,10,0:0:0:0:
176,226,37723,6,0,L|311:203,1,128,2|2,1:2|1:2,0:0:0:0:
395,122,38229,2,0,L|382:200,1,64,2|0,0:0|1:2,0:0:0:0:
500,245,38566,2,0,L|489:181,1,64,2|0,0:0|1:2,0:0:0:0:
403,271,38903,1,2,0:0:0:0:
512,353,39071,6,0,P|464:342|398:391,2,128,0|0|0,1:2|1:2|1:2,0:0:0:0:
302,235,40083,1,2,1:2:0:0:
301,362,40251,1,8,0:0:0:0:
403,271,40420,6,0,L|384:138,1,128,2|2,1:2|1:2,0:0:0:0:
301,122,40925,2,0,L|237:133,1,64,2|0,0:0|1:2,0:0:0:0:
152,184,41263,2,0,L|141:120,1,64,2|0,0:0|1:2,0:0:0:0:
0,204,41600,6,0,L|62:216,1,64,2|0,0:0|1:2,0:0:0:0:
171,286,41936,1,2,0:0:0:0:
171,286,42105,2,0,P|131:283|92:359,1,128,2|0,1:2|1:2,0:0:0:0:
180,376,42611,2,0,L|252:362,1,64,2|2,0:0|1:2,0:0:0:0:
367,270,42948,1,10,0:0:0:0:
284,151,43117,6,0,L|265:289,1,128,6|2,1:2|1:2,0:0:0:0:
358,368,43622,2,0,L|428:353,1,64,6|0,1:2|0:0,0:0:0:0:
512,245,43960,1,2,1:2:0:0:
512,363,44128,1,10,0:0:0:0:
396,263,44297,6,0,L|419:124,1,128,6|0,1:2|1:2,0:0:0:0:
503,9,44802,5,8,0:0:0:0:
341,66,44971,1,0,1:2:0:0:
512,114,45139,5,10,0:0:0:0:
403,0,45308,1,0,1:2:0:0:
320,143,45477,5,10,0:0:0:0:
322,160,45561,1,8,3:0:0:0:
324,178,45645,1,8,3:0:0:0:
464,233,45814,6,0,L|390:251,1,64,6|0,1:2|0:0,0:0:0:0:
336,323,46151,2,0,L|398:338,1,64,0|2,1:2|0:0,0:0:0:0:
468,225,46488,2,0,L|394:243,1,64,2|0,1:2|0:0,0:0:0:0:
239,288,46825,1,8,0:0:0:0:
239,288,47162,6,0,L|251:216,1,64,2|0,1:2|0:0,0:0:0:0:
147,170,47499,2,0,L|157:233,1,64,2|0,1:2|0:0,0:0:0:0:
292,139,47836,2,0,P|262:128|230:131,1,64,2|0,1:2|0:0,0:0:0:0:
157,233,48174,1,2,1:2:0:0:
230,131,48342,1,8,0:0:0:0:
75,79,48511,6,0,L|-3:92,1,64,0|0,1:2|0:0,0:0:0:0:
0,181,48848,2,0,L|63:170,1,64,2|0,1:2|0:0,0:0:0:0:
80,72,49185,2,0,L|2:85,1,64,2|0,1:2|0:0,0:0:0:0:
47,265,49522,1,8,0:0:0:0:
47,265,49859,6,0,L|110:254,1,64,0|0,1:2|0:0,0:0:0:0:
215,181,50196,2,0,L|204:244,1,64,0|0,1:2|0:0,0:0:0:0:
141,357,50533,1,2,1:2:0:0:
204,244,50702,1,8,0:0:0:0:
244,358,50870,1,2,1:2:0:0:
110,254,51039,1,8,0:0:0:0:
306,225,51208,6,0,L|295:288,1,64,2|0,1:2|0:0,0:0:0:0:
389,383,51545,2,0,L|378:319,1,64,0|2,1:2|0:0,0:0:0:0:
301,222,51882,2,0,L|290:285,1,64,2|0,1:2|0:0,0:0:0:0:
390,174,52219,1,8,0:0:0:0:
390,174,52556,6,0,L|379:110,1,64,2|0,1:2|0:0,0:0:0:0:
299,17,52893,2,0,L|362:27,1,64,2|0,1:2|0:0,0:0:0:0:
512,54,53230,2,0,L|448:64,1,64,2|8,1:2|0:0,0:0:0:0:
390,174,53567,1,2,1:2:0:0:
448,64,53736,1,8,0:0:0:0:
501,210,53904,6,0,L|488:278,1,64,4|0,1:2|0:0,0:0:0:0:
396,364,54242,2,0,L|383:301,1,64,2|8,1:2|0:0,0:0:0:0:
295,198,54579,1,2,1:2:0:0:
243,322,54747,1,0,1:2:0:0:
186,178,54916,1,8,0:0:0:0:
66,384,55253,5,0,1:2:0:0:
66,384,55422,1,0,1:2:0:0:
93,225,55590,5,8,0:0:0:0:
154,367,55759,1,0,1:2:0:0:
186,178,55927,5,8,0:0:0:0:
37,296,56096,1,10,0:0:0:0:
37,296,56180,1,8,0:0:0:0:
37,296,56264,2,0,L|74:306,3,32,10|8|10|8,0:0|0:0|0:0|0:0,0:0:0:0:
154,367,56601,6,0,P|178:334|288:342,1,143.999995605469,6|8,1:2|0:0,0:0:0:0:
407,240,57107,1,2,0:0:0:0:
320,154,57276,2,0,L|304:236,1,71.9999978027344,2|2,1:2|1:2,0:0:0:0:
414,148,57613,1,10,0:0:0:0:
284,50,57781,6,0,P|235:40|157:99,1,143.999995605469,2|0,1:2|1:2,0:0:0:0:
38,168,58287,2,0,L|108:181,1,71.9999978027344,8|0,0:0|0:0,0:0:0:0:
209,297,58624,1,2,1:2:0:0:
209,297,58793,1,2,1:2:0:0:
93,352,58961,2,0,L|106:282,1,71.9999978027344,10|2,0:0|1:2,0:0:0:0:
229,189,59298,6,0,L|371:216,1,143.999995605469,2|8,1:2|0:0,0:0:0:0:
496,298,59804,1,2,0:0:0:0:
388,384,59973,2,0,L|401:314,1,71.9999978027344,2|2,1:2|1:2,0:0:0:0:
465,212,60310,1,10,0:0:0:0:
314,303,60478,6,0,P|276:314|194:256,1,143.999995605469,2|0,1:2|1:2,0:0:0:0:
272,151,60984,2,0,L|282:247,1,71.9999978027344,8|0,0:0|0:0,0:0:0:0:
171,168,61321,1,2,1:2:0:0:
171,168,61490,1,2,1:2:0:0:
230,65,61658,2,0,P|263:53|299:58,1,71.9999978027344,10|2,0:0|1:2,0:0:0:0:
423,147,61995,6,0,L|401:293,1,143.999995605469,6|8,1:2|0:0,0:0:0:0:
316,384,62501,2,0,L|305:311,1,71.9999978027344,2|0,0:0|1:2,0:0:0:0:
199,245,62838,1,2,1:2:0:0:
222,360,63007,1,8,0:0:0:0:
274,176,63175,6,0,P|241:149|132:174,1,143.999995605469,2|2,1:2|1:2,0:0:0:0:
36,257,63681,2,0,L|48:178,1,71.9999978027344,8|2,0:0|0:0,0:0:0:0:
16,45,64018,2,0,P|51:67|89:64,1,71.9999978027344,0|0,1:2|1:2,0:0:0:0:
198,7,64355,1,10,0:0:0:0:
198,7,64524,1,2,1:2:0:0:
267,151,64692,6,0,B|171:136|171:136|205:103,1,143.999995605469,6|10,1:2|0:0,0:0:0:0:
347,21,65198,2,0,L|368:177,1,143.999995605469,6|2,1:2|1:2,0:0:0:0:
476,228,65704,1,10,0:0:0:0:
315,274,65872,6,0,P|362:267|416:344,1,143.999995605469,6|0,1:2|1:2,0:0:0:0:
250,358,66378,5,8,0:0:0:0:
242,189,66546,1,2,1:2:0:0:
150,353,66715,5,8,0:0:0:0:
315,274,66883,1,0,1:2:0:0:
155,239,67052,5,8,0:0:0:0:
137,241,67136,1,8,3:0:0:0:
119,243,67220,1,8,3:0:0:0:
101,245,67304,1,8,3:0:0:0:
83,247,67389,5,8,3:0:0:0:
83,247,67895,6,0,L|97:122,1,120.000004577637,2|2,0:0|0:0,0:0:0:0:
118,38,68400,2,0,P|77:36|50:49,1,60.0000022888184,2|2,0:0|0:0,0:0:0:0:
189,109,68738,6,0,L|282:96,1,80,6|0,1:2|0:0,0:0:0:0:
440,177,69075,1,10,0:0:0:0:
375,0,69243,2,0,L|349:167,1,160,2|2,1:2|1:2,0:0:0:0:
347,359,69749,1,8,0:0:0:0:
483,271,69918,1,2,0:0:0:0:
293,243,70086,6,0,L|168:263,1,120,0|0,1:2|0:0,0:0:0:0:
140,271,70423,2,0,L|128:178,1,80,10|0,0:0|1:2,0:0:0:0:
178,25,70760,1,2,0:0:0:0:
228,164,70929,1,0,1:2:0:0:
86,101,71097,2,0,P|47:93|9:105,1,80,10|0,0:0|0:0,0:0:0:0:
62,288,71435,6,0,L|152:268,1,80,2|0,1:2|0:0,0:0:0:0:
259,372,71772,1,10,0:0:0:0:
371,223,71940,2,0,B|340:270|340:270|381:378,1,160,2|0,1:2|1:2,0:0:0:0:
482,224,72446,2,0,L|468:145,1,80,8|0,0:0|0:0,0:0:0:0:
373,15,72783,6,0,P|344:58|240:53,1,160,0|8,1:2|0:0,0:0:0:0:
95,173,73289,2,0,L|189:188,1,80,2|0,1:2|0:0,0:0:0:0:
313,300,73626,1,2,1:2:0:0:
161,334,73794,1,10,0:0:0:0:
270,193,73963,1,2,0:0:0:0:
410,360,74131,6,0,L|424:270,1,80,6|0,1:2|0:0,0:0:0:0:
495,86,74469,1,10,0:0:0:0:
337,122,74637,2,0,P|365:170|480:154,1,160,2|2,1:2|1:2,0:0:0:0:
337,23,75143,1,8,0:0:0:0:
260,178,75311,1,2,0:0:0:0:
166,13,75480,6,0,B|195:45|195:45|176:127,1,120,0|0,1:2|0:0,0:0:0:0:
155,146,75817,2,0,L|171:242,1,80,10|0,0:0|1:2,0:0:0:0:
273,347,76153,1,2,0:0:0:0:
260,178,76322,1,0,1:2:0:0:
122,314,76491,2,0,L|27:303,1,80,10|0,0:0|0:0,0:0:0:0:
0,83,76828,6,0,P|51:56|109:70,1,120,2|0,1:2|0:0,0:0:0:0:
141,91,77166,2,0,L|158:-1,1,80,8|2,0:0|1:2,0:0:0:0:
215,190,77503,1,2,0:0:0:0:
72,153,77671,1,0,1:2:0:0:
241,87,77840,1,8,0:0:0:0:
121,252,78008,6,0,L|138:351,1,80,4|0,1:2|0:0,0:0:0:0:
311,244,78345,1,0,1:2:0:0:
157,121,78514,5,8,0:0:0:0:
237,314,78683,1,0,1:2:0:0:
307,153,78851,5,8,0:0:0:0:
121,252,79020,1,0,1:2:0:0:
241,87,79188,5,10,0:0:0:0:
411,223,79357,1,8,3:0:0:0:
411,223,79441,1,8,3:0:0:0:
411,223,79525,6,0,L|428:138,1,80,6|0,1:2|0:0,0:0:0:0:
332,21,79862,1,10,0:0:0:0:
223,168,80031,2,0,P|146:177|93:122,1,160,2|2,1:2|1:2,0:0:0:0:
247,51,80537,1,8,0:0:0:0:
328,174,80705,6,0,P|316:253|307:332,1,160,2|0,1:2|1:2,0:0:0:0:
161,384,81211,2,0,P|174:341|148:289,1,80,10|0,0:0|0:0,0:0:0:0:
3,206,81548,1,2,1:2:0:0:
75,346,81717,1,0,1:2:0:0:
184,207,81885,2,0,L|82:230,1,80,8|0,0:0|0:0,0:0:0:0:
0,66,82222,6,0,P|33:105|145:90,1,160,2|8,1:2|0:0,0:0:0:0:
291,0,82728,1,2,1:2:0:0:
239,139,82897,2,0,L|223:53,1,80,2|0,0:0|1:2,0:0:0:0:
344,159,83234,1,8,0:0:0:0:
187,254,83402,6,0,P|262:237|321:288,1,160,2|0,0:0|1:2,0:0:0:0:
495,333,83908,2,0,L|512:245,1,80,8|0,0:0|0:0,0:0:0:0:
500,55,84245,1,0,1:2:0:0:
416,197,84414,1,0,1:2:0:0:
322,67,84582,2,0,L|409:80,1,80,10|0,0:0|0:0,0:0:0:0:
218,117,84919,6,0,P|201:76|217:27,1,80,6|0,1:2|0:0,0:0:0:0:
308,182,85256,2,0,L|295:269,1,80,8|0,0:0|1:2,0:0:0:0:
147,375,85593,1,2,0:0:0:0:
175,220,85762,1,2,1:2:0:0:
252,359,85931,2,0,P|289:371|327:362,1,80,10|0,0:0|0:0,0:0:0:0:
432,200,86268,5,6,1:2:0:0:
432,200,86436,1,4,1:2:0:0:
296,261,86605,5,10,0:0:0:0:
394,109,86773,1,0,1:2:0:0:
402,301,86942,5,10,0:0:0:0:
285,122,87110,1,8,0:0:0:0:
287,141,87194,1,8,0:0:0:0:
290,161,87278,1,10,0:0:0:0:
468,44,87448,1,10,0:0:0:0:
468,44,87532,1,8,0:0:0:0:
468,44,87616,6,0,P|430:11|310:49,2,160,4|12|0,1:2|0:0|1:2,0:0:0:0:
372,186,88459,1,0,1:2:0:0:
239,53,88627,2,0,L|154:63,1,80,8|0,0:0|0:0,0:0:0:0:
21,188,88965,6,0,B|64:150|64:150|41:47,2,160,0|8|0,1:2|0:0|1:2,0:0:0:0:
184,264,89807,1,0,1:2:0:0:
62,363,89976,2,0,L|83:257,1,80,10|2,0:0|0:0,0:0:0:0:
222,175,90313,5,14,0:0:0:0:
160,355,90482,1,10,0:0:0:0:
119,174,90650,1,10,0:0:0:0:
289,245,90819,1,10,0:0:0:0:
203,80,90987,5,10,0:0:0:0:
184,264,91156,1,10,0:0:0:0:
315,136,91324,1,10,0:0:0:0:
108,80,91493,1,10,0:0:0:0:
289,245,91662,5,14,0:0:0:0:
289,245,92504,1,0,1:2:0:0:
376,209,92673,1,10,0:0:0:0:
393,211,92757,1,8,0:0:0:0:
411,214,92841,1,10,0:0:0:0:
429,216,92925,1,8,0:0:0:0:
447,219,93010,6,0,L|463:311,1,71.9999978027344,4|0,1:2|0:0,0:0:0:0:
371,384,93347,2,0,P|316:341|248:359,1,143.999995605469,12|0,0:0|1:2,0:0:0:0:
153,254,93853,1,0,1:2:0:0:
137,384,94021,1,8,0:0:0:0:
249,258,94190,6,0,L|233:107,1,143.999995605469,0|0,1:2|1:2,0:0:0:0:
160,8,94696,1,8,0:0:0:0:
22,70,94864,2,0,P|76:112|144:94,1,143.999995605469,0|0,0:0|1:2,0:0:0:0:
314,135,95370,1,8,0:0:0:0:
243,15,95538,1,0,1:2:0:0:
160,181,95707,6,0,L|167:252,1,71.9999978027344,4|0,1:2|0:0,0:0:0:0:
286,347,96044,2,0,B|244:319|244:319|262:218,1,143.999995605469,8|0,0:0|1:2,0:0:0:0:
345,111,96550,1,0,1:2:0:0:
365,235,96718,1,8,0:0:0:0:
242,137,96887,6,0,P|174:127|123:174,1,143.999995605469,4|0,1:2|1:2,0:0:0:0:
42,281,97393,1,8,0:0:0:0:
174,353,97564,2,0,L|326:328,1,143.999995605469,0|0,0:0|1:2,0:0:0:0:
451,270,98078,1,8,0:0:0:0:
355,163,98243,1,8,0:0:0:0:
355,163,98326,1,8,0:0:0:0:
355,163,98409,6,0,L|366:242,1,71.9999978027344,4|0,1:2|1:2,0:0:0:0:
456,130,98744,1,8,0:0:0:0:
355,62,98911,2,0,B|275:47|298:107|219:91,1,143.999995605469,4|0,1:2|1:2,0:0:0:0:
61,146,99414,1,8,0:0:0:0:
121,7,99582,6,0,L|143:161,1,143.999995605469,4|0,1:2|1:2,0:0:0:0:
176,289,100084,1,8,0:0:0:0:
289,226,100252,1,4,1:2:0:0:
289,226,100336,1,0,0:0:0:0:
289,226,100420,2,0,L|228:216,3,35.9999989013672,8|8|8|8,3:0|3:0|3:0|3:0,0:0:0:0:
223,210,100755,6,0,L|236:137,1,71.9999978027344,4|0,1:2|1:2,0:0:0:0:
293,2,101090,1,8,0:0:0:0:
409,104,101257,2,0,P|461:105|484:24,1,143.999995605469,4|0,1:2|1:2,0:0:0:0:
315,89,101760,1,8,0:0:0:0:
428,232,101928,6,0,P|385:225|312:300,1,143.999995605469,4|0,1:2|1:2,0:0:0:0:
170,193,102430,1,12,0:0:0:0:
197,337,102598,1,12,2:3:0:0:
197,337,102682,1,8,3:0:0:0:
197,337,102766,2,0,L|208:293,3,35.9999989013672,8|8|8|8,3:0|3:0|3:0|3:0,0:0:0:0:
217,270,103101,6,0,L|122:292,1,80,4|0,1:2|1:2,0:0:0:0:
0,213,103436,1,8,0:0:0:0:
115,117,103603,2,0,B|152:62|91:8|91:8|79:41,1,160,4|0,1:2|1:2,0:0:0:0:
170,193,104106,1,8,0:0:0:0:
275,32,104274,6,0,B|236:77|236:77|274:200,1,160,4|8,1:2|0:0,0:0:0:0:
313,250,104725,1,8,3:0:0:0:
313,250,104816,2,0,L|255:267,1,40,8|8,3:0|3:0,0:0:0:0:
176,318,104996,1,8,3:0:0:0:
176,318,105087,1,8,3:0:0:0:
176,318,105177,2,0,L|234:335,2,40,8|8|8,3:0|3:0|3:0,0:0:0:0:
170,193,105481,5,4,1:2:0:0:
325,369,105649,1,4,1:2:0:0:
