osu file format v14

[General]
AudioFilename: audio.mp3
AudioLeadIn: 0
PreviewTime: 67895
Countdown: 0
SampleSet: Soft
StackLeniency: 0.4
Mode: 0
LetterboxInBreaks: 0
WidescreenStoryboard: 1

[Editor]
DistanceSpacing: 1.6
BeatDivisor: 4
GridSize: 32
TimelineZoom: 3.199999

[Metadata]
Title:Arcadia (Short Ver.)
TitleUnicode:アルカディア (Short Ver.)
Artist:Chitose Sara
ArtistUnicode:千歳サラ
Creator:Sharpay
Version:Ex's Hard
Source:11月のアルカディア
Tags:opening visual novel video game eroge jpop pop japanese j-pop levol female vocal vocalist op galgame 11gatsu no arcadia of november shirahane suou -_ex_- wanpachi cycopton
BeatmapID:2874511
BeatmapSetID:1383094

[Difficulty]
HPDrainRate:5
CircleSize:3.5
OverallDifficulty:6
ApproachRate:8
SliderMultiplier:1.4
SliderTickRate:1

[Events]
//Background and Video events
0,0,"BG.jpg",0,0
//Break Periods
//Storyboard Layer 0 (Background)
//Storyboard Layer 1 (Fail)
//Storyboard Layer 2 (Pass)
//Storyboard Layer 3 (Foreground)
//Storyboard Layer 4 (Overlay)
//Storyboard Sound Samples

[TimingPoints]
1828,340.909090909091,4,2,1,50,1,0
1828,-125,4,2,1,50,0,0
2680,337.078651685393,4,2,1,50,1,0
2680,-125,4,2,1,50,0,0
12792,329.67032967033,4,2,1,60,1,0
13451,337.116529947185,4,2,1,70,1,0
13451,-100,4,2,1,70,0,0
19350,-90.9090909090909,4,2,1,60,0,0
22721,-100,4,2,1,70,0,0
24238,-125,4,2,1,50,0,0
33509,-117.647058823529,4,2,1,60,0,0
35026,-111.111111111111,4,2,1,60,0,0
45814,-117.647058823529,4,2,1,70,0,0
53904,-111.111111111111,4,2,1,70,0,0
55590,-111.111111111111,4,2,1,70,0,0
56601,-100,4,2,1,80,0,0
67895,-125,4,2,1,60,0,0
68738,-90.9090909090909,4,2,1,90,0,0
86942,-90.9090909090909,4,2,1,90,0,0
87110,-90.9090909090909,4,2,1,90,0,0
90313,-90.9090909090909,4,2,1,100,0,0
91999,-90.9090909090909,4,2,1,60,0,0
92504,-90.9090909090909,4,2,1,90,0,0
93010,-100,4,2,1,75,0,0
97393,342.857142857143,4,2,1,75,1,0
98078,331.491712707182,4,2,1,75,1,0
98409,335.195530726257,4,2,1,90,1,0
98911,-90.9090909090909,4,2,1,90,0,0
100755,335.195530726257,4,2,1,90,1,0
101257,-90.9090909090909,4,2,1,90,0,0
103101,335.195530726257,4,2,1,90,1,0
103101,-90.9090909090909,4,2,1,90,0,0
104274,361.44578313253,4,2,1,90,1,0
104274,-90.9090909090909,4,2,1,90,0,0
105267,-90.9090909090909,4,2,1,90,0,0
105481,337.078651685393,4,2,1,90,1,0

[Colours]
Combo1 : 217,159,225
Combo2 : 224,152,71
Combo3 : 152,218,135
Combo4 : 236,74,86

[HitObjects]
12,121,1828,6,0,P|71:112|116:144,1,112,2|2,0:0|0:0,0:0:0:0:
161,214,2339,2,0,P|151:263|148:281,1,56,2|2,0:0|0:0,0:0:0:0:
182,353,2680,6,0,P|249:338|292:329,1,112,2|2,0:0|0:0,0:0:0:0:
345,258,3185,2,0,P|412:273|455:282,1,112,2|2,0:0|0:0,0:0:0:0:
502,109,3859,6,0,P|463:75|403:74,1,112,2|0,0:0|0:0,0:0:0:0:
318,95,4365,2,0,P|330:145|336:172,1,56,2|0,0:0|0:0,0:0:0:0:
380,224,4702,2,0,P|353:267|338:291,1,56,2|0,0:0|0:0,0:0:0:0:
331,359,5039,2,0,P|280:371|253:377,1,56,2|0,0:0|0:0,0:0:0:0:
216,304,5376,6,0,P|232:206|237:174,1,112,2|2,0:0|0:0,0:0:0:0:
281,117,5882,2,0,P|334:113|387:150,2,112,2|0|0,0:0|0:0|0:0,0:0:0:0:
233,193,6724,6,0,P|180:197|127:160,1,112,2|2,0:0|0:0,0:0:0:0:
65,105,7230,2,0,P|72:192|75:236,1,112,2|2,0:0|0:0,0:0:0:0:
52,303,7736,2,0,P|9:285|-7:278,1,56,2|2,0:0|0:0,0:0:0:0:
108,371,8073,6,0,P|155:355|227:330,1,112,2|2,0:0|0:0,0:0:0:0:
298,304,8578,2,0,P|251:288|179:263,1,112,2|2,0:0|0:0,0:0:0:0:
88,120,9253,6,0,P|118:67|174:53,1,112,2|0,0:0|0:0,0:0:0:0:
241,7,9758,2,0,L|301:27,1,56,2|0,0:0|0:0,0:0:0:0:
339,102,10095,2,0,L|399:82,1,56,2|0,0:0|0:0,0:0:0:0:
478,58,10432,2,0,L|468:127,1,56,2|0,0:0|0:0,0:0:0:0:
439,198,10769,6,0,P|381:189|319:178,1,112,2|0,0:0|0:0,0:0:0:0:
246,141,11275,1,2,0:0:0:0:
194,217,11444,2,0,B|146:254|65:262|8:221|-4:169|-4:169|65:80|168:122,1,420,2|0,0:0|0:0,0:0:0:0:
189,124,12792,5,8,0:0:0:0:
229,24,12956,1,8,0:0:0:0:
307,95,13121,2,0,L|355:86,3,35,0|0|0|0,1:2|1:2|1:2|1:2,0:0:0:0:
383,53,13451,6,0,P|450:49|495:126,1,140,4|8,1:2|0:0,0:0:0:0:
503,198,13956,1,0,0:0:0:0:
421,252,14125,2,0,P|370:241|340:235,1,70,0|0,1:2|1:2,0:0:0:0:
281,169,14462,1,8,0:0:0:0:
223,248,14630,6,0,P|169:292|91:284,1,140,0|0,1:2|1:2,0:0:0:0:
27,224,15136,1,8,0:0:0:0:
78,138,15305,2,0,L|66:68,1,70,0|0,1:2|0:0,0:0:0:0:
146,11,15642,1,0,1:2:0:0:
191,103,15810,2,0,L|178:182,1,70,8|0,0:0|1:2,0:0:0:0:
95,235,16147,6,0,L|121:395,1,140,4|8,1:2|0:0,0:0:0:0:
200,320,16653,1,0,0:0:0:0:
285,368,16822,1,0,1:2:0:0:
351,296,16990,2,0,P|339:239|334:216,1,70,0|8,1:2|0:0,0:0:0:0:
256,170,17327,6,0,P|319:128|386:137,1,140,4|0,1:2|1:2,0:0:0:0:
469,190,17833,1,8,0:0:0:0:
465,84,18002,2,0,L|452:3,1,70,0|0,1:2|0:0,0:0:0:0:
358,37,18339,1,0,1:2:0:0:
264,6,18507,2,0,L|212:17,3,35,8|8|8|8,0:0|0:0|0:0|0:0,0:0:0:0:
199,52,18844,6,0,P|146:37|122:32,1,70,4|0,1:2|1:2,0:0:0:0:
37,62,19181,1,8,0:0:0:0:
111,131,19350,2,0,B|140:185|140:185|107:288,1,154.000004699707,4|0,1:2|1:2,0:0:0:0:
33,348,19856,1,8,0:0:0:0:
133,380,20024,6,0,B|221:360|176:328|271:310,1,154.000004699707,4|0,1:2|1:2,0:0:0:0:
352,244,20530,1,8,0:0:0:0:
264,197,20699,2,0,P|235:138|292:53,1,154.000004699707,4|0,1:2|1:2,0:0:0:0:
368,18,21204,2,0,P|418:39|445:51,1,77.0000023498536,8|8,3:0|3:0,0:0:0:0:
496,139,21541,6,0,L|480:230,1,77.0000023498536,12|0,1:2|1:2,0:0:0:0:
386,263,21878,2,0,L|402:354,1,77.0000023498536,8|0,1:2|1:2,0:0:0:0:
295,371,22216,2,0,P|233:353|211:348,1,77.0000023498536,8|0,1:2|1:2,0:0:0:0:
118,322,22553,1,8,1:2:0:0:
194,253,22721,6,0,P|218:197|175:109,1,140,4|8,1:2|1:2,0:0:0:0:
126,53,23227,1,8,1:2:0:0:
126,53,23733,5,0,1:2:0:0:
64,129,23901,2,0,L|6:112,2,35,8|8|8,1:2|1:2|1:2,0:0:0:0:
104,203,24238,6,0,P|89:274|79:316,1,112,6|0,0:0|0:0,0:0:0:0:
140,370,24744,2,0,L|258:357,1,112,2|2,0:0|0:0,0:0:0:0:
332,333,25250,1,2,0:0:0:0:
361,252,25418,6,0,P|416:241|463:286,1,112,2|0,1:2|0:0,0:0:0:0:
506,348,25924,1,2,0:0:0:0:
506,348,26092,2,0,L|519:211,1,112,0|0,0:0|0:0,0:0:0:0:
503,153,26598,2,0,P|455:165|436:170,1,56,2|0,0:0|1:2,0:0:0:0:
371,133,26935,6,0,P|318:106|249:126,1,112,2|2,0:0|0:0,0:0:0:0:
226,188,27441,2,0,L|100:201,1,112,0|0,0:0|0:0,0:0:0:0:
2,106,28115,6,0,P|15:54|78:26,1,112,0|0,1:2|0:0,0:0:0:0:
126,89,28621,1,2,0:0:0:0:
126,89,28789,2,0,P|119:149|114:213,1,112,0|0,0:0|0:0,0:0:0:0:
122,284,29295,1,2,0:0:0:0:
122,284,29632,6,0,P|188:268|242:255,1,112,2|2,0:0|0:0,0:0:0:0:
306,221,30138,2,0,P|299:165|287:85,1,112,2|2,0:0|0:0,0:0:0:0:
430,17,30812,6,0,P|423:73|411:153,1,112,2|2,1:2|0:0,0:0:0:0:
473,188,31318,2,0,P|466:244|454:324,1,112,2|2,0:0|0:0,0:0:0:0:
403,362,31823,2,0,L|346:351,1,56,2|2,0:0|0:0,0:0:0:0:
302,280,32160,1,2,1:2:0:0:
250,346,32329,6,0,P|207:379|139:374,1,112,2|2,1:2|0:0,0:0:0:0:
69,358,32835,2,0,L|87:234,1,112,2|2,1:2|0:0,0:0:0:0:
27,186,33340,1,2,0:0:0:0:
85,118,33509,6,0,B|155:90|155:90|203:111,1,119.000002269745,6|0,1:2|1:2,0:0:0:0:
242,183,34015,2,0,L|315:166,1,59.5000011348725,8|0,0:0|1:2,0:0:0:0:
327,84,34352,2,0,L|400:98,1,59.5000011348725,8|0,0:0|1:2,0:0:0:0:
469,64,34689,2,0,L|462:17,2,29.7500005674362,8|8|8,0:0|3:0|3:0,0:0:0:0:
508,149,35026,6,0,P|521:192|499:250,1,94.499997116089,6|0,1:2|0:0,0:0:0:0:
481,278,35363,1,2,1:2:0:0:
422,352,35532,2,0,P|312:332|283:328,1,125.999996154785,2|2,0:0|0:0,0:0:0:0:
208,358,36037,1,0,1:2:0:0:
193,264,36206,6,0,P|201:189|210:114,1,125.999996154785,2|0,0:0|0:0,0:0:0:0:
279,77,36712,1,0,1:2:0:0:
195,33,36880,2,0,P|142:8|67:38,1,125.999996154785,0|2,0:0|0:0,0:0:0:0:
15,95,37386,1,2,1:2:0:0:
88,153,37554,1,10,0:0:0:0:
22,221,37723,6,0,B|3:266|3:266|28:331,1,94.499997116089,2|0,1:2|0:0,0:0:0:0:
42,350,38060,1,2,1:2:0:0:
132,377,38229,2,0,L|278:359,1,125.999996154785,2|2,0:0|0:0,0:0:0:0:
349,381,38734,1,0,1:2:0:0:
422,321,38903,6,0,B|443:256|443:256|411:197,1,125.999996154785,2|0,0:0|0:0,0:0:0:0:
346,141,39408,1,0,1:2:0:0:
296,221,39577,2,0,L|148:211,1,125.999996154785,0|0,0:0|0:0,0:0:0:0:
102,146,40083,1,2,1:2:0:0:
66,233,40251,1,8,0:0:0:0:
1,163,40420,6,0,L|11:49,1,94.499997116089,2|0,1:2|0:0,0:0:0:0:
14,21,40757,1,2,1:2:0:0:
100,57,40925,2,0,L|177:40,1,62.9999980773926,2|0,0:0|1:2,0:0:0:0:
248,4,41263,2,0,L|325:21,1,62.9999980773926,2|0,0:0|1:2,0:0:0:0:
397,52,41600,6,0,L|380:125,1,62.9999980773926,2|0,0:0|1:2,0:0:0:0:
441,187,41937,1,2,0:0:0:0:
373,252,42105,2,0,L|235:229,1,125.999996154785,2|0,1:2|1:2,0:0:0:0:
173,173,42611,2,0,L|184:107,1,62.9999980773926,2|2,0:0|1:2,0:0:0:0:
121,39,42948,1,10,0:0:0:0:
68,117,43117,6,0,L|83:233,1,94.499997116089,6|0,1:2|0:0,0:0:0:0:
91,257,43454,1,2,1:2:0:0:
51,342,43622,2,0,P|103:307|173:328,1,125.999996154785,6|2,1:2|1:2,0:0:0:0:
244,364,44128,1,10,0:0:0:0:
265,271,44297,6,0,L|253:132,1,125.999996154785,6|0,1:2|1:2,0:0:0:0:
271,52,44802,2,0,L|337:70,1,62.9999980773926,8|0,0:0|1:2,0:0:0:0:
415,23,45139,2,0,L|448:82,1,62.9999980773926,10|0,0:0|1:2,0:0:0:0:
480,166,45477,2,0,L|526:150,2,31.4999990386963,10|8|8,0:0|3:0|3:0,0:0:0:0:
420,232,45814,6,0,L|282:212,1,119.000002269745,6|0,1:2|1:2,0:0:0:0:
239,159,46319,1,2,0:0:0:0:
239,159,46488,2,0,L|259:297,1,119.000002269745,2|8,1:2|0:0,0:0:0:0:
206,351,46994,1,2,0:0:0:0:
206,351,47162,2,0,L|84:333,2,119.000002269745,2|2|2,1:2|1:2|1:2,0:0:0:0:
383,375,48174,5,2,1:2:0:0:
457,326,48342,1,8,0:0:0:0:
400,256,48511,2,0,L|424:114,1,119.000002269745,0|2,1:2|1:2,0:0:0:0:
300,5,49185,2,0,L|324:147,1,119.000002269745,2|8,1:2|0:0,0:0:0:0:
205,254,49859,2,0,L|83:230,1,119.000002269745,0|0,1:2|1:2,0:0:0:0:
37,163,50365,5,0,0:0:0:0:
37,163,50533,2,0,L|53:99,1,59.5000011348725,2|8,1:2|0:0,0:0:0:0:
115,42,50870,2,0,L|131:106,1,59.5000011348725,2|8,1:2|0:0,0:0:0:0:
205,148,51208,6,0,B|275:133|246:103|339:96,1,119.000002269745,2|0,1:2|1:2,0:0:0:0:
395,63,51713,1,2,0:0:0:0:
395,63,51882,2,0,B|426:103|426:103|406:182,1,119.000002269745,2|8,1:2|0:0,0:0:0:0:
346,232,52387,1,2,0:0:0:0:
346,232,52556,2,0,L|480:223,2,119.000002269745,2|2|2,1:2|1:2|1:2,0:0:0:0:
290,356,53567,5,2,1:2:0:0:
241,281,53736,1,8,0:0:0:0:
192,361,53904,2,0,L|51:357,1,125.999996154785,4|2,1:2|1:2,0:0:0:0:
7,283,54410,1,8,0:0:0:0:
79,222,54579,2,0,L|65:145,1,62.9999980773926,2|0,1:2|1:2,0:0:0:0:
0,94,54916,6,0,P|49:65|117:77,1,125.999996154785,8|0,0:0|1:2,0:0:0:0:
190,18,55422,1,0,1:2:0:0:
244,94,55590,2,0,L|236:168,1,62.9999980773926,8|0,0:0|1:2,0:0:0:0:
170,224,55927,1,8,0:0:0:0:
239,303,56096,1,10,0:0:0:0:
239,303,56180,1,8,0:0:0:0:
239,303,56264,2,0,L|295:292,3,31.4999990386963,10|8|10|8,0:0|0:0|0:0|0:0,0:0:0:0:
317,272,56601,6,0,P|363:316|446:312,1,140,6|8,1:2|0:0,0:0:0:0:
499,241,57107,1,2,0:0:0:0:
438,163,57276,2,0,L|445:92,1,70,2|2,1:2|1:2,0:0:0:0:
375,23,57613,1,10,0:0:0:0:
306,94,57781,6,0,B|252:94|252:94|221:71|221:71|162:72,1,140,2|0,1:2|1:2,0:0:0:0:
81,37,58287,2,0,P|72:81|80:116,1,70,8|0,0:0|0:0,0:0:0:0:
141,186,58624,1,2,1:2:0:0:
141,186,58793,1,2,1:2:0:0:
64,249,58961,2,0,L|-16:236,1,70,10|2,0:0|1:2,0:0:0:0:
111,345,59298,6,0,L|254:321,1,140,2|8,1:2|0:0,0:0:0:0:
311,246,59804,1,2,0:0:0:0:
233,185,59973,2,0,P|221:129|231:105,1,70,2|2,1:2|1:2,0:0:0:0:
299,55,60310,1,10,0:0:0:0:
379,110,60478,6,0,B|414:159|414:159|392:240,1,140,2|0,1:2|1:2,0:0:0:0:
385,333,60984,2,0,P|341:316|318:294,1,70,8|0,0:0|0:0,0:0:0:0:
260,234,61321,1,2,1:2:0:0:
260,234,61490,1,2,1:2:0:0:
202,312,61658,2,0,P|158:329|135:351,1,70,10|2,0:0|1:2,0:0:0:0:
45,365,61995,6,0,B|13:316|13:316|40:214,1,140,6|8,1:2|0:0,0:0:0:0:
128,211,62501,2,0,L|106:55,1,140,2|2,0:0|1:2,0:0:0:0:
183,8,63007,1,8,0:0:0:0:
234,92,63175,6,0,L|324:76,1,70,2|0,1:2|0:0,0:0:0:0:
380,19,63512,2,0,L|470:35,1,70,2|8,1:2|0:0,0:0:0:0:
506,111,63849,1,2,0:0:0:0:
465,200,64018,2,0,L|344:184,1,105,0|0,1:2|0:0,0:0:0:0:
312,197,64355,1,10,0:0:0:0:
236,134,64524,1,2,1:2:0:0:
148,176,64692,6,0,P|82:159|28:199,1,140,6|10,1:2|0:0,0:0:0:0:
44,296,65198,2,0,P|110:313|164:273,1,140,6|2,1:2|1:2,0:0:0:0:
238,209,65704,1,10,0:0:0:0:
286,296,65872,2,0,L|445:294,1,140,6|0,1:2|1:2,0:0:0:0:
488,209,66378,6,0,P|501:166|484:119,1,70,8|2,0:0|1:2,0:0:0:0:
424,65,66715,2,0,P|411:108|428:155,1,70,8|0,0:0|1:2,0:0:0:0:
349,205,67052,2,0,L|294:192,3,35,8|8|8|8,0:0|3:0|3:0|3:0,0:0:0:0:
38,57,67895,6,0,L|64:180,1,112,2|2,0:0|0:0,0:0:0:0:
89,246,68400,1,2,0:0:0:0:
89,246,68569,1,2,0:0:0:0:
162,166,68738,6,0,P|223:124|305:138,1,154.000004699707,6|10,1:2|0:0,0:0:0:0:
402,105,69243,2,0,P|394:155|389:194,1,77.0000023498536,2|0,1:2|0:0,0:0:0:0:
459,264,69580,2,0,P|451:314|446:353,1,77.0000023498536,2|8,1:2|0:0,0:0:0:0:
345,377,69918,6,0,B|287:369|287:369|262:344|262:344|199:337,1,154.000004699707,2|0,0:0|0:0,0:0:0:0:
99,367,70423,2,0,P|94:327|120:268,1,77.0000023498536,10|0,0:0|1:2,0:0:0:0:
169,206,70760,1,2,0:0:0:0:
77,148,70929,1,0,1:2:0:0:
154,73,71097,2,0,L|137:-8,1,77.0000023498536,10|0,0:0|0:0,0:0:0:0:
253,63,71435,6,0,L|424:39,1,154.000004699707,2|10,1:2|0:0,0:0:0:0:
490,107,71940,1,2,1:2:0:0:
417,186,72109,2,0,P|357:171|324:162,1,77.0000023498536,0|0,0:0|1:2,0:0:0:0:
290,261,72446,1,8,0:0:0:0:
232,170,72614,1,0,0:0:0:0:
131,210,72783,6,0,P|52:210|23:283,1,154.000004699707,0|8,1:2|0:0,0:0:0:0:
65,368,73289,2,0,P|128:352|217:336,1,154.000004699707,2|0,1:2|0:0,0:0:0:0:
290,261,73794,1,10,0:0:0:0:
355,347,73963,1,2,0:0:0:0:
451,299,74131,6,0,B|481:257|481:257|459:148,1,154.000004699707,6|10,1:2|0:0,0:0:0:0:
436,51,74637,2,0,P|380:76|363:107,1,77.0000023498536,2|0,1:2|0:0,0:0:0:0:
302,170,74974,2,0,P|246:145|229:114,1,77.0000023498536,2|8,1:2|0:0,0:0:0:0:
181,41,75311,6,0,P|107:76|88:157,1,154.000004699707,2|0,0:0|0:0,0:0:0:0:
113,244,75817,2,0,L|196:227,1,77.0000023498536,10|0,0:0|1:2,0:0:0:0:
294,250,76154,1,2,0:0:0:0:
379,183,76323,1,0,1:2:0:0:
467,243,76491,2,0,L|462:322,1,77.0000023498536,10|0,0:0|0:0,0:0:0:0:
367,372,76828,6,0,L|213:348,1,154.000004699707,2|8,1:2|0:0,0:0:0:0:
109,371,77334,1,2,1:2:0:0:
37,289,77503,2,0,L|36:207,1,77.0000023498536,2|0,0:0|0:2,0:0:0:0:
97,122,77840,1,8,0:0:0:0:
42,31,78008,6,0,L|204:40,1,154.000004699707,4|0,1:2|1:2,0:0:0:0:
261,125,78514,2,0,L|361:104,1,77.0000023498536,8|0,0:0|1:2,0:0:0:0:
376,8,78851,2,0,L|476:29,1,77.0000023498536,8|0,0:0|1:2,0:0:0:0:
508,115,79188,2,0,L|495:165,3,38.5000011749268,10|8|8|8,0:0|3:0|3:0|3:0,0:0:0:0:
498,206,79525,6,0,L|331:191,1,154.000004699707,6|10,1:2|0:0,0:0:0:0:
261,125,80031,2,0,L|179:150,1,77.0000023498536,2|0,1:2|0:0,0:0:0:0:
120,232,80368,1,2,1:2:0:0:
63,140,80537,1,8,0:0:0:0:
14,235,80705,6,0,B|4:332|4:332|51:374,1,154.000004699707,2|0,1:2|1:2,0:0:0:0:
154,376,81211,2,0,P|201:347|231:348,1,77.0000023498536,10|0,0:0|0:0,0:0:0:0:
227,238,81548,2,0,P|280:250|301:272,1,77.0000023498536,2|0,1:2|1:2,0:0:0:0:
342,361,81885,2,0,P|406:363|447:302,1,115.50000352478,8|0,0:0|0:0,0:0:0:0:
481,293,82222,6,0,B|478:218|478:218|472:207|472:207|471:131,1,154.000004699707,2|8,1:2|0:0,0:0:0:0:
494,48,82728,1,2,1:2:0:0:
397,0,82897,2,0,L|313:17,1,77.0000023498536,2|0,0:0|1:2,0:0:0:0:
218,47,83234,1,8,0:0:0:0:
261,145,83402,6,0,P|288:221|262:292,1,154.000004699707,2|0,0:0|1:2,0:0:0:0:
193,368,83908,2,0,L|115:362,1,77.0000023498536,8|0,0:0|0:0,0:0:0:0:
22,307,84245,1,0,1:2:0:0:
104,237,84414,1,0,1:2:0:0:
8,187,84582,2,0,L|13:101,1,77.0000023498536,10|0,0:0|0:0,0:0:0:0:
78,24,84919,6,0,P|130:22|181:117,1,154.000004699707,6|8,1:2|0:0,0:0:0:0:
222,199,85425,1,0,1:2:0:0:
317,149,85593,2,0,L|316:68,1,77.0000023498536,2|2,0:0|1:2,0:0:0:0:
412,22,85931,2,0,P|462:42|488:86,1,77.0000023498536,10|0,0:0|0:0,0:0:0:0:
501,163,86268,6,0,L|491:259,1,77.0000023498536,6|4,1:2|1:2,0:0:0:0:
415,315,86605,2,0,L|407:238,1,77.0000023498536,10|0,0:0|1:2,0:0:0:0:
333,159,86942,1,10,0:0:0:0:
239,212,87110,2,0,L|250:269,2,38.5000011749268,8|8|10,0:0|0:0|0:0,0:0:0:0:
184,130,87448,5,10,0:0:0:0:
184,130,87532,1,8,0:0:0:0:
184,130,87616,2,0,L|105:130,1,77.0000023498536,4|0,1:2|0:0,0:0:0:0:
22,197,87953,2,0,P|6:247|37:345,1,154.000004699707,12|0,0:0|1:2,0:0:0:0:
135,379,88459,1,0,1:2:0:0:
224,320,88627,2,0,P|263:311|315:326,1,77.0000023498536,8|0,0:0|0:0,0:0:0:0:
396,365,88965,6,0,P|414:323|408:279,1,77.0000023498536,0|0,1:2|0:0,0:0:0:0:
404,184,89302,2,0,L|505:201,1,77.0000023498536,8|0,0:0|0:0,0:0:0:0:
358,90,89639,2,0,L|257:107,1,77.0000023498536,0|0,1:2|1:2,0:0:0:0:
242,203,89976,2,0,L|141:186,1,77.0000023498536,10|2,0:0|0:0,0:0:0:0:
59,173,90313,6,0,L|71:257,2,77.0000023498536,14|10|10,0:0|0:0|0:0,0:0:0:0:
10,76,90819,1,10,0:0:0:0:
117,75,90987,2,0,L|129:-9,2,77.0000023498536,10|10|10,0:0|0:0|0:0,0:0:0:0:
193,151,91493,1,10,0:0:0:0:
259,66,91662,5,14,0:0:0:0:
259,66,92504,1,0,1:2:0:0:
342,135,92673,2,0,L|333:191,3,38.5000011749268,10|8|10|8,0:0|0:0|0:0|0:0,0:0:0:0:
316,218,93010,6,0,L|339:310,1,70,4|0,1:2|0:0,0:0:0:0:
270,361,93347,2,0,P|226:336|123:381,1,140,12|0,0:0|1:2,0:0:0:0:
47,332,93853,1,0,1:2:0:0:
96,247,94021,1,8,0:0:0:0:
13,193,94190,6,0,B|3:103|3:103|53:40,1,140,0|0,1:2|1:2,0:0:0:0:
117,12,94696,1,8,0:0:0:0:
189,77,94864,2,0,L|176:170,1,70,0|0,0:0|1:2,0:0:0:0:
251,221,95201,1,0,1:2:0:0:
251,221,95370,1,8,0:0:0:0:
177,285,95538,1,0,1:2:0:0:
258,340,95707,6,0,P|300:372|405:358,1,140,4|8,1:2|0:0,0:0:0:0:
463,312,96213,1,0,0:0:0:0:
401,236,96381,2,0,L|417:150,1,70,0|0,1:2|1:2,0:0:0:0:
440,72,96718,1,8,0:0:0:0:
353,25,96887,6,0,B|215:42,1,140,4|0,1:2|1:2,0:0:0:0:
166,126,97393,1,8,0:0:0:0:
95,57,97564,2,0,P|29:69|11:136,1,140,0|0,0:0|1:2,0:0:0:0:
81,204,98078,2,0,L|73:271,3,35,8|8|8|8,0:0|0:0|0:0|0:0,0:0:0:0:
36,265,98409,6,0,L|48:360,1,70,4|0,1:2|1:2,0:0:0:0:
134,375,98744,1,8,0:0:0:0:
202,292,98911,2,0,L|181:130,1,154.000004699707,4|0,1:2|1:2,0:0:0:0:
164,32,99414,1,8,0:0:0:0:
259,81,99582,6,0,B|350:78|317:41|415:44,1,154.000004699707,4|0,1:2|1:2,0:0:0:0:
500,94,100084,1,8,0:0:0:0:
419,165,100252,1,4,1:2:0:0:
419,165,100336,1,0,1:0:0:0:
419,165,100420,2,0,L|430:227,3,38.5000011749268,8|8|8|8,3:0|3:0|3:0|3:0,0:0:0:0:
464,233,100755,6,0,L|450:312,1,70,4|0,1:2|1:2,0:0:0:0:
381,371,101090,1,8,0:0:0:0:
316,285,101257,2,0,P|224:273|184:327,1,154.000004699707,4|0,1:2|1:2,0:0:0:0:
97,372,101760,1,8,0:0:0:0:
30,286,101928,6,0,B|1:213|1:213|49:136,1,154.000004699707,4|0,1:2|1:2,0:0:0:0:
119,75,102430,1,12,0:0:0:0:
178,177,102598,1,12,2:3:0:0:
178,177,102682,1,8,3:0:0:0:
178,177,102766,2,0,L|231:173,3,38.5000011749268,8|8|8|8,3:0|3:0|3:0|3:0,0:0:0:0:
266,154,103101,6,0,L|343:172,1,77.0000023498536,4|0,1:2|1:2,0:0:0:0:
442,207,103436,1,8,0:0:0:0:
489,110,103603,2,0,P|448:53|349:51,1,154.000004699707,4|0,1:2|1:2,0:0:0:0:
286,112,104106,1,8,0:0:0:0:
222,34,104274,6,0,L|110:34,1,77.0000023498536,4|0,1:2|0:0,0:0:0:0:
63,102,104635,1,8,0:0:0:0:
63,102,104725,1,8,3:0:0:0:
63,102,104816,1,8,3:0:0:0:
133,183,104996,2,0,L|198:162,4,38.5000011749268,8|8|8|8|8,3:0|3:0|3:0|3:0|3:0,0:0:0:0:
87,198,105481,5,4,1:2:0:0:
49,319,105649,1,4,1:2:0:0:
