osu file format v14

[General]
AudioFilename: Audio.mp3
AudioLeadIn: 0
PreviewTime: 132645
Countdown: 0
SampleSet: Soft
StackLeniency: 0.7
Mode: 0
LetterboxInBreaks: 0
EpilepsyWarning: 1
WidescreenStoryboard: 1

[Editor]
DistanceSpacing: 1.4
BeatDivisor: 4
GridSize: 32
TimelineZoom: 1.300001

[Metadata]
Title:Arcadia
TitleUnicode:アルカディア
Artist:Chitose Sara
ArtistUnicode:千歳サラ
Creator:Dored
Version:Garden's Hard
Source:11月のアルカディア
Tags:Galgame Visual Novel Eroge Opening Full Version 11Gatsu no Juuichigatsu Of November LevoL Garden Misure Rage Quit Suzuki_1112 Rekkursion
BeatmapID:1735695
BeatmapSetID:810877

[Difficulty]
HPDrainRate:5
CircleSize:4
OverallDifficulty:6
ApproachRate:8
SliderMultiplier:1.3
SliderTickRate:1

[Events]
//Background and Video events
0,0,"Kokone-Hard.jpg",0,0
//Break Periods
2,92058,99198
2,158125,166614
//Storyboard Layer 0 (Background)
//Storyboard Layer 1 (Fail)
//Storyboard Layer 2 (Pass)
//Storyboard Layer 3 (Foreground)
Sprite,Foreground,Centre,"sb\Kokone-Hard.jpg",320,240 F,0,44665,46013,1,0 S,0,44665,46013,0.668,0.755 C,0,44665,46013,170,170,170
Sprite,Foreground,Centre,"sb\Kokone-Hard.jpg",320,240 F,0,67586,69019,1,0 S,0,67586,69019,0.668,0.755 C,0,67586,69019,170,170,170
Sprite,Foreground,Centre,"sb\Kokone-Hard.jpg",320,240 F,0,110732,112081,1,0 S,0,110732,112081,0.668,0.745 C,0,110732,112081,170,170,170
Sprite,Foreground,Centre,"sb\Kokone-Hard.jpg",320,240 F,0,133654,135002,1,0 S,0,133654,135002,0.668,0.745 C,0,133654,135002,170,170,170
Sprite,Foreground,Centre,"sb\Kokone-Hard.jpg",320,240 F,0,200395,201743,1,0 S,0,200395,201743,0.668,0.755
Sprite,Foreground,Centre,"sb\mappedBy_Garden.png",320,240 S,0,228710,,0.6 F,0,228710,229384,0,1 M,0,228710,234271,315,430 F,0,233934,234271,1,0
//Storyboard Sound Samples

[TimingPoints]
684,337.078651685393,4,2,1,25,1,0
1552,337.078651685393,4,2,1,40,1,0
11580,-100,4,2,1,5,0,0
11640,337.078651685393,4,2,1,60,1,0
11640,-100,4,2,1,60,0,0
12308,337.078651685393,4,2,1,60,1,0
17701,-83.3333333333333,4,2,1,65,0,0
18459,-83.3333333333333,4,2,1,5,0,0
18543,-83.3333333333333,4,2,1,65,0,0
19133,-83.3333333333333,4,2,1,5,0,0
19217,-83.3333333333333,4,2,1,65,0,0
19807,-83.3333333333333,4,2,1,5,0,0
19892,-83.3333333333333,4,2,1,65,0,0
20397,-83.3333333333333,4,2,1,70,0,0
21830,-83.3333333333333,4,2,1,5,0,0
21914,-83.3333333333333,4,2,1,70,0,0
22588,-83.3333333333333,4,2,1,50,0,0
22757,-100,4,2,1,50,0,0
23094,-100,4,2,2,40,0,0
32364,-100,4,2,1,50,0,0
33880,-100,4,2,1,60,0,0
44667,-100,4,2,2,55,0,0
55453,-100,4,2,1,65,0,0
66746,-100,4,2,1,60,0,0
67588,-100,4,2,1,75,0,1
77111,-100,4,2,1,5,0,1
77195,-100,4,2,1,75,0,1
83684,-100,4,2,1,5,0,1
83768,-100,4,2,1,75,0,1
86717,-100,4,2,1,75,0,1
86802,-83.3333333333333,4,2,1,75,0,1
87139,-100,4,2,1,75,0,1
90510,-100,4,2,1,80,0,0
91352,-100,4,2,1,55,0,0
91858,-100,4,2,1,60,0,0
98010,-100,4,2,1,5,0,0
98094,-100,4,2,1,60,0,0
99442,-100,4,2,1,50,0,0
99948,-100,4,2,1,55,0,0
102645,-100,4,2,1,60,0,0
110734,-100,4,2,2,55,0,0
118824,-83.3333333333333,4,2,1,60,0,0
121521,-100,4,2,1,65,0,0
121774,-100,4,2,1,5,0,0
121858,-83.3333333333333,4,2,1,65,0,0
122195,-100,4,2,1,65,0,0
133656,-100,4,2,1,75,0,1
143178,-100,4,2,1,5,0,1
143263,-100,4,2,1,75,0,1
144695,-100,4,2,1,5,0,1
144779,-83.3333333333333,4,2,1,75,0,1
145116,-100,4,2,1,75,0,1
149751,-100,4,2,1,5,0,1
149836,-100,4,2,1,75,0,1
152785,-100,4,2,1,5,0,1
152869,-83.3333333333333,4,2,1,75,0,1
153206,-100,4,2,1,75,0,1
153796,-100,4,2,1,5,0,1
153881,-100,4,2,1,75,0,1
156577,-100,4,2,1,80,0,0
157420,-100,4,2,1,55,0,0
157925,-100,4,2,2,55,0,0
168543,-100,4,2,1,60,0,0
173937,-100,4,2,1,65,0,0
176633,-100,4,2,1,70,0,0
178234,-100,4,2,1,5,0,0
178319,-100,4,2,1,70,0,0
179583,-100,4,2,1,5,0,0
179667,-100,4,2,1,70,0,0
180173,-100,4,2,1,65,0,0
180847,-83.3333333333333,4,2,1,65,0,0
181100,-83.3333333333333,4,2,1,5,0,0
181184,-66.6666666666667,4,2,1,65,0,0
181437,-66.6666666666667,4,2,1,5,0,0
181523,337.078651685393,4,2,1,70,1,0
181523,-200,4,2,1,70,0,0
181691,-200,4,2,1,45,0,0
185567,-100,4,2,1,70,0,0
186747,-100,4,2,1,75,0,1
191045,-100,4,2,1,5,0,1
191129,-100,4,2,1,75,0,1
192562,-100,4,2,1,5,0,1
192646,-83.3333333333333,4,2,1,75,0,1
192983,-100,4,2,1,75,0,1
197618,-100,4,2,1,5,0,1
197702,-83.3333333333333,4,2,1,75,0,1
200062,-100,4,2,1,75,0,0
200399,-90.9090909090909,4,2,1,80,0,1
200652,-90.9090909090909,4,2,1,5,0,1
200736,-83.3333333333333,4,2,1,80,0,1
201073,-100,4,2,1,80,0,1
205455,-100,4,2,1,80,0,0
205792,-83.3333333333333,4,2,1,80,0,1
206129,-83.3333333333333,4,2,1,80,0,0
206298,-83.3333333333333,4,2,1,80,0,1
206635,-83.3333333333333,4,2,1,80,0,0
206803,-83.3333333333333,4,2,1,80,0,1
207140,-83.3333333333333,4,2,1,80,0,0
207309,-83.3333333333333,4,2,1,80,0,1
207646,-83.3333333333333,4,2,1,80,0,0
207815,-83.3333333333333,4,2,1,80,0,1
207983,-83.3333333333333,4,2,1,80,0,0
208152,-83.3333333333333,4,2,1,80,0,1
208320,-83.3333333333333,4,2,1,80,0,0
208489,-83.3333333333333,4,2,1,80,0,1
210680,-83.3333333333333,4,2,1,80,0,0
211185,-100,4,2,1,80,0,1
216494,-100,4,2,1,5,0,1
216579,-100,4,2,1,80,0,1
219528,-100,4,2,1,5,0,1
219612,-83.3333333333333,4,2,1,80,0,1
219949,-100,4,2,1,80,0,1
223320,-100,4,2,1,80,0,0
223405,-100,4,2,1,65,0,0
226270,-100,4,2,1,5,0,0
226354,-83.3333333333333,4,2,1,65,0,0
226691,-100,4,2,1,65,0,0
231410,337.078651685393,7,2,1,70,1,0
232170,-100,7,2,1,5,0,0
232252,-100,7,2,1,70,0,0
232589,-90.9090909090909,7,2,1,70,0,0
232842,-90.9090909090909,7,2,1,5,0,0
232926,-90.9090909090909,7,2,1,70,0,0
233769,-90.9090909090909,7,2,1,75,0,0
234527,-90.9090909090909,7,2,1,5,0,0
234612,-90.9090909090909,7,2,1,75,0,0
234949,-83.3333333333333,7,2,1,75,0,0
235202,-83.3333333333333,7,2,1,5,0,0
235286,-83.3333333333333,7,2,1,75,0,0
236129,-83.3333333333333,7,2,1,80,0,0
236887,-83.3333333333333,7,2,1,5,0,0
236971,-83.3333333333333,7,2,1,80,0,0

[Colours]
Combo1 : 128,255,128
Combo2 : 205,189,148
Combo3 : 128,0,255
Combo4 : 117,186,255

[HitObjects]
256,192,9641,12,2,11327,0:0:0:0:
138,217,11640,5,12,0:0:0:0:
138,217,11808,2,0,P|193:183|258:193,1,130,12|2,0:0|3:2,0:0:0:0:
284,215,12229,5,2,3:2:0:0:
284,215,12308,2,0,B|251:256|251:256|248:292|302:335,1,130,4|8,1:2|0:0,0:0:0:0:
286,321,12982,1,0,1:0:0:0:
361,269,13150,2,0,P|399:260|436:255,1,65,2|10,0:0|0:0,0:0:0:0:
502,207,13487,6,0,P|438:210|388:172,1,130,2|0,0:0|0:0,0:0:0:0:
415,85,13993,1,8,0:0:0:0:
331,49,14161,2,0,P|266:51|187:64,1,130,2|2,0:0|0:0,0:0:0:0:
115,91,14667,2,0,P|107:59|96:28,1,65,10|2,0:0|0:0,0:0:0:0:
48,153,15004,6,0,P|109:135|168:175,2,130,0|8|0,1:0|0:0|1:0,0:0:0:0:
0,231,15847,2,0,P|10:269|17:301,1,65,2|10,0:0|0:0,0:0:0:0:
161,369,16184,6,0,B|99:345|99:345|47:382,1,130,6|0,1:2|0:0,0:0:0:0:
100,250,16690,1,8,0:0:0:0:
100,250,16858,2,0,P|159:273|229:297,1,130,2|2,0:0|0:0,0:0:0:0:
319,287,17364,1,8,3:0:0:0:
319,287,17448,1,8,3:0:0:0:
319,287,17532,1,4,3:0:0:0:
400,340,17701,6,0,P|404:301|409:263,1,77.999997619629,4|2,1:2|0:0,0:0:0:0:
435,130,18038,1,0,3:0:0:0:
490,204,18206,2,0,B|434:224|434:224|327:190,1,155.999995239258,4|2,1:0|0:0,0:0:0:0:
263,142,18712,1,8,0:0:0:0:
143,195,18881,6,0,P|218:201|264:130,1,155.999995239258,4|0,1:2|3:0,0:0:0:0:
219,58,19386,1,8,0:0:0:0:
361,40,19555,2,0,P|350:113|340:211,1,155.999995239258,4|0,1:0|1:0,0:0:0:0:
446,306,20060,2,0,P|443:267|425:234,1,77.999997619629,10|2,0:0|0:0,0:0:0:0:
277,308,20397,6,0,L|354:295,1,77.999997619629,2|0,1:2|0:0,0:0:0:0:
246,220,20734,2,0,L|154:237,1,77.999997619629,2|0,1:2|0:0,0:0:0:0:
79,384,21072,1,2,1:2:0:0:
79,384,21240,2,0,P|108:359|119:316,1,77.999997619629,2|2,0:0|1:2,0:0:0:0:
56,157,21577,6,0,B|25:195|25:195|36:241|36:241|20:264|26:298,1,155.999995239258,4|0,1:2|1:0,0:0:0:0:
169,234,22083,1,4,1:0:0:0:
169,234,22588,1,2,3:0:0:0:
250,193,22757,2,0,L|284:193,2,32.5,8|8|4,3:0|3:0|3:0,0:0:0:0:
175,140,23094,6,0,P|168:96|162:-1,2,130,4|8|8,1:0|0:0|0:0,0:0:0:0:
261,111,23937,2,0,P|256:79|253:47,1,65,2|8,0:0|0:0,0:0:0:0:
338,14,24274,2,0,P|391:50|473:27,1,130,2|0,0:3|0:0,0:0:0:0:
489,130,24779,1,8,0:0:0:0:
489,130,24948,2,0,P|423:143|348:164,1,130,2|2,0:0|0:0,0:0:0:0:
281,200,25454,2,0,P|267:241|264:270,1,65,8|2,0:0|0:3,0:0:0:0:
354,278,25791,6,0,P|408:244|471:250,1,130,2|8,0:3|0:0,0:0:0:0:
493,338,26296,2,0,P|438:371|375:365,1,130,2|2,0:0|0:0,0:0:0:0:
293,340,26802,1,8,0:0:0:0:
293,340,26970,2,0,B|257:326|212:321|212:321|197:347|161:361,1,130,2|0,0:3|0:0,0:0:0:0:
93,375,27476,1,8,0:0:0:0:
93,375,27645,2,0,P|50:320|91:251,1,130,2|2,0:0|0:0,0:0:0:0:
142,216,28150,1,8,0:0:0:0:
142,216,28487,6,0,P|133:151|118:63,1,130,2|8,0:3|0:0,0:0:0:0:
82,5,28993,2,0,P|130:45|194:39,1,130,2|2,0:0|0:0,0:0:0:0:
282,10,29499,1,8,0:0:0:0:
282,10,29667,2,0,B|326:23|365:15|365:15|392:34|393:63,1,130,2|2,0:3|0:0,0:0:0:0:
317,103,30173,2,0,P|272:153|281:220,1,130,8|8,0:0|0:0,0:0:0:0:
349,266,30678,2,0,P|357:237|375:196,1,65,2|8,0:0|0:0,0:0:0:0:
446,255,31015,1,2,0:0:0:0:
405,336,31184,6,0,B|366:307|366:307|303:318|279:362,1,130,2|8,0:3|0:0,0:0:0:0:
203,340,31690,2,0,B|216:284|216:284|188:260|185:215,1,130,2|2,0:3|0:0,0:0:0:0:
115,302,32195,1,8,0:0:0:0:
115,302,32364,6,0,P|52:303|1:256,1,130,4|4,1:2|3:0,0:0:0:0:
51,129,32869,2,0,P|59:160|64:193,1,65,8|0,0:0|1:0,0:0:0:0:
144,31,33206,2,0,P|138:63|135:95,1,65,8|0,0:0|1:0,0:0:0:0:
220,150,33543,1,8,3:0:0:0:
220,150,33628,1,8,3:0:0:0:
220,150,33712,1,4,3:0:0:0:
296,100,33881,6,0,B|378:86|345:148|439:127,1,130,6|2,1:2|1:2,0:0:0:0:
495,83,34386,2,0,P|463:147|503:216,1,130,2|0,0:0|0:0,0:0:0:0:
393,220,34892,1,2,1:2:0:0:
393,220,35060,2,0,P|401:284|408:369,1,130,2|0,0:0|0:0,0:0:0:0:
320,363,35566,1,2,1:2:0:0:
320,363,35734,2,0,P|283:330|205:336,1,130,2|0,0:0|0:0,0:0:0:0:
124,295,36240,1,2,1:2:0:0:
64,363,36409,1,12,0:0:0:0:
124,295,36577,6,0,P|129:246|132:144,1,130,2|2,1:2|1:2,0:0:0:0:
97,80,37083,2,0,P|146:120|209:118,1,130,2|0,0:0|0:0,0:0:0:0:
278,59,37588,1,2,1:2:0:0:
278,59,37757,2,0,P|346:49|412:43,1,130,2|0,0:0|0:0,0:0:0:0:
424,132,38263,1,2,1:2:0:0:
424,132,38431,2,0,P|357:141|282:150,1,130,2|0,0:0|0:0,0:0:0:0:
224,207,38937,1,2,1:2:0:0:
142,167,39105,1,12,0:0:0:0:
224,207,39274,6,0,B|264:249|264:249|244:335,1,130,2|2,1:2|1:2,0:0:0:0:
174,372,39779,2,0,P|145:368|98:365,1,65,2|0,0:0|1:2,0:0:0:0:
100,274,40116,2,0,P|134:277|175:281,1,65,2|0,0:0|1:2,0:0:0:0:
247,319,40454,2,0,P|324:329|373:286,1,130,2|0,0:0|0:0,0:0:0:0:
410,222,40959,2,0,B|398:299|398:299|447:333,1,130,2|2,1:2|1:2,0:0:0:0:
500,259,41465,2,0,L|507:187,1,65,0|2,0:0|1:2,0:0:0:0:
438,133,41802,1,12,0:0:0:0:
477,51,41970,6,0,P|427:91|359:89,1,130,2|2,1:2|1:2,0:0:0:0:
284,45,42476,2,0,P|273:109|264:173,1,130,2|0,0:0|0:0,0:0:0:0:
328,237,42982,1,2,1:2:0:0:
265,303,43150,2,0,P|199:316|139:281,1,130,4|0,1:2|1:0,0:0:0:0:
23,224,43656,2,0,L|88:216,1,65,8|0,0:0|1:0,0:0:0:0:
186,123,43993,2,0,L|122:131,1,65,8|0,0:0|1:0,0:0:0:0:
57,66,44330,1,8,3:0:0:0:
57,66,44414,1,8,3:0:0:0:
57,66,44499,1,4,3:0:0:0:
127,8,44667,6,0,P|186:18|259:25,1,130,4|2,1:2|0:3,0:0:0:0:
313,95,45173,1,0,0:0:0:0:
313,95,45341,2,0,P|355:53|443:66,1,130,2|0,0:3|1:0,0:0:0:0:
496,105,45847,2,0,L|492:149,2,32.5,2|2|2,0:0|0:0|0:3,0:0:0:0:
360,226,46352,2,0,P|372:307|381:369,2,130,2|2|2,0:3|0:3|0:3,0:0:0:0:
450,218,47195,1,0,1:0:0:0:
396,144,47364,6,0,P|345:183|265:175,1,130,2|2,0:3|0:3,0:0:0:0:
126,278,48038,2,0,P|189:277|240:316,1,130,2|0,0:3|1:0,0:0:0:0:
147,159,48712,2,0,P|116:119|121:21,1,130,2|2,0:3|0:3,0:0:0:0:
196,9,49218,1,2,0:0:0:0:
196,9,49386,2,0,L|271:3,1,65,2|0,0:3|1:0,0:0:0:0:
233,92,49723,2,0,L|298:87,1,65,2|0,0:3|1:0,0:0:0:0:
384,59,50060,6,0,B|438:100|438:100|423:172,1,130,2|2,0:3|0:3,0:0:0:0:
334,173,50566,1,2,0:0:0:0:
334,173,50734,2,0,P|346:246|354:312,1,130,2|0,0:3|1:0,0:0:0:0:
398,380,51240,1,2,0:0:0:0:
398,380,51409,2,0,P|343:346|279:351,1,130,2|2,0:3|0:3,0:0:0:0:
90,256,52083,2,0,P|103:329|112:397,1,130,2|2,0:3|0:3,0:0:0:0:
192,345,52588,1,0,1:0:0:0:
244,270,52757,6,0,B|203:243|203:243|220:163,1,130,4|2,1:2|0:3,0:0:0:0:
275,92,53263,1,0,1:0:0:0:
351,142,53431,2,0,P|389:137|428:130,1,65,2|2,0:3|0:3,0:0:0:0:
275,92,53768,2,0,P|202:75|149:110,1,130,0|2,1:0|0:3,0:0:0:0:
88,40,54274,1,2,0:3:0:0:
10,86,54442,2,0,P|15:120|20:165,1,65,0|0,1:0|0:0,0:0:0:0:
93,202,54779,1,0,1:0:0:0:
60,287,54948,1,0,1:0:0:0:
60,287,55032,1,0,1:0:0:0:
60,287,55116,2,0,L|17:280,3,32.5,2|2|2|2,0:3|0:3|0:3|0:3,0:0:0:0:
10,305,55454,6,0,P|108:295|160:292,1,130,4|8,1:2|0:0,0:0:0:0:
226,320,55959,2,0,P|214:363|209:395,2,65,2|0|2,0:0|1:0|0:0,0:0:0:0:
294,259,56465,1,8,0:0:0:0:
294,259,56633,2,0,P|253:210|260:147,1,130,0|0,1:0|1:0,0:0:0:0:
205,75,57139,2,0,P|236:67|268:59,1,65,8|2,0:0|0:0,0:0:0:0:
359,62,57476,2,0,P|353:41|343:-5,2,65,0|2|8,1:0|0:0|0:0,0:0:0:0:
440,101,57982,1,2,0:0:0:0:
440,101,58150,6,0,P|428:182|422:243,1,130,0|8,1:0|0:0,0:0:0:0:
492,289,58656,2,0,P|499:325|482:372,2,65,2|0|2,0:0|1:0|0:0,0:0:0:0:
407,321,59161,1,8,0:0:0:0:
407,321,59330,2,0,B|341:332|356:271|277:300,1,130,0|0,1:0|1:0,0:0:0:0:
219,359,59836,2,0,P|183:354|141:353,1,65,8|2,0:0|0:0,0:0:0:0:
90,287,60173,1,0,1:0:0:0:
90,287,60341,1,0,0:0:0:0:
148,217,60510,2,0,P|144:184|131:142,1,65,8|0,0:0|0:0,0:0:0:0:
101,68,60847,6,0,P|146:112|210:112,1,130,4|8,1:2|0:0,0:0:0:0:
298,131,61352,2,0,P|284:67|275:3,1,130,0|2,0:0|0:0,0:0:0:0:
366,7,61858,1,8,0:0:0:0:
366,7,62027,2,0,P|381:82|391:151,1,130,0|0,1:0|1:0,0:0:0:0:
480,140,62532,2,0,P|475:172|472:204,1,65,8|0,0:0|0:0,0:0:0:0:
407,268,62869,2,0,P|368:236|277:251,1,130,0|8,1:0|0:0,0:0:0:0:
227,304,63375,1,0,0:0:0:0:
125,256,63543,6,0,P|137:330|146:395,1,130,4|8,1:2|0:0,0:0:0:0:
227,304,64049,2,0,P|251:234|224:179,1,130,4|0,1:2|1:0,0:0:0:0:
161,125,64555,1,8,0:0:0:0:
193,40,64723,2,0,B|236:70|236:70|324:51,1,130,4|0,1:0|1:0,0:0:0:0:
481,128,65229,2,0,L|484:63,1,65,8|0,0:0|1:0,0:0:0:0:
400,27,65566,2,0,L|395:95,1,65,8|0,0:0|1:0,0:0:0:0:
406,182,65903,2,0,L|373:179,3,32.5,8|0|0|0,0:0|3:0|3:0|3:0,0:0:0:0:
373,179,66746,6,0,P|416:232|398:299,1,130,2|2,0:0|0:0,0:0:0:0:
346,357,67251,2,0,P|316:353|274:350,1,65,2|2,0:0|0:0,0:0:0:0:
103,326,67588,6,0,P|166:330|214:288,1,130,4|8,1:0|0:0,0:0:0:0:
258,208,68094,2,0,P|225:203|176:198,1,65,2|0,0:0|1:0,0:0:0:0:
102,210,68431,2,0,P|107:180|115:137,1,65,2|8,0:0|0:0,0:0:0:0:
127,55,68768,6,0,P|91:109|15:116,1,130,2|2,0:0|0:0,0:0:0:0:
201,114,69274,2,0,P|239:117|287:126,1,65,8|0,0:0|0:0,0:0:0:0:
318,47,69611,1,0,1:0:0:0:
318,47,69779,1,0,1:0:0:0:
398,89,69948,2,0,P|401:56|406:24,1,65,8|2,0:0|0:0,0:0:0:0:
465,149,70285,6,0,P|476:210|433:262,1,130,0|8,1:0|0:0,0:0:0:0:
394,340,70791,2,0,P|347:296|284:293,1,130,2|0,0:0|0:0,0:0:0:0:
230,219,71296,2,0,P|301:206|377:191,2,130,8|0|8,0:0|1:0|0:0,0:0:0:0:
153,169,72139,6,0,B|190:240|190:240|158:297,1,130,2|2,0:0|0:0,0:0:0:0:
86,238,72645,1,8,0:0:0:0:
86,238,72813,1,2,0:0:0:0:
83,328,72982,6,0,P|147:324|197:364,1,130,4|8,1:2|0:0,0:0:0:0:
268,306,73487,2,0,P|306:301|340:298,1,65,2|0,0:0|1:0,0:0:0:0:
426,320,73824,1,2,0:0:0:0:
426,320,73993,2,0,P|421:281|419:234,1,65,8|2,0:0|0:0,0:0:0:0:
484,191,74330,6,0,B|500:157|503:116|503:116|449:67,2,130,0|8|0,1:0|0:0|1:0,0:0:0:0:
396,166,75173,1,0,1:0:0:0:
396,166,75341,2,0,P|362:161|318:159,1,65,8|0,0:0|0:0,0:0:0:0:
251,115,75678,6,0,P|314:114|359:70,1,130,0|8,1:0|0:0,0:0:0:0:
277,30,76184,1,2,0:0:0:0:
277,30,76352,2,0,P|239:24|195:24,1,65,0|0,1:0|1:0,0:0:0:0:
74,79,76690,1,8,3:0:0:0:
125,3,76858,6,0,B|175:49|175:49|152:131,1,130,4|0,1:2|1:0,0:0:0:0:
64,231,77364,2,0,L|81:169,1,65,8|0,3:0|1:0,0:0:0:0:
244,122,77701,2,0,L|222:202,1,65,8|0,0:0|1:0,0:0:0:0:
156,243,78038,1,8,3:0:0:0:
176,339,78206,5,4,3:0:0:0:
176,339,78291,1,4,3:0:0:0:
176,339,78375,2,0,P|248:331|295:369,1,130,4|8,1:2|0:0,0:0:0:0:
343,289,78881,2,0,P|399:325|472:314,1,130,2|2,0:0|0:0,0:0:0:0:
512,245,79386,1,8,0:0:0:0:
421,236,79555,6,0,P|405:153|409:90,1,130,2|2,0:0|0:0,0:0:0:0:
334,53,80060,2,0,P|327:88|320:121,1,65,8|0,0:0|0:0,0:0:0:0:
239,157,80397,2,0,P|212:125|114:129,1,130,0|8,1:0|0:0,0:0:0:0:
20,265,81072,6,0,P|83:256|166:248,2,130,2|8|0,1:2|0:0|1:0,0:0:0:0:
65,344,81914,2,0,P|105:339|139:334,1,65,0|8,0:0|0:0,0:0:0:0:
217,310,82251,6,0,P|268:350|349:333,1,130,2|2,0:0|0:0,0:0:0:0:
421,348,82757,2,0,P|413:327|402:280,1,65,8|2,0:0|0:0,0:0:0:0:
455,211,83094,1,0,1:0:0:0:
455,211,83263,1,2,0:0:0:0:
389,97,83431,2,0,P|382:128|378:161,1,65,8|0,0:0|0:0,0:0:0:0:
322,233,83768,6,0,P|285:201|196:208,1,130,4|8,1:2|0:0,0:0:0:0:
135,258,84274,1,2,0:0:0:0:
135,258,84442,2,0,B|144:290|144:290|135:320,1,65,0|2,1:0|0:0,0:0:0:0:
52,219,84779,2,0,B|49:187|49:187|63:157,1,65,8|2,0:0|0:0,0:0:0:0:
118,84,85116,5,4,1:0:0:0:
118,84,85285,1,2,0:0:0:0:
204,111,85454,2,0,L|288:95,1,65,8|2,0:0|0:0,0:0:0:0:
314,20,85791,2,0,L|387:33,1,65,0|8,1:0|3:0,0:0:0:0:
378,31,86043,1,8,3:0:0:0:
378,31,86128,1,8,0:0:0:0:
464,102,86296,5,4,3:0:0:0:
464,102,86381,1,4,3:0:0:0:
464,102,86465,2,0,P|428:154|443:207,1,97.5,4|0,1:2|0:0,0:0:0:0:
454,213,86802,2,0,P|393:216|289:230,1,155.999995239258,12|0,0:0|1:0,0:0:0:0:
278,318,87307,1,0,0:0:0:0:
278,318,87476,2,0,P|295:345|294:377,1,65,8|0,0:0|0:0,0:0:0:0:
189,297,87813,6,0,P|197:245|204:160,1,130,2|8,1:2|0:0,0:0:0:0:
166,84,88319,1,2,0:0:0:0:
166,84,88487,2,0,P|146:109|116:121,1,65,2|2,1:2|0:0,0:0:0:0:
0,25,88824,2,0,P|31:31|56:53,1,65,8|0,0:0|0:0,0:0:0:0:
66,192,89161,5,8,0:0:0:0:
66,192,89330,1,4,3:0:0:0:
31,275,89499,1,8,0:0:0:0:
31,275,89667,1,4,3:0:0:0:
110,318,89836,5,8,0:0:0:0:
110,318,90004,1,4,3:0:0:0:
150,236,90173,1,8,0:0:0:0:
150,236,90341,1,4,3:0:0:0:
66,192,90510,5,4,1:2:0:0:
161,23,91352,5,2,0:0:0:0:
161,23,91521,2,0,L|151:68,3,32.5,8|8|4|4,3:0|3:0|3:0|3:0,0:0:0:0:
174,81,91858,1,4,1:2:0:0:
256,192,99948,5,4,1:2:0:0:
256,192,101128,6,0,L|256:326,1,130,4|4,1:2|1:2,0:0:0:0:
256,322,101633,1,4,1:2:0:0:
260,48,102139,2,0,L|252:40|249:37|245:33|241:29|238:26|238:-11,2,32.5,8|4|8,0:3|3:0|0:0,0:0:0:0:
260,48,102645,6,0,P|340:44|378:89,1,130,4|8,1:2|0:0,0:0:0:0:
462,63,103150,2,0,P|446:126|431:189,1,130,2|0,0:0|0:0,0:0:0:0:
465,274,103656,1,8,0:0:0:0:
465,274,103824,2,0,P|395:268|339:315,1,130,2|0,0:0|0:0,0:0:0:0:
302,379,104330,1,8,0:0:0:0:
302,379,104499,2,0,P|236:372|162:367,1,130,2|0,0:0|1:0,0:0:0:0:
81,365,105004,1,8,0:0:0:0:
81,365,105341,6,0,B|39:335|39:335|41:292|72:246,1,130,0|8,1:0|0:0,0:0:0:0:
137,208,105847,2,0,P|170:218|203:227,1,65,0|0,0:0|1:0,0:0:0:0:
290,233,106184,2,0,P|283:204|275:158,1,65,0|8,1:0|0:0,0:0:0:0:
246,83,106521,2,0,P|289:128|351:122,1,130,2|0,0:0|0:0,0:0:0:0:
318,37,107027,2,0,P|254:33|189:26,1,130,8|0,0:0|1:0,0:0:0:0:
99,43,107532,1,0,1:0:0:0:
99,43,107701,2,0,P|115:75|113:111,1,65,8|2,0:0|0:0,0:0:0:0:
13,226,108038,6,0,L|23:97,1,130,4|8,1:2|0:0,0:0:0:0:
107,191,108543,2,0,L|97:320,1,130,4|2,1:0|0:0,0:0:0:0:
184,294,109049,1,8,0:0:0:0:
246,359,109218,2,0,P|308:367|360:329,1,130,4|4,1:2|3:0,0:0:0:0:
439,242,109723,2,0,P|442:275|447:307,1,65,8|0,0:0|1:0,0:0:0:0:
351,219,110060,2,0,P|353:186|359:154,1,65,8|0,0:0|1:0,0:0:0:0:
447,120,110397,1,8,3:0:0:0:
447,120,110482,1,8,3:0:0:0:
447,120,110566,1,4,3:0:0:0:
393,46,110734,6,0,P|356:54|256:64,1,130,4|2,1:2|0:0,0:0:0:0:
183,21,111240,1,2,3:0:0:0:
183,21,111409,2,0,P|118:23|91:91,1,130,0|2,1:0|0:0,0:0:0:0:
114,161,111914,1,2,3:0:0:0:
114,161,112251,1,4,3:0:0:0:
192,198,112420,2,0,P|230:189|274:183,1,65,2|0,0:0|3:0,0:0:0:0:
303,262,112757,2,0,P|239:275|164:288,1,130,0|0,1:0|1:0,0:0:0:0:
0,198,113431,6,0,P|73:197|117:158,1,130,4|2,1:2|0:0,0:0:0:0:
145,75,113937,1,2,3:0:0:0:
145,75,114105,2,0,P|209:86|287:97,1,130,0|2,1:0|0:0,0:0:0:0:
349,45,114611,1,2,3:0:0:0:
349,45,114948,1,0,1:0:0:0:
429,87,115116,2,0,P|432:54|437:22,1,65,2|2,0:0|3:0,0:0:0:0:
510,127,115454,2,0,P|456:122|400:179,1,130,0|0,1:0|1:0,0:0:0:0:
450,346,116128,6,0,P|385:335|321:327,1,130,4|2,1:2|0:0,0:0:0:0:
251,269,116633,1,2,3:0:0:0:
251,269,116802,2,0,P|216:316|135:313,1,130,0|2,1:0|0:0,0:0:0:0:
89,251,117307,1,2,3:0:0:0:
89,251,117645,1,0,1:0:0:0:
22,313,117813,2,0,P|17:356|16:381,1,65,2|2,0:0|3:0,0:0:0:0:
89,251,118150,2,0,P|99:178|38:135,1,130,0|0,1:0|1:0,0:0:0:0:
62,141,118824,6,0,B|116:147|151:160|151:160|169:134|205:113,1,155.999995239258,4|8,1:2|0:0,0:0:0:0:
365,45,119330,2,0,P|287:37|211:23,1,155.999995239258,4|0,1:0|0:0,0:0:0:0:
303,134,119836,1,2,1:2:0:0:
240,204,120004,2,0,P|224:291|269:335,1,155.999995239258,4|0,1:2|1:0,0:0:0:0:
355,382,120510,2,0,P|358:343|364:304,1,77.999997619629,8|0,0:0|1:0,0:0:0:0:
446,260,120847,1,8,0:0:0:0:
387,187,121015,1,0,1:0:0:0:
387,187,121100,1,0,0:0:0:0:
387,187,121184,2,0,L|394:139,3,38.9999988098145,8|8|4|0,3:0|3:0|3:0|0:0,0:0:0:0:
416,122,121521,6,0,P|356:113|293:97,1,97.5,4|0,1:2|0:0,0:0:0:0:
292,83,121858,2,0,P|212:37|149:70,1,155.999995239258,12|0,0:0|1:0,0:0:0:0:
72,87,122364,2,0,P|68:55|62:23,1,65,2|8,0:0|0:0,0:0:0:0:
141,147,122701,2,0,P|131:222|124:290,1,130,0|0,1:0|1:0,0:0:0:0:
61,340,123206,1,8,0:0:0:0:
61,340,123543,2,0,P|30:343|-5:329,1,65,0|2,1:0|0:0,0:0:0:0:
140,213,123881,2,0,P|129:243|125:276,1,65,8|2,0:0|0:0,0:0:0:0:
180,348,124218,6,0,B|221:358|257:326|257:326|309:347,1,130,4|8,1:0|0:0,0:0:0:0:
388,322,124723,2,0,P|402:363|415:398,2,65,2|0|2,0:0|1:0|0:0,0:0:0:0:
326,254,125229,1,8,0:0:0:0:
326,254,125397,2,0,P|322:197|388:137,1,130,0|0,1:0|1:0,0:0:0:0:
457,152,125903,2,0,P|450:124|441:74,1,65,8|2,0:0|0:0,0:0:0:0:
403,6,126240,1,0,1:0:0:0:
403,6,126409,1,0,0:0:0:0:
330,61,126577,2,0,P|296:65|261:68,1,65,8|0,0:0|0:0,0:0:0:0:
125,133,126914,6,0,P|187:120|241:155,1,130,4|8,1:2|0:0,0:0:0:0:
328,180,127420,2,0,P|311:270|304:315,1,130,0|2,0:0|0:0,0:0:0:0:
228,356,127925,1,8,0:0:0:0:
228,356,128094,2,0,P|177:322|96:339,1,130,0|0,1:0|1:0,0:0:0:0:
6,247,128600,2,0,P|15:279|22:311,1,65,8|0,0:0|0:0,0:0:0:0:
97,230,128937,2,0,P|89:202|82:165,1,65,0|2,1:0|0:0,0:0:0:0:
32,89,129274,1,8,0:0:0:0:
32,89,129442,1,0,0:0:0:0:
160,120,129611,6,0,P|223:116|266:69,1,130,4|8,1:2|0:0,0:0:0:0:
362,0,130116,2,0,P|352:63|346:128,1,130,4|0,1:2|1:0,0:0:0:0:
399,202,130622,1,8,0:0:0:0:
331,262,130791,2,0,P|261:275|205:241,1,130,4|0,1:0|1:0,0:0:0:0:
399,202,131296,2,0,P|418:239|418:284,1,65,8|0,0:0|1:0,0:0:0:0:
377,342,131633,1,8,0:0:0:0:
377,342,131802,1,0,1:0:0:0:
293,376,131970,2,0,P|260:370|219:368,1,65,8|0,0:0|3:0,0:0:0:0:
201,379,132223,5,0,3:0:0:0:
201,379,132307,2,0,P|182:336|177:314,1,65,0|0,1:0|1:0,0:0:0:0:
250,263,132645,2,0,L|262:212,3,32.5,8|8|8|8,0:0|0:0|3:0|3:0,0:0:0:0:
225,210,132982,2,0,P|212:178|200:132,1,65,8|0,3:0|1:0,0:0:0:0:
169,149,133234,1,0,1:0:0:0:
169,149,133319,2,0,L|127:159,3,32.5,8|8|4|4,3:0|3:0|3:0|3:0,0:0:0:0:
107,180,133656,6,0,P|104:114|64:52,1,130,4|8,1:0|0:0,0:0:0:0:
196,0,134161,2,0,P|184:29|177:61,1,65,2|0,0:0|1:0,0:0:0:0:
265,82,134499,2,0,P|314:72|344:70,1,65,2|8,0:0|0:0,0:0:0:0:
473,135,134836,6,0,B|440:134|411:109|411:109|397:141|368:152,1,130,2|2,0:0|0:0,0:0:0:0:
280,175,135341,2,0,P|270:220|268:247,1,65,8|0,0:0|0:0,0:0:0:0:
352,275,135678,1,0,1:0:0:0:
352,275,135847,1,0,1:0:0:0:
436,307,136015,2,0,P|428:357|424:385,1,65,8|2,0:0|0:0,0:0:0:0:
335,360,136352,6,0,B|285:352|285:352|263:369|263:369|204:361,1,130,0|8,1:0|0:0,0:0:0:0:
148,296,136858,1,2,0:0:0:0:
60,320,137027,2,0,P|53:361|51:389,1,65,0|0,1:0|0:0,0:0:0:0:
148,296,137364,2,0,P|157:241|100:180,2,130,8|0|8,0:0|1:0|0:0,0:0:0:0:
60,320,138206,6,0,P|43:271|20:183,1,130,2|2,0:0|0:0,0:0:0:0:
34,105,138712,1,8,0:0:0:0:
34,105,138881,1,2,0:0:0:0:
124,95,139049,6,0,P|174:133|237:124,1,130,4|8,1:2|0:0,0:0:0:0:
297,55,139555,2,0,P|266:46|227:34,1,65,2|0,0:0|1:0,0:0:0:0:
392,50,139892,1,2,0:0:0:0:
392,50,140060,2,0,P|382:80|373:112,1,65,8|2,0:0|0:0,0:0:0:0:
450,161,140397,6,0,P|490:191|484:278,2,130,0|8|0,1:0|0:0|1:0,0:0:0:0:
367,200,141240,1,0,1:0:0:0:
367,200,141409,2,0,P|332:194|286:188,1,65,8|0,0:0|0:0,0:0:0:0:
258,270,141746,6,0,P|330:282|401:292,2,130,0|8|0,1:0|0:0|1:0,0:0:0:0:
172,301,142588,1,0,1:0:0:0:
242,359,142757,1,8,3:0:0:0:
189,211,142925,6,0,P|130:214|83:291,1,130,4|0,1:2|1:0,0:0:0:0:
0,165,143431,2,0,P|36:158|72:148,1,65,8|0,3:0|1:0,0:0:0:0:
180,88,143768,2,0,P|148:82|117:77,1,65,8|0,0:0|1:0,0:0:0:0:
263,1,144105,2,0,P|265:33|269:66,1,65,8|4,3:0|3:0,0:0:0:0:
291,91,144358,5,4,3:0:0:0:
291,91,144442,2,0,P|344:95|387:58,1,97.5,4|0,1:2|0:0,0:0:0:0:
407,50,144779,2,0,B|380:110|380:110|383:156|440:179,1,155.999995239258,12|0,0:0|1:0,0:0:0:0:
484,252,145285,2,0,P|449:255|409:263,1,65,2|8,0:0|0:0,0:0:0:0:
357,327,145622,6,0,P|309:287|246:295,1,130,2|2,0:0|0:0,0:0:0:0:
163,256,146128,2,0,P|148:333|142:396,2,130,8|0|8,0:0|1:0|0:0,0:0:0:0:
240,91,147139,6,0,P|297:137|286:200,1,130,2|8,1:2|0:0,0:0:0:0:
203,177,147645,1,2,0:0:0:0:
203,177,147813,2,0,P|141:171|52:159,1,130,0|8,1:0|0:0,0:0:0:0:
18,47,148319,6,0,B|58:42|92:33|92:33|112:59|117:82,1,130,6|2,1:2|0:0,0:0:0:0:
73,162,148824,2,0,P|64:193|60:225,1,65,8|2,0:0|0:0,0:0:0:0:
106,304,149161,1,0,1:0:0:0:
106,304,149330,1,2,0:0:0:0:
184,258,149499,2,0,P|222:251|266:247,1,65,8|0,0:0|0:0,0:0:0:0:
404,300,149836,2,0,P|341:291|291:329,1,130,4|8,1:2|0:0,0:0:0:0:
208,166,150510,6,0,P|209:140|216:86,1,65,0|2,1:0|0:0,0:0:0:0:
310,15,150847,2,0,P|305:47|302:80,1,65,8|2,0:0|0:0,0:0:0:0:
363,147,151184,2,0,P|398:140|448:132,1,65,4|2,1:0|0:0,0:0:0:0:
459,220,151521,2,0,P|426:226|385:233,1,65,8|2,0:0|0:0,0:0:0:0:
283,308,151858,2,0,P|301:281|305:249,1,65,0|8,1:0|3:0,0:0:0:0:
271,164,152195,1,8,0:0:0:0:
215,236,152364,5,4,3:0:0:0:
215,236,152448,1,4,3:0:0:0:
215,236,152532,2,0,P|171:232|103:220,1,97.5,4|0,1:2|0:0,0:0:0:0:
83,235,152869,2,0,B|125:177|125:177|126:131|77:86,1,155.999995239258,12|0,0:0|1:0,0:0:0:0:
26,37,153375,1,0,0:0:0:0:
113,14,153543,2,0,P|163:24|228:34,1,97.5,8|0,0:0|0:0,0:0:0:0:
234,55,153881,6,0,P|282:17|359:31,2,130,2|8|2,1:2|0:0|1:2,0:0:0:0:
287,128,154723,1,2,0:0:0:0:
185,204,154892,2,0,P|190:171|196:140,1,65,8|0,0:0|0:0,0:0:0:0:
265,251,155229,5,8,0:0:0:0:
265,251,155397,1,4,3:0:0:0:
343,204,155566,1,8,0:0:0:0:
343,204,155734,1,4,3:0:0:0:
426,241,155903,5,8,0:0:0:0:
426,241,156072,1,4,3:0:0:0:
350,292,156240,1,8,0:0:0:0:
350,292,156409,1,4,3:0:0:0:
265,251,156577,5,4,1:2:0:0:
490,96,157420,5,2,0:0:0:0:
490,96,157588,2,0,L|531:101,2,32.5,8|8|4,3:0|3:0|3:0,0:0:0:0:
399,82,157925,1,4,3:2:0:0:
23,67,167364,5,2,0:3:0:0:
97,118,167532,1,0,1:0:0:0:
97,118,167701,2,0,P|87:204|82:267,1,130,6|8,1:2|3:0,0:0:0:0:
115,266,168122,1,8,3:0:0:0:
115,266,168206,2,0,L|157:255,2,32.5,4|4|4,3:0|3:0|3:0,0:0:0:0:
109,357,168543,6,0,P|183:338|251:324,1,130,4|0,1:2|0:0,0:0:0:0:
410,332,169049,2,0,P|347:324|309:274,1,130,12|0,0:0|1:0,0:0:0:0:
309,182,169555,2,0,P|340:189|389:197,1,65,2|8,0:0|0:0,0:0:0:0:
463,182,169892,2,0,P|484:119|446:64,1,130,2|2,0:0|0:0,0:0:0:0:
373,23,170397,1,8,0:0:0:0:
373,23,170734,1,0,1:0:0:0:
312,91,170903,2,0,P|278:83|244:79,1,65,0|8,1:0|0:0,0:0:0:0:
167,37,171240,6,0,B|209:78|209:78|193:147,1,130,2|0,0:0|0:0,0:0:0:0:
93,173,171746,2,0,L|109:110,1,65,8|2,0:0|0:0,0:0:0:0:
165,229,172083,1,0,1:0:0:0:
165,229,172251,1,0,0:0:0:0:
79,260,172420,2,0,P|42:311|63:370,1,130,8|0,0:0|1:0,0:0:0:0:
143,327,172925,1,0,0:0:0:0:
143,327,173094,2,0,P|203:315|283:303,1,130,8|0,0:0|1:0,0:0:0:0:
353,261,173600,1,2,0:0:0:0:
420,322,173768,1,8,0:0:0:0:
353,261,173937,6,0,B|315:225|315:225|345:125,1,130,4|0,1:2|0:0,0:0:0:0:
420,114,174442,2,0,P|450:124|482:130,1,65,8|2,0:0|0:0,0:0:0:0:
355,49,174779,1,0,1:0:0:0:
355,49,174948,2,0,P|317:51|278:59,1,65,2|8,0:0|0:0,0:0:0:0:
129,113,175285,6,0,B|176:102|210:101|210:101|244:135,1,130,4|2,1:0|0:0,0:0:0:0:
176,195,175791,2,0,P|144:199|106:206,1,65,8|0,0:0|0:0,0:0:0:0:
38,259,176128,1,0,1:0:0:0:
115,358,176296,2,0,P|117:326|121:294,1,65,0|8,1:0|0:0,0:0:0:0:
27,165,176633,6,0,P|13:124|70:53,1,130,4|0,1:2|0:0,0:0:0:0:
143,24,177139,1,8,0:0:0:0:
143,24,177476,1,0,1:0:0:0:
203,91,177645,2,0,P|239:82|285:77,1,65,2|8,1:2|0:0,0:0:0:0:
389,6,177982,6,0,B|355:69|355:69|377:96|372:123,1,130,4|4,1:2|1:2,0:0:0:0:
295,172,178487,1,4,1:2:0:0:
295,172,178572,2,0,P|269:216|288:273,1,97.5,0|8,0:0|3:0,0:0:0:0:
310,265,178909,2,0,P|348:260|389:259,1,65,8|4,3:0|3:0,0:0:0:0:
407,262,179161,1,8,0:0:0:0:
348,349,179330,6,0,P|277:356|207:360,1,130,4|4,1:2|1:2,0:0:0:0:
139,288,179836,2,0,L|153:232,3,32.5,12|8|4|4,0:2|0:0|3:0|3:0,0:0:0:0:
134,227,180173,2,0,L|146:178,3,32.5,8|8|8|8,3:0|3:0|3:0|3:0,0:0:0:0:
122,169,180510,2,0,B|94:186|94:186|61:189,1,65,8|12,0:0|3:0,0:0:0:0:
157,80,180847,6,0,P|219:77|271:129,1,116.999996429443,4|0,3:0|0:0,0:0:0:0:
282,134,181184,2,0,P|293:92|310:41,1,97.50000371933,4|0,1:2|0:0,0:0:0:0:
464,156,181523,6,0,B|401:128|351:196|351:196|302:253|230:217,1,260,4|2,1:0|0:0,0:0:0:0:
235,219,183545,1,2,0:0:0:0:
61,275,184219,2,0,P|65:228|75:143,2,130,2|2|4,0:0|0:0|1:2,0:0:0:0:
113,349,185736,5,4,1:2:0:0:
113,349,186073,5,0,1:0:0:0:
188,297,186242,1,8,0:0:0:0:
258,362,186410,1,0,1:0:0:0:
258,362,186747,6,0,P|332:360|367:302,1,130,4|0,1:2|0:0,0:0:0:0:
454,318,187253,2,0,P|440:269|424:182,1,130,8|0,0:0|1:0,0:0:0:0:
512,118,187758,1,2,0:0:0:0:
512,118,187927,2,0,P|473:111|430:101,1,65,8|2,0:0|0:0,0:0:0:0:
383,41,188264,6,0,B|344:17|344:17|302:32|266:73,1,130,0|8,1:0|0:0,0:0:0:0:
183,68,188770,1,0,0:0:0:0:
183,68,188938,2,0,P|199:100|212:138,1,65,0|0,1:0|1:0,0:0:0:0:
276,210,189275,2,0,P|285:179|297:149,1,65,8|0,0:0|0:0,0:0:0:0:
166,210,189612,6,0,B|143:197|124:179|124:179|33:210,1,130,0|8,1:0|0:0,0:0:0:0:
43,295,190118,1,2,0:0:0:0:
43,295,190287,2,0,L|125:270,1,65,0|0,1:0|1:0,0:0:0:0:
261,372,190624,1,8,3:0:0:0:
170,346,190792,6,0,P|206:293|292:289,1,130,4|0,1:2|1:0,0:0:0:0:
407,317,191298,2,0,L|344:329,1,65,8|0,3:0|1:0,0:0:0:0:
356,172,191635,2,0,L|348:237,1,65,8|0,0:0|1:0,0:0:0:0:
444,196,191972,1,8,3:0:0:0:
447,176,192056,1,8,3:0:0:0:
450,156,192140,1,4,3:0:0:0:
453,136,192225,1,4,3:0:0:0:
456,116,192309,6,0,P|427:67|369:54,1,97.5,4|0,1:2|0:0,0:0:0:0:
361,37,192646,2,0,B|310:82|310:82|266:86|205:41,1,155.999995239258,12|0,0:0|1:0,0:0:0:0:
149,8,193152,1,2,0:0:0:0:
149,8,193320,1,8,0:0:0:0:
70,54,193489,6,0,P|84:123|100:199,1,130,2|2,0:0|0:0,0:0:0:0:
186,194,193994,2,0,P|180:166|171:119,1,65,8|0,0:0|0:0,0:0:0:0:
7,172,194331,2,0,P|13:203|19:235,1,65,0|0,1:0|0:0,0:0:0:0:
116,264,194669,1,8,0:0:0:0:
116,264,195006,6,0,P|176:271|195:354,1,130,2|8,1:2|0:0,0:0:0:0:
118,362,195511,1,2,0:0:0:0:
118,362,195680,2,0,P|170:350|248:340,1,130,0|8,1:0|0:0,0:0:0:0:
399,294,196185,6,0,B|410:337|381:370|381:370|332:366,1,130,4|2,1:2|0:0,0:0:0:0:
324,249,196691,2,0,P|328:222|342:172,1,65,8|2,0:0|0:0,0:0:0:0:
419,145,197028,1,0,1:0:0:0:
419,145,197197,1,2,0:0:0:0:
387,59,197365,2,0,P|339:71|270:86,1,97.5,8|0,0:0|0:0,0:0:0:0:
264,95,197702,6,0,P|272:57|280:18,1,77.999997619629,4|2,1:2|0:0,0:0:0:0:
155,105,198039,2,0,P|146:139|138:184,1,77.999997619629,8|2,0:0|0:0,0:0:0:0:
241,214,198376,2,0,P|280:206|318:200,1,77.999997619629,4|2,1:2|0:0,0:0:0:0:
158,285,198714,2,0,P|119:292|81:298,1,77.999997619629,8|2,0:0|0:0,0:0:0:0:
258,383,199051,6,0,B|275:350|275:350|264:311,1,77.999997619629,4|2,1:0|0:0,0:0:0:0:
398,344,199388,2,0,B|395:306|395:306|366:278,1,77.999997619629,12|2,1:2|0:0,0:0:0:0:
476,222,199725,2,0,B|455:190|455:190|416:180,1,77.999997619629,12|0,1:2|0:0,0:0:0:0:
251,119,200062,1,8,3:0:0:0:
276,113,200146,1,8,3:0:0:0:
302,107,200230,1,4,3:0:0:0:
327,102,200315,1,4,3:0:0:0:
352,96,200399,6,0,P|327:42|280:21,1,107.25000327301,4|0,1:0|0:0,0:0:0:0:
257,31,200736,2,0,P|357:21|435:7,1,155.999995239258,12|0,0:0|1:0,0:0:0:0:
509,105,201242,2,0,P|503:73|496:42,1,65,2|8,0:0|0:0,0:0:0:0:
435,159,201579,6,0,P|427:231|479:272,1,130,2|2,0:0|0:0,0:0:0:0:
417,345,202084,2,0,P|378:355|340:371,1,65,8|0,0:0|0:0,0:0:0:0:
273,255,202421,2,0,P|305:262|336:274,1,65,0|0,1:0|1:0,0:0:0:0:
230,384,202758,2,0,P|219:353|212:322,1,65,8|2,0:0|0:0,0:0:0:0:
138,201,203096,6,0,P|130:265|120:330,1,130,0|8,1:0|0:0,0:0:0:0:
39,288,203601,2,0,P|43:254|52:215,1,65,2|0,0:0|1:0,0:0:0:0:
11,124,203938,2,0,P|42:132|75:136,1,65,0|8,0:0|0:0,0:0:0:0:
142,74,204275,6,0,B|180:42|180:42|230:51|254:71,1,130,0|0,1:0|0:0,0:0:0:0:
341,48,204781,1,8,0:0:0:0:
341,48,204949,2,0,P|326:127|318:185,1,130,2|2,0:0|0:0,0:0:0:0:
389,234,205455,1,8,0:0:0:0:
389,234,205624,1,2,0:0:0:0:
307,306,205792,6,0,P|254:292|146:286,1,155.999995239258,4|0,1:2|0:0,0:0:0:0:
389,234,206298,6,0,B|355:293|355:293|358:341|402:361,1,155.999995239258,4|0,1:0|0:0,0:0:0:0:
496,221,206803,6,0,B|480:168|480:168|503:125|503:125|471:80,1,155.999995239258,4|0,1:2|0:0,0:0:0:0:
278,59,207309,6,0,P|354:57|404:0,1,155.999995239258,4|0,1:0|0:0,0:0:0:0:
391,170,207815,6,0,L|293:164,1,77.999997619629,4|0,1:2|0:0,0:0:0:0:
180,255,208152,2,0,L|258:260,1,77.999997619629,4|0,1:0|0:0,0:0:0:0:
435,337,208489,5,4,1:2:0:0:
352,299,208657,1,4,1:0:0:0:
277,352,208826,1,4,1:2:0:0:
277,352,209669,6,0,L|116:342,1,155.999995239258,4|0,1:2|0:0,0:0:0:0:
0,295,210174,1,0,0:0:0:0:
39,384,210343,2,0,P|91:321|73:233,1,155.999995239258,4|0,1:2|1:0,0:0:0:0:
64,219,210764,1,0,1:0:0:0:
64,219,210848,2,0,L|20:211,3,38.9999988098145,8|8|4|4,3:0|3:0|3:0|3:0,0:0:0:0:
2,187,211185,6,0,L|143:171,1,130,4|8,1:2|0:0,0:0:0:0:
202,228,211691,2,0,P|275:228|319:179,1,130,2|2,0:0|0:0,0:0:0:0:
402,211,212197,1,8,0:0:0:0:
426,123,212365,6,0,P|412:90|387:-17,1,130,2|2,0:0|0:0,0:0:0:0:
308,41,212871,2,0,P|298:83|288:113,1,65,8|0,0:0|0:0,0:0:0:0:
313,190,213208,1,0,1:0:0:0:
313,190,213376,1,0,0:0:0:0:
402,211,213545,2,0,P|439:205|481:200,1,65,8|0,0:0|0:0,0:0:0:0:
509,282,213882,6,0,P|448:290|361:302,1,130,2|8,1:2|0:0,0:0:0:0:
290,280,214388,1,2,0:0:0:0:
290,280,214556,2,0,P|280:325|276:353,1,65,0|0,1:0|0:0,0:0:0:0:
191,375,214893,1,8,0:0:0:0:
121,316,215062,6,0,B|43:302|43:302|4:335,1,130,6|2,1:2|0:0,0:0:0:0:
53,212,215567,2,0,L|117:225,1,65,8|2,0:0|0:0,0:0:0:0:
198,266,215905,1,0,1:0:0:0:
198,266,216073,1,2,0:0:0:0:
267,136,216242,2,0,P|264:168|262:201,1,65,8|0,0:0|0:0,0:0:0:0:
343,242,216579,6,0,P|395:250|456:180,1,130,4|8,1:2|0:0,0:0:0:0:
492,121,217084,1,2,0:0:0:0:
492,121,217253,2,0,P|457:113|419:105,1,65,0|2,1:0|0:0,0:0:0:0:
384,27,217590,2,0,P|348:37|313:45,1,65,8|2,0:0|0:0,0:0:0:0:
231,25,217927,5,4,1:0:0:0:
231,25,218096,1,2,0:0:0:0:
174,96,218264,2,0,P|101:112|48:66,2,130,8|0|8,0:0|1:0|0:0,0:0:0:0:
270,120,219107,5,4,3:0:0:0:
270,120,219191,1,4,3:0:0:0:
270,120,219275,2,0,P|276:178|279:233,1,97.5,4|0,1:2|0:0,0:0:0:0:
300,246,219612,2,0,B|216:222|234:299|136:269,1,155.999995239258,12|0,0:0|1:0,0:0:0:0:
66,242,220118,1,0,0:0:0:0:
66,242,220287,2,0,P|55:283|48:323,1,65,8|0,0:0|0:0,0:0:0:0:
144,178,220624,6,0,P|142:130|58:89,1,130,2|8,1:2|0:0,0:0:0:0:
18,12,221129,1,2,0:0:0:0:
18,12,221298,2,0,P|50:6|95:-4,1,65,2|2,1:2|0:0,0:0:0:0:
237,19,221635,2,0,P|204:24|173:31,1,65,8|0,0:0|0:0,0:0:0:0:
264,107,221972,5,8,0:0:0:0:
264,107,222140,1,4,3:0:0:0:
326,40,222309,1,8,0:0:0:0:
326,40,222478,1,4,3:0:0:0:
362,123,222646,5,8,0:0:0:0:
362,123,222815,1,4,3:0:0:0:
302,191,222983,1,8,0:0:0:0:
302,191,223152,1,4,3:0:0:0:
326,40,223320,5,4,1:2:0:0:
375,353,225511,5,0,1:2:0:0:
375,353,225680,2,0,L|412:347,3,32.5,8|8|4|4,3:0|3:0|3:0|3:0,0:0:0:0:
441,352,226017,6,0,P|410:304|418:245,1,97.5,4|0,1:2|0:0,0:0:0:0:
422,230,226354,2,0,B|369:263|369:263|321:250|279:215,1,155.999995239258,12|0,0:0|1:0,0:0:0:0:
215,163,226860,2,0,P|206:206|197:244,1,65,2|10,0:0|0:0,0:0:0:0:
242,308,227197,2,0,P|190:271|108:287,1,130,2|0,0:0|0:0,0:0:0:0:
42,309,227702,1,8,0:0:0:0:
41,309,227871,2,0,P|27:249|2:167,1,130,2|2,0:0|0:0,0:0:0:0:
96,165,228376,2,0,P|99:132|104:100,1,65,10|2,0:0|0:0,0:0:0:0:
151,21,228714,6,0,P|96:54|33:47,2,130,4|8|0,1:0|0:0|1:0,0:0:0:0:
210,89,229556,2,0,P|249:81|298:75,1,65,2|10,0:0|0:0,0:0:0:0:
352,30,229893,2,0,B|319:71|319:71|334:111|378:131,1,130,6|0,1:2|0:0,0:0:0:0:
451,168,230399,1,8,0:0:0:0:
451,168,230567,2,0,P|387:165|337:225,1,130,2|2,0:0|0:0,0:0:0:0:
303,290,231073,1,8,3:0:0:0:
397,320,231242,5,4,3:0:0:0:
397,320,231326,1,0,0:0:0:0:
397,320,231410,2,0,L|389:411,1,65,4|2,1:2|0:0,0:0:0:0:
303,290,231747,1,0,3:0:0:0:
233,347,231915,2,0,B|186:365|186:365|106:324,1,130,4|2,1:0|0:0,0:0:0:0:
150,244,232421,1,8,0:0:0:0:
30,292,232589,6,0,P|99:293|149:244,1,143.000004364014,4|0,1:2|3:0,0:0:0:0:
178,147,233095,1,8,0:0:0:0:
276,165,233263,2,0,P|266:111|252:7,1,143.000004364014,12|4,0:0|3:0,0:0:0:0:
352,5,233769,5,4,1:2:0:0:
439,108,233938,2,0,P|401:105|368:104,1,71.5000021820069,2|0,0:0|3:0,0:0:0:0:
253,23,234275,2,0,P|203:72|134:70,1,143.000004364014,4|2,1:0|0:0,0:0:0:0:
58,6,234780,1,8,0:0:0:0:
85,144,234949,6,0,B|107:87|107:87|58:6,1,155.999995239258,4|0,1:2|3:0,0:0:0:0:
0,98,235454,1,8,0:0:0:0:
143,206,235623,2,0,B|119:178|76:171|76:171|49:204|9:207,1,155.999995239258,12|4,0:0|3:0,0:0:0:0:
89,281,236129,1,4,1:2:0:0:
0,380,236297,2,0,L|0:302,1,77.999997619629,2|0,0:0|3:0,0:0:0:0:
147,355,236634,6,0,B|233:370|215:289|311:332,1,155.999995239258,4|2,1:0|0:0,0:0:0:0:
411,154,237140,1,8,0:0:0:0:
498,217,237308,2,0,P|436:261|361:250,1,155.999995239258,4|0,1:2|3:0,0:0:0:0:
336,231,237730,1,0,0:0:0:0:
336,231,237814,1,8,0:0:0:0:
411,154,237983,2,0,B|446:95|412:55|412:55|387:73|333:74,1,155.999995239258,12|4,0:0|3:0,0:0:0:0:
191,75,238488,5,4,1:2:0:0:
277,7,238657,1,4,1:0:0:0:
