osu file format v14

[General]
AudioFilename: Audio.mp3
AudioLeadIn: 0
PreviewTime: 132645
Countdown: 0
SampleSet: Soft
StackLeniency: 0.7
Mode: 0
LetterboxInBreaks: 0
EpilepsyWarning: 1
WidescreenStoryboard: 1

[Editor]
DistanceSpacing: 1
BeatDivisor: 4
GridSize: 16
TimelineZoom: 2.8

[Metadata]
Title:Arcadia
TitleUnicode:アルカディア
Artist:Chitose Sara
ArtistUnicode:千歳サラ
Creator:Dored
Version:Easy
Source:11月のアルカディア
Tags:Galgame Visual Novel Eroge Opening Full Version 11Gatsu no Juuichigatsu Of November LevoL Garden Misure Rage Quit Suzuki_1112 Rekkursion
BeatmapID:1701162
BeatmapSetID:810877

[Difficulty]
HPDrainRate:2.5
CircleSize:3
OverallDifficulty:2.5
ApproachRate:4
SliderMultiplier:0.8
SliderTickRate:1

[Events]
//Background and Video events
0,0,"Nono3-Easy.jpg",0,0
//Break Periods
2,90710,98628
2,157923,167223
2,181721,184247
//Storyboard Layer 0 (Background)
//Storyboard Layer 1 (Fail)
//Storyboard Layer 2 (Pass)
//Storyboard Layer 3 (Foreground)
Sprite,Foreground,Centre,"sb\Nono3-Easy.jpg",320,240 F,0,44665,46013,1,0 S,0,44665,46013,0.668,0.755 C,0,44665,46013,170,170,170
Sprite,Foreground,Centre,"sb\Nono3-Easy.jpg",320,240 F,0,67586,69019,1,0 S,0,67586,69019,0.668,0.755 C,0,67586,69019,170,170,170
Sprite,Foreground,Centre,"sb\Nono3-Easy.jpg",320,240 F,0,110732,112081,1,0 S,0,110732,112081,0.668,0.745 C,0,110732,112081,170,170,170
Sprite,Foreground,Centre,"sb\Nono3-Easy.jpg",320,240 F,0,133654,135002,1,0 S,0,133654,135002,0.668,0.745 C,0,133654,135002,170,170,170
Sprite,Foreground,Centre,"sb\Nono3-Easy.jpg",320,240 F,0,200395,201743,1,0 S,0,200395,201743,0.668,0.755
Sprite,Foreground,Centre,"sb\mappedBy_Dored.png",320,240 S,0,228710,,0.6 F,0,228710,229384,0,1 M,0,228710,234271,315,430 F,0,233934,234271,1,0
//Storyboard Sound Samples

[TimingPoints]
684,337.078651685393,4,2,1,25,1,0
684,-100,4,2,1,25,0,0
1552,337.078651685393,4,2,1,40,1,0
1552,-100,4,2,1,40,0,0
10316,-100,4,2,1,40,0,0
11580,-100,4,2,1,5,0,0
11640,337.078651685393,4,2,1,60,1,0
11640,-100,4,2,1,60,0,0
12308,337.078651685393,4,2,1,60,1,0
12308,-100,4,2,1,60,0,0
17701,-100,4,2,1,65,0,0
18459,-100,4,2,1,5,0,0
18543,-100,4,2,1,65,0,0
19133,-100,4,2,1,5,0,0
19217,-100,4,2,1,65,0,0
19807,-100,4,2,1,5,0,0
19892,-100,4,2,1,65,0,0
20397,-100,4,2,1,70,0,0
21830,-100,4,2,1,5,0,0
21914,-100,4,2,1,70,0,0
22588,-100,4,2,1,50,0,0
23094,-100,4,2,2,40,0,0
32364,-100,4,2,1,50,0,0
33880,-100,4,2,1,60,0,0
44667,-100,4,2,2,55,0,0
55453,-100,4,2,1,65,0,0
66746,-100,4,2,1,60,0,0
67588,-100,4,2,1,75,0,1
77111,-100,4,2,1,5,0,1
77195,-100,4,2,1,75,0,1
83431,-100,4,2,1,75,0,1
83684,-100,4,2,1,5,0,1
83768,-100,4,2,1,75,0,1
90510,-100,4,2,1,80,0,0
91352,-100,4,2,1,55,0,0
91858,-100,4,2,1,60,0,0
98010,-100,4,2,1,5,0,0
98094,-100,4,2,1,60,0,0
99442,-100,4,2,1,50,0,0
99948,-100,4,2,1,55,0,0
102645,-100,4,2,1,60,0,0
110734,-100,4,2,2,55,0,0
118824,-100,4,2,1,60,0,0
121521,-100,4,2,1,65,0,0
133656,-100,4,2,1,75,0,1
143178,-100,4,2,1,5,0,1
143263,-100,4,2,1,75,0,1
149499,-100,4,2,1,75,0,1
149751,-100,4,2,1,5,0,1
149836,-100,4,2,1,75,0,1
156577,-100,4,2,1,80,0,0
157420,-100,4,2,1,55,0,0
157925,-100,4,2,2,55,0,0
168543,-100,4,2,1,60,0,0
173937,-100,4,2,1,65,0,0
176633,-100,4,2,1,70,0,0
178234,-100,4,2,1,5,0,0
178319,-100,4,2,1,70,0,0
179583,-100,4,2,1,5,0,0
179667,-100,4,2,1,70,0,0
180173,-100,4,2,1,65,0,0
181437,-100,4,2,1,5,0,0
181523,337.078651685393,4,2,1,70,1,0
181523,-100,4,2,1,70,0,0
186747,-100,4,2,1,75,0,1
191045,-100,4,2,1,5,0,1
191129,-100,4,2,1,75,0,1
197365,-100,4,2,1,75,0,1
197618,-100,4,2,1,5,0,1
197702,-100,4,2,1,75,0,1
200062,-100,4,2,1,75,0,0
200399,-100,4,2,1,80,0,1
205455,-100,4,2,1,80,0,0
205792,-100,4,2,1,80,0,1
206129,-100,4,2,1,80,0,0
206298,-100,4,2,1,80,0,1
206635,-100,4,2,1,80,0,0
206803,-100,4,2,1,80,0,1
207140,-100,4,2,1,80,0,0
207309,-100,4,2,1,80,0,1
207646,-100,4,2,1,80,0,0
207815,-100,4,2,1,80,0,1
207983,-100,4,2,1,80,0,0
208152,-100,4,2,1,80,0,1
208320,-100,4,2,1,80,0,0
208489,-100,4,2,1,80,0,1
210680,-100,4,2,1,80,0,0
211185,-100,4,2,1,80,0,1
216242,-100,4,2,1,80,0,1
216494,-100,4,2,1,5,0,1
216579,-100,4,2,1,80,0,1
223320,-100,4,2,1,80,0,0
223405,-100,4,2,1,65,0,0
231410,337.078651685393,7,2,1,70,1,0
231410,-100,7,2,1,70,0,0
232168,-100,7,2,1,5,0,0
232252,-100,7,2,1,70,0,0
232842,-100,7,2,1,5,0,0
232926,-100,7,2,1,70,0,0
233769,-100,7,2,1,75,0,0
234527,-100,7,2,1,5,0,0
234612,-100,7,2,1,75,0,0
235202,-100,7,2,1,5,0,0
235286,-100,7,2,1,75,0,0
236129,-100,7,2,1,80,0,0
236887,-100,7,2,1,5,0,0
236971,-100,7,2,1,80,0,0

[Colours]
Combo1 : 128,255,128
Combo2 : 205,189,148
Combo3 : 128,0,255
Combo4 : 117,186,255

[HitObjects]
128,288,1552,6,0,L|128:168,1,120,2|2,0:0|0:0,0:0:0:0:
88,98,2394,1,2,0:0:0:0:
128,29,2731,2,0,L|248:29,1,120,2|2,0:0|0:0,0:0:0:0:
312,75,3574,2,0,L|392:75,1,80,2|2,0:0|0:0,0:0:0:0:
392,154,4248,6,0,L|272:154,2,120,2|2|0,0:0|0:0|0:0,0:0:0:0:
392,234,5596,2,0,L|272:234,2,120,2|2|2,0:0|0:0|0:0,0:0:0:0:
392,314,6945,6,0,L|272:314,1,120,2|2,0:0|0:0,0:0:0:0:
202,354,7787,1,2,0:0:0:0:
133,314,8125,2,0,L|13:314,1,120,2|2,0:0|0:0,0:0:0:0:
13,233,8967,2,0,L|93:233,1,80,2|2,0:0|0:0,0:0:0:0:
144,171,9641,6,0,L|224:171,1,80,2|0,0:0|0:0,0:0:0:0:
272,234,10316,2,0,P|329:329|434:292,1,240,2|0,0:0|0:0,0:0:0:0:
459,216,11640,2,0,L|459:176,1,40,12|12,0:0|0:0,0:0:0:0:
434,59,12308,6,0,L|354:59,1,80,4|8,1:2|0:0,0:0:0:0:
281,91,12982,2,0,L|161:91,2,120,0|2|8,1:0|0:0|0:0,0:0:0:0:
313,164,14330,2,0,L|313:244,1,80,0|10,1:0|0:0,0:0:0:0:
281,317,15004,6,0,L|201:317,1,80,0|8,1:0|0:0,0:0:0:0:
128,285,15678,2,0,L|8:285,2,120,0|6|8,1:0|1:2|0:0,0:0:0:0:
160,212,17027,2,0,L|160:132,1,80,0|8,1:0|3:0,0:0:0:0:
192,59,17701,6,0,L|312:59,1,120,4|4,1:2|1:0,0:0:0:0:
382,19,18543,1,2,0:0:0:0:
451,59,18881,2,0,L|451:139,1,80,4|0,1:2|3:0,0:0:0:0:
419,212,19555,2,0,L|299:212,1,120,4|10,1:0|0:0,0:0:0:0:
241,156,20397,6,0,L|161:156,1,80,2|2,1:2|1:2,0:0:0:0:
81,156,21072,2,0,L|81:276,2,120,2|4|4,1:2|1:2|1:0,0:0:0:0:
313,156,23094,6,0,L|313:276,1,120,4|2,1:0|0:0,0:0:0:0:
470,276,24274,2,0,L|470:196,1,80,2|0,0:3|0:0,0:0:0:0:
504,124,24948,2,0,L|504:4,1,120,2|8,0:0|0:0,0:0:0:0:
424,4,25791,6,0,L|304:4,1,120,2|2,0:3|0:0,0:0:0:0:
195,115,26970,2,0,L|115:115,1,80,2|0,0:3|0:0,0:0:0:0:
35,115,27645,2,0,L|35:235,1,120,2|8,0:0|0:0,0:0:0:0:
115,235,28487,6,0,L|235:235,1,120,2|2,0:3|0:0,0:0:0:0:
388,268,29667,2,0,L|468:268,1,80,2|2,0:3|0:0,0:0:0:0:
468,347,30341,2,0,L|348:347,1,120,2|8,0:0|0:0,0:0:0:0:
270,371,31184,6,0,L|150:371,1,120,2|2,0:3|0:3,0:0:0:0:
80,226,32364,2,0,L|80:106,1,120,4|8,1:2|0:0,0:0:0:0:
161,106,33206,1,8,0:0:0:0:
161,187,33543,1,8,3:0:0:0:
232,226,33881,6,0,L|352:226,1,120,6|0,1:2|0:0,0:0:0:0:
429,205,34723,1,2,0:0:0:0:
400,131,35060,2,0,L|400:51,1,80,2|0,0:0|0:0,0:0:0:0:
320,51,35734,2,0,L|200:51,1,120,2|2,0:0|1:2,0:0:0:0:
191,131,36577,6,0,L|71:131,1,120,2|0,1:2|0:0,0:0:0:0:
15,187,37420,1,2,0:0:0:0:
71,244,37757,2,0,L|151:244,1,80,2|0,0:0|0:0,0:0:0:0:
221,205,38431,2,0,L|341:205,1,120,2|2,0:0|1:2,0:0:0:0:
421,205,39274,6,0,L|421:325,1,120,2|0,1:2|0:0,0:0:0:0:
352,365,40116,1,2,0:0:0:0:
283,325,40454,2,0,L|203:325,1,80,2|0,0:0|0:0,0:0:0:0:
134,365,41128,2,0,L|14:365,1,120,2|2,0:0|1:2,0:0:0:0:
14,285,41970,6,0,L|134:285,1,120,2|2,1:2|0:0,0:0:0:0:
203,245,42813,1,2,0:0:0:0:
182,167,43150,2,0,L|182:47,1,120,4|8,1:2|0:0,0:0:0:0:
259,27,43993,2,0,L|339:27,1,80,8|8,0:0|3:0,0:0:0:0:
416,47,44667,6,0,P|468:102|450:177,1,160,4|2,1:2|0:3,0:0:0:0:
400,241,45678,1,0,1:0:0:0:
322,220,46015,2,0,L|242:220,1,80,2|2,0:3|0:3,0:0:0:0:
182,167,46690,1,2,0:3:0:0:
122,220,47027,6,0,L|122:300,1,80,2|2,0:3|0:3,0:0:0:0:
182,352,47701,1,2,0:3:0:0:
242,299,48038,2,0,L|322:299,1,80,2|0,0:3|1:0,0:0:0:0:
391,260,48712,2,0,L|471:260,2,80,2|2|2,0:3|0:3|0:3,0:0:0:0:
352,191,49723,1,2,0:3:0:0:
391,121,50060,6,0,P|368:47|294:26,1,160,2|2,0:3|0:3,0:0:0:0:
215,35,51072,1,0,1:0:0:0:
232,112,51409,2,0,L|311:105,2,80,2|2|2,0:3|0:3|0:3,0:0:0:0:
174,166,52420,1,2,0:3:0:0:
115,112,52757,6,0,P|41:133|18:207,1,160,4|2,1:2|0:3,0:0:0:0:
48,281,53768,1,0,1:0:0:0:
126,264,54105,2,0,L|206:264,1,80,2|0,0:3|1:0,0:0:0:0:
283,243,54779,1,0,1:0:0:0:
339,299,55116,1,2,0:3:0:0:
416,278,55454,6,0,L|416:198,1,80,4|8,1:2|0:0,0:0:0:0:
346,158,56128,2,0,L|226:158,2,120,0|0|8,1:0|1:0|0:0,0:0:0:0:
416,118,57476,2,0,L|496:118,1,80,0|8,1:0|0:0,0:0:0:0:
496,38,58150,6,0,L|416:38,1,80,0|8,1:0|0:0,0:0:0:0:
346,78,58824,2,0,L|226:78,2,120,0|0|8,1:0|1:0|0:0,0:0:0:0:
416,118,60173,2,0,L|416:198,1,80,0|8,1:0|0:0,0:0:0:0:
346,238,60847,6,0,L|226:238,1,120,4|0,1:2|0:0,0:0:0:0:
156,198,61690,2,0,L|76:198,1,80,2|0,0:0|1:0,0:0:0:0:
7,238,62364,2,0,L|7:358,1,120,0|0,1:0|1:0,0:0:0:0:
84,378,63206,1,8,0:0:0:0:
161,358,63543,6,0,L|281:358,2,120,4|4|8,1:2|1:2|0:0,0:0:0:0:
256,192,64723,12,0,66240,0:0:0:0:
128,80,67588,6,0,L|248:80,1,120,4|2,1:0|0:0,0:0:0:0:
304,137,68431,1,2,0:0:0:0:
248,194,68768,2,0,L|128:194,1,120,2|8,0:0|0:0,0:0:0:0:
66,245,69611,2,0,L|66:325,1,80,0|8,1:0|0:0,0:0:0:0:
128,376,70285,6,0,L|248:376,2,120,0|2|8,1:0|0:0|0:0,0:0:0:0:
66,325,71633,2,0,L|66:245,1,80,0|8,1:0|0:0,0:0:0:0:
16,183,72307,2,0,L|16:103,1,80,0|8,1:0|0:0,0:0:0:0:
76,50,72982,6,0,L|196:50,1,120,4|2,1:2|0:0,0:0:0:0:
256,103,73824,1,2,0:0:0:0:
316,50,74161,2,0,L|436:50,1,120,2|8,0:0|0:0,0:0:0:0:
496,103,75004,2,0,L|496:183,1,80,0|8,1:0|0:0,0:0:0:0:
446,245,75678,6,0,L|446:325,1,80,0|8,1:0|0:0,0:0:0:0:
384,376,76352,2,0,L|264:376,2,120,0|4|8,1:0|1:2|3:0,0:0:0:0:
446,325,77701,2,0,L|446:245,1,80,8|8,0:0|3:0,0:0:0:0:
384,194,78375,6,0,L|264:194,1,120,4|2,1:2|0:0,0:0:0:0:
208,137,79218,1,2,0:0:0:0:
264,80,79555,2,0,L|384:80,1,120,2|8,0:0|0:0,0:0:0:0:
440,137,80397,1,0,1:0:0:0:
384,194,80734,1,8,0:0:0:0:
446,245,81072,6,0,L|446:325,1,80,2|8,1:2|0:0,0:0:0:0:
384,376,81746,2,0,L|264:376,2,120,0|2|8,1:0|0:0|0:0,0:0:0:0:
446,325,83094,2,0,L|446:245,1,80,0|8,1:0|0:0,0:0:0:0:
384,194,83768,6,0,P|309:175|252:227,1,160,4|0,1:2|1:0,0:0:0:0:
187,273,84779,1,8,0:0:0:0:
123,226,85116,2,0,L|43:226,2,80,4|8|0,1:0|0:0|1:0,0:0:0:0:
147,149,86128,1,8,0:0:0:0:
226,149,86465,6,0,L|306:149,1,80,4|12,1:2|0:0,0:0:0:0:
363,206,87139,2,0,L|443:206,1,80,0|8,1:0|0:0,0:0:0:0:
499,149,87813,1,2,1:2:0:0:
443,92,88150,2,0,L|363:92,1,80,8|2,0:0|1:2,0:0:0:0:
306,35,88824,1,8,0:0:0:0:
231,64,89161,6,0,L|237:143,1,80,8|8,0:0|0:0,0:0:0:0:
268,217,89836,2,0,L|261:296,1,80,8|8,0:0|0:0,0:0:0:0:
231,371,90510,1,4,1:2:0:0:
448,64,99948,5,4,1:2:0:0:
448,344,101128,2,0,L|328:344,1,120,4|4,1:2|1:2,0:0:0:0:
224,224,102307,1,8,0:0:0:0:
171,284,102645,6,0,L|51:284,1,120,4|0,1:2|0:0,0:0:0:0:
0,224,103487,1,0,1:0:0:0:
51,164,103824,2,0,L|171:164,1,120,2|8,0:0|0:0,0:0:0:0:
222,104,104667,2,0,L|302:104,1,80,0|8,1:0|0:0,0:0:0:0:
353,164,105341,6,0,L|353:284,1,120,0|0,1:0|0:0,0:0:0:0:
284,324,106184,1,0,1:0:0:0:
215,284,106521,2,0,L|95:284,1,120,2|8,0:0|0:0,0:0:0:0:
15,284,107364,2,0,L|15:364,1,80,0|8,1:0|0:0,0:0:0:0:
95,364,108038,6,0,L|215:364,1,120,4|4,1:2|1:0,0:0:0:0:
284,324,108881,1,2,0:0:0:0:
353,364,109218,2,0,L|473:364,1,120,4|8,1:2|0:0,0:0:0:0:
512,294,110060,2,0,L|512:214,1,80,8|8,0:0|3:0,0:0:0:0:
473,144,110734,6,0,P|416:91|342:110,1,160,4|0,1:2|1:0,0:0:0:0:
288,170,111746,1,2,0:0:0:0:
315,245,112083,2,0,L|315:325,1,80,2|2,3:0|0:0,0:0:0:0:
259,382,112757,1,0,1:0:0:0:
202,325,113094,6,0,L|122:325,1,80,0|4,1:0|1:2,0:0:0:0:
65,268,113768,1,2,0:0:0:0:
122,212,114105,2,0,L|122:132,1,80,0|2,1:0|0:0,0:0:0:0:
202,132,114779,2,0,L|202:212,2,80,2|2|0,0:0|0:0|1:0,0:0:0:0:
259,75,115791,1,0,1:0:0:0:
314,132,116128,6,0,P|384:162|449:120,1,160,4|0,1:2|1:0,0:0:0:0:
477,45,117139,1,2,0:0:0:0:
400,23,117476,2,0,L|320:23,2,80,2|2|0,0:0|0:0|1:0,0:0:0:0:
477,45,118487,1,0,1:0:0:0:
449,120,118824,6,0,L|449:240,1,120,4|4,1:2|1:0,0:0:0:0:
477,315,119667,1,0,0:0:0:0:
400,337,120004,2,0,L|280:337,1,120,4|8,1:2|0:0,0:0:0:0:
203,316,120847,1,8,0:0:0:0:
147,373,121184,1,8,3:0:0:0:
70,352,121521,6,0,L|70:272,1,80,4|8,1:2|0:0,0:0:0:0:
139,232,122195,2,0,L|259:232,2,120,0|0|8,1:0|1:0|0:0,0:0:0:0:
139,152,123543,2,0,L|219:152,1,80,0|8,1:0|0:0,0:0:0:0:
288,112,124218,6,0,L|368:112,1,80,4|8,1:0|0:0,0:0:0:0:
436,152,124892,2,0,L|436:272,2,120,0|0|8,1:0|1:0|0:0,0:0:0:0:
505,112,126240,2,0,L|505:32,1,80,0|8,1:0|0:0,0:0:0:0:
425,32,126914,6,0,L|305:32,1,120,4|0,1:2|0:0,0:0:0:0:
236,72,127757,2,0,L|156:72,1,80,2|0,0:0|1:0,0:0:0:0:
156,152,128431,2,0,L|276:152,1,120,0|0,1:0|1:0,0:0:0:0:
332,209,129274,1,8,0:0:0:0:
276,266,129611,6,0,L|156:266,2,120,4|4|8,1:2|1:2|0:0,0:0:0:0:
256,192,130791,12,0,132307,1:0:0:0:
96,78,133656,6,0,L|96:198,1,120,4|2,1:0|0:0,0:0:0:0:
153,254,134499,1,2,0:0:0:0:
210,198,134836,2,0,L|210:78,1,120,2|8,0:0|0:0,0:0:0:0:
267,22,135678,2,0,L|347:22,1,80,0|8,1:0|0:0,0:0:0:0:
404,78,136352,6,0,L|404:198,2,120,0|2|8,1:0|0:0|0:0,0:0:0:0:
485,78,137701,2,0,L|485:158,1,80,0|8,1:0|0:0,0:0:0:0:
503,236,138375,2,0,L|503:316,1,80,0|8,1:0|0:0,0:0:0:0:
436,360,139049,6,0,L|316:360,1,120,4|2,1:2|0:0,0:0:0:0:
256,307,139892,1,2,0:0:0:0:
196,360,140229,2,0,L|76:360,1,120,2|8,0:0|0:0,0:0:0:0:
9,316,141072,2,0,L|9:236,1,80,0|8,1:0|0:0,0:0:0:0:
27,158,141746,6,0,L|27:78,1,80,0|8,1:0|0:0,0:0:0:0:
108,78,142420,2,0,L|108:198,2,120,0|4|8,1:0|1:2|3:0,0:0:0:0:
165,22,143768,2,0,L|245:22,1,80,8|8,0:0|3:0,0:0:0:0:
302,78,144442,6,0,L|302:198,1,120,4|2,1:2|0:0,0:0:0:0:
359,254,145285,1,2,0:0:0:0:
416,198,145622,2,0,L|416:78,1,120,2|8,0:0|0:0,0:0:0:0:
359,22,146465,1,0,1:0:0:0:
302,78,146802,1,8,0:0:0:0:
245,22,147139,6,0,L|165:22,1,80,2|8,1:2|0:0,0:0:0:0:
108,78,147813,2,0,L|108:198,2,120,0|6|8,1:0|1:2|0:0,0:0:0:0:
165,22,149161,2,0,L|245:22,1,80,0|8,1:0|0:0,0:0:0:0:
302,78,149836,6,0,P|255:139|281:211,1,160,4|0,1:2|1:0,0:0:0:0:
338,268,150847,1,8,0:0:0:0:
394,325,151184,2,0,L|474:325,2,80,4|8|0,1:0|0:0|1:0,0:0:0:0:
338,382,152195,1,8,0:0:0:0:
282,325,152532,6,0,L|202:325,1,80,4|12,1:2|0:0,0:0:0:0:
146,382,153206,2,0,L|66:382,1,80,0|8,1:0|0:0,0:0:0:0:
9,325,153881,1,2,1:2:0:0:
66,268,154218,2,0,L|146:268,1,80,8|2,0:0|1:2,0:0:0:0:
202,325,154892,1,8,0:0:0:0:
258,268,155229,6,0,L|264:188,1,80,8|8,0:0|0:0,0:0:0:0:
332,144,155903,2,0,L|325:64,1,80,8|8,0:0|0:0,0:0:0:0:
256,23,156577,1,4,1:2:0:0:
400,320,168543,6,0,L|400:200,1,120,4|12,1:2|0:0,0:0:0:0:
309,121,169555,1,2,0:0:0:0:
256,181,169892,2,0,L|136:181,2,120,2|8|0,0:0|0:0|1:0,0:0:0:0:
256,260,171240,6,0,L|136:260,1,120,2|8,0:0|0:0,0:0:0:0:
76,313,172083,1,0,1:0:0:0:
16,260,172420,2,0,L|16:140,2,120,8|0|0,0:0|0:0|1:0,0:0:0:0:
135,260,173937,6,0,L|255:260,2,120,4|8|2,1:2|0:0|0:0,0:0:0:0:
135,180,175285,2,0,L|255:180,2,120,4|8|0,1:0|0:0|1:0,0:0:0:0:
135,100,176633,6,0,L|255:100,1,120,4|8,1:2|0:0,0:0:0:0:
324,140,177476,2,0,L|364:140,1,40,0|2,1:0|1:2,0:0:0:0:
432,181,177982,2,0,L|432:301,2,120,4|4|4,1:2|1:2|3:0,0:0:0:0:
512,181,179330,2,0,L|512:301,1,120,4|12,1:2|0:2,0:0:0:0:
256,192,180004,12,4,181521,1:0:0:0:
256,192,185567,6,0,L|256:232,1,40,4|4,1:2|1:2,0:0:0:0:
208,296,186073,2,0,L|128:296,1,80,0|0,1:0|1:0,0:0:0:0:
80,232,186747,6,0,P|62:157|116:101,1,160,4|2,1:2|0:0,0:0:0:0:
178,53,187758,1,2,0:0:0:0:
241,101,188096,2,0,L|361:101,1,120,2|8,0:0|0:0,0:0:0:0:
361,181,188938,2,0,L|281:181,1,80,0|8,1:0|0:0,0:0:0:0:
281,261,189612,6,0,L|361:261,1,80,0|8,1:0|0:0,0:0:0:0:
361,341,190287,2,0,L|241:341,2,120,0|4|8,1:0|1:2|3:0,0:0:0:0:
430,301,191635,2,0,L|510:301,1,80,8|8,0:0|3:0,0:0:0:0:
510,221,192309,6,0,L|510:101,1,120,4|2,1:2|0:0,0:0:0:0:
453,45,193152,1,2,0:0:0:0:
396,101,193489,2,0,L|276:101,1,120,2|8,0:0|0:0,0:0:0:0:
219,45,194331,1,0,1:0:0:0:
162,101,194669,1,8,0:0:0:0:
105,45,195006,6,0,L|25:45,1,80,2|8,1:2|0:0,0:0:0:0:
25,125,195680,2,0,L|25:245,2,120,0|4|8,1:0|1:2|0:0,0:0:0:0:
105,125,197028,2,0,L|105:205,1,80,0|8,1:0|0:0,0:0:0:0:
174,245,197702,6,0,L|254:245,1,80,4|8,1:2|0:0,0:0:0:0:
323,205,198376,2,0,L|403:205,1,80,4|8,1:2|0:0,0:0:0:0:
403,285,199051,2,0,L|323:285,2,80,4|8|0,1:0|0:0|1:0,0:0:0:0:
472,325,200062,1,8,3:0:0:0:
403,365,200399,6,0,L|283:365,1,120,4|2,1:0|0:0,0:0:0:0:
214,325,201242,1,2,0:0:0:0:
234,247,201579,2,0,L|234:127,1,120,2|8,0:0|0:0,0:0:0:0:
184,63,202421,2,0,L|104:63,1,80,0|8,1:0|0:0,0:0:0:0:
54,127,203096,6,0,L|54:247,2,120,0|2|8,1:0|0:0|0:0,0:0:0:0:
104,63,204444,2,0,L|184:63,1,80,0|8,1:0|0:0,0:0:0:0:
234,127,205118,2,0,L|314:127,1,80,0|8,1:0|0:0,0:0:0:0:
364,191,205792,6,0,L|364:311,1,120,4|4,1:2|1:0,0:0:0:0:
251,351,206803,2,0,L|131:351,2,120,4|4|4,1:2|1:0|1:2,0:0:0:0:
290,281,208152,1,4,1:0:0:0:
251,211,208489,6,0,L|211:211,2,40,4|4|4,1:2|1:0|1:2,0:0:0:0:
161,32,209669,2,0,L|81:32,1,80,4|0,1:2|0:0,0:0:0:0:
32,95,210343,2,0,L|32:215,1,120,4|8,1:2|3:0,0:0:0:0:
81,278,211185,6,0,L|201:278,1,120,4|2,1:2|0:0,0:0:0:0:
256,220,212028,1,2,0:0:0:0:
311,278,212365,2,0,L|431:278,1,120,2|8,0:0|0:0,0:0:0:0:
486,220,213208,1,0,1:0:0:0:
486,140,213545,1,8,0:0:0:0:
431,82,213882,6,0,L|351:82,1,80,2|8,1:2|0:0,0:0:0:0:
296,140,214556,2,0,L|176:140,2,120,0|6|8,1:0|1:2|0:0,0:0:0:0:
351,198,215905,2,0,L|351:278,1,80,0|8,1:0|0:0,0:0:0:0:
296,336,216579,6,0,P|221:354|165:302,1,160,4|0,1:2|1:0,0:0:0:0:
124,232,217590,1,8,0:0:0:0:
164,162,217927,2,0,L|244:162,2,80,4|8|0,1:0|0:0|1:0,0:0:0:0:
124,92,218938,1,8,0:0:0:0:
164,22,219275,6,0,L|244:22,1,80,4|8,1:2|0:0,0:0:0:0:
316,57,219949,2,0,L|396:57,1,80,0|8,1:0|0:0,0:0:0:0:
453,114,220624,1,2,1:2:0:0:
396,170,220961,2,0,L|316:170,1,80,8|2,0:0|1:2,0:0:0:0:
259,114,221635,1,8,0:0:0:0:
202,170,221972,6,0,L|195:249,1,80,8|8,0:0|0:0,0:0:0:0:
115,250,222646,2,0,L|108:170,1,80,8|8,0:0|0:0,0:0:0:0:
51,114,223320,1,4,1:2:0:0:
51,114,225006,6,0,L|51:34,1,80,2|2,0:0|0:0,0:0:0:0:
130,34,225680,1,8,3:0:0:0:
199,74,226017,6,0,L|279:74,1,80,4|12,1:2|0:0,0:0:0:0:
279,154,226691,2,0,L|159:154,2,120,0|2|8,1:0|0:0|0:0,0:0:0:0:
335,211,228039,2,0,L|335:291,1,80,0|10,1:0|0:0,0:0:0:0:
415,291,228714,6,0,L|415:211,1,80,4|8,1:0|0:0,0:0:0:0:
454,141,229388,2,0,L|454:21,2,120,0|6|8,1:0|1:2|0:0,0:0:0:0:
495,211,230736,2,0,L|495:291,1,80,0|8,1:0|3:0,0:0:0:0:
454,359,231410,6,0,L|334:359,1,120,4|4,1:2|1:0,0:0:0:0:
256,380,232252,1,2,0:0:0:0:
179,359,232589,2,0,P|142:291|178:223,1,160,4|8,1:2|0:0,0:0:0:0:
295,194,233769,6,0,L|415:194,1,120,4|0,1:2|0:0,0:0:0:0:
472,137,234612,1,2,0:0:0:0:
415,81,234949,2,0,P|347:44|279:81,1,160,4|8,1:2|0:0,0:0:0:0:
173,137,236129,6,0,L|53:137,1,120,4|4,1:2|1:0,0:0:0:0:
0,197,236971,1,2,0:0:0:0:
32,270,237308,2,0,P|85:323|160:309,1,160,4|8,1:2|0:0,0:0:0:0:
256,232,238488,6,0,L|256:192,1,40,4|4,1:2|1:0,0:0:0:0:
