osu file format v14

[General]
AudioFilename: Arcadia.mp3
AudioLeadIn: 0
PreviewTime: 67824
Countdown: 0
SampleSet: Soft
StackLeniency: 0.7
Mode: 0
LetterboxInBreaks: 0
WidescreenStoryboard: 0

[Editor]
DistanceSpacing: 0.8
BeatDivisor: 4
GridSize: 16
TimelineZoom: 2.1

[Metadata]
Title:Arcadia
TitleUnicode:アルカディア
Artist:Chitose Sara
ArtistUnicode:千歳サラ
Creator:-Nanaka-
Version:Hard
Source:11月のアルカディア
Tags:11gatsu no Arcadia ARCADIA OF NOVEMBER LevoL Opening Visual Novel Eroge
BeatmapID:676571
BeatmapSetID:300384

[Difficulty]
HPDrainRate:5
CircleSize:4
OverallDifficulty:6
ApproachRate:8
SliderMultiplier:1.45
SliderTickRate:1

[Events]
//Background and Video events
Video,-150,"Arcadia.avi"
0,0,"BG4.jpg",0,0
//Break Periods
//Storyboard Layer 0 (Background)
//Storyboard Layer 1 (Fail)
//Storyboard Layer 2 (Pass)
//Storyboard Layer 3 (Foreground)
//Storyboard Sound Samples

[TimingPoints]
1439,337.078651685393,4,2,1,50,1,0
1944,-133.333333333333,4,2,1,50,0,0
3124,-133.333333333333,4,2,3,40,0,0
3292,-133.333333333333,4,2,1,50,0,0
11572,-133.333333333333,4,2,2,5,0,0
12056,-133.333333333333,4,2,1,30,0,0
12225,-133.333333333333,4,2,1,50,0,0
12881,337.078651685393,4,2,2,50,1,0
13470,-100,4,2,1,50,0,0
13555,337.078651685393,4,2,2,65,1,0
18779,-100,4,2,1,65,0,0
18948,-100,4,2,2,65,0,0
19453,-100,4,2,2,55,0,0
19790,-100,4,2,2,65,0,0
20128,-100,4,2,2,55,0,0
20465,-100,4,2,2,65,0,0
22824,-100,4,2,2,60,0,0
24004,-100,4,2,1,50,0,0
24088,-100,4,2,1,40,0,0
24341,-133.333333333333,4,2,1,55,0,0
33611,-133.333333333333,4,2,1,65,0,0
34116,-100,4,2,2,65,0,0
34790,-100,4,2,1,65,0,0
35128,-100,4,2,2,65,0,0
45577,-100,4,2,1,65,0,0
45914,-133.333333333333,4,2,2,55,0,0
56532,-117.647058823529,4,2,1,45,0,0
56616,-117.647058823529,4,2,2,45,0,0
56701,-100,4,2,2,65,0,0
57880,-100,4,2,1,65,0,0
58217,-100,4,2,2,65,0,0
59397,-100,4,2,1,65,0,0
59734,-100,4,2,2,65,0,0
60577,-100,4,2,1,65,0,0
60914,-100,4,2,2,65,0,0
62094,-100,4,2,1,65,0,0
62431,-100,4,2,2,65,0,0
68835,-100,4,2,2,75,0,1
86363,-100,4,2,3,75,0,1
86701,-100,4,2,2,75,0,1
87712,-100,4,2,1,75,0,1
88049,-100,4,2,2,75,0,1
89060,-100,4,2,1,75,0,1
89397,-100,4,2,2,75,0,1
90408,-100,4,2,2,80,0,1
90577,-100,4,2,2,82,0,1
90746,-100,4,2,2,84,0,1
90914,-100,4,2,2,86,0,1
91083,-100,4,2,2,88,0,1
91251,-100,4,2,2,90,0,1
91420,-100,4,2,2,92,0,1
91588,-100,4,2,2,95,0,1
91757,-100,4,2,1,100,0,0
91841,-100,4,2,1,80,0,1
92599,-100,4,2,2,80,0,1
92768,-100,4,2,1,80,0,1
93105,-100,4,2,2,70,0,0
98330,-100,4,2,1,70,0,0
98498,337.078651685393,7,2,2,70,1,0
100014,-100,7,2,2,70,0,0
100351,-100,7,2,2,60,0,0
100689,-100,7,2,2,70,0,0
101363,-100,7,2,2,55,0,0
101700,-100,7,2,2,60,0,0
102037,-100,7,2,2,70,0,0
102711,-100,7,2,2,60,0,0
103048,-100,7,2,2,70,0,0
103722,-100,7,2,2,60,0,0
104059,-100,7,2,1,70,0,0
104228,-100,7,2,2,70,0,0
104902,-100,7,2,2,40,0,0
105071,-100,7,2,2,60,0,0
105408,-100,7,2,2,70,0,0
105576,-100,7,2,2,60,0,1
105745,-100,7,2,2,40,0,0

[Colours]
Combo1 : 106,255,181
Combo2 : 254,203,1
Combo3 : 106,71,118
Combo4 : 149,219,249

[HitObjects]
456,224,1944,6,0,P|400:224|344:208,1,108.750004148483,0|0,0:0|0:0,0:0:0:0:
264,172,2450,2,0,L|244:240,1,54.3750020742417,0|0,0:0|0:0,0:0:0:0:
180,296,2787,6,0,L|148:176,1,108.750004148483,4|2,0:0|3:2,0:0:0:0:
148,100,3292,2,0,P|174:104|198:117,1,54.3750020742417,0|0,0:0|0:0,0:0:0:0:
264,172,3630,1,2,0:0:0:0:
264,172,3967,6,0,P|344:196|436:160,1,163.125006222725,2|0,0:0|0:0,0:0:0:0:
480,344,4809,2,0,P|428:332|361:349,1,108.750004148483,2|0,0:0|0:0,0:0:0:0:
264,172,5483,2,0,P|248:216|190:269,1,108.750004148483,2|0,0:0|0:0,0:0:0:0:
120,205,5989,6,0,P|64:189|0:221,2,108.750004148483,4|0|0,0:0|0:0|0:0,0:0:0:0:
192,142,6832,2,0,P|227:100|247:50,1,108.750004148483,4|0,0:0|0:0,0:0:0:0:
336,104,7337,2,0,L|376:220,1,108.750004148483,4|0,0:0|0:0,0:0:0:0:
408,288,7843,1,0,0:0:0:0:
463,216,8012,1,0,0:0:0:0:
371,207,8180,6,0,P|315:191|259:143,1,108.750004148483,4|2,0:0|0:0,0:0:0:0:
200,108,8686,2,0,L|172:176,1,54.3750020742417,0|0,0:0|0:0,0:0:0:0:
152,236,9023,2,0,P|96:224|32:248,1,108.750004148483,2|0,0:0|0:0,0:0:0:0:
108,328,9528,6,0,P|164:340|228:316,1,108.750004148483,4|0,0:0|0:0,0:0:0:0:
340,180,10203,2,0,P|399:200|440:236,1,108.750004148483,4|0,0:0|0:0,0:0:0:0:
256,312,10877,2,0,L|256:200,1,108.750004148483,4|0,0:0|0:0,0:0:0:0:
256,96,11382,1,0,0:0:0:0:
256,96,11551,6,2,P|346:15|383:171,1,326.25001244545,4|0,0:0|0:0,0:0:0:0:
339,99,12881,5,8,1:0:0:0:
339,99,13049,1,8,1:0:0:0:
275,168,13218,2,0,L|276:221,3,36.25,2|2|0|4,0:0|0:0|3:0|0:3,0:0:0:0:
275,227,13555,6,0,P|226:282|136:293,2,145,4|8|2,0:3|0:0|0:1,0:0:0:0:
326,144,14397,1,2,0:0:0:0:
380,220,14566,1,8,0:0:0:0:
408,128,14734,6,0,P|368:72|276:76,1,145,2|0,0:0|0:0,0:0:0:0:
232,132,15240,1,8,0:0:0:0:
168,64,15408,2,0,P|97:69|56:126,1,145,2|2,0:0|0:0,0:0:0:0:
96,212,15914,1,8,0:0:0:0:
140,140,16083,1,2,0:0:0:0:
200,208,16251,6,0,P|276:204|312:140,2,145,2|8|2,0:0|0:0|0:1,0:0:0:0:
140,140,17094,1,2,0:0:0:0:
96,212,17262,1,8,0:0:0:0:
136,288,17431,6,0,P|196:328|272:328,1,145,4|0,0:3|0:0,0:0:0:0:
336,272,17937,1,8,0:0:0:0:
408,332,18105,2,0,P|424:304|428:260,1,72.5,2|2,0:0|0:1,0:0:0:0:
356,192,18442,1,2,3:2:0:0:
444,144,18611,2,0,L|464:208,2,36.25,8|8|4,0:0|0:1|0:3,0:0:0:0:
424,48,18948,6,0,P|356:32|284:96,1,145,4|10,0:1|0:0,0:0:0:0:
236,164,19453,1,4,0:1:0:0:
236,164,19790,1,8,0:1:0:0:
172,92,19959,1,10,0:0:0:0:
160,188,20128,6,0,P|208:240|284:228,1,145,4|8,0:1|0:1,0:0:0:0:
348,176,20633,1,8,0:0:0:0:
388,288,20802,1,4,0:1:0:0:
388,288,21139,1,0,3:0:0:0:
460,232,21307,1,8,0:0:0:0:
492,316,21476,1,0,3:0:0:0:
460,232,21644,6,0,L|452:136,1,72.5,4|0,0:0|3:0,0:0:0:0:
376,76,21981,2,0,L|352:164,1,72.5,4|0,0:0|3:0,0:0:0:0:
292,232,22319,2,0,L|304:320,2,72.5,10|2|10,0:0|3:2|0:0,0:0:0:0:
219,160,22824,6,0,P|159:132|75:152,1,145,4|0,0:1|3:0,0:0:0:0:
84,146,23330,1,8,0:0:0:0:
84,146,23835,5,2,3:1:0:0:
42,63,24004,2,0,L|20:-1,2,36.25,8|4|4,0:3|0:3|0:3,0:3:0:0:
84,146,24341,6,0,P|154:131|208:156,1,108.750004148483,4|8,0:0|0:0,0:0:0:0:
252,208,24847,2,0,P|280:212|312:204,1,54.3750020742417,2|8,0:0|0:0,0:0:0:0:
384,160,25184,2,0,P|396:192|400:280,2,108.750004148483,0|10|2,0:0|0:1|0:0,0:0:0:0:
328,88,26026,1,8,0:0:0:0:
262,153,26195,2,0,P|233:145|202:141,1,54.3750020742417,2|8,0:0|0:0,0:0:0:0:
128,96,26532,2,0,L|136:24,2,54.3750020742417,0|8|8,0:0|0:0|0:1,0:0:0:0:
120,184,27038,6,0,P|164:224|224:232,1,108.750004148483,10|8,0:1|0:0,0:0:0:0:
262,153,27543,2,0,P|314:165|353:202,1,108.750004148483,2|0,0:0|0:0,0:0:0:0:
412,278,28049,1,8,0:0:0:0:
468,208,28217,6,0,L|468:136,1,54.3750020742417,10|8,0:1|0:0,0:0:0:0:
448,56,28554,1,0,0:0:0:0:
380,124,28723,1,8,0:0:0:0:
316,56,28892,2,0,P|260:56|196:92,1,108.750004148483,10|0,0:1|0:0,0:0:0:0:
140,132,29397,1,10,0:0:0:0:
140,132,29734,6,0,L|120:64,1,54.3750020742417,10|0,0:1|0:0,0:0:0:0:
76,8,30071,1,8,0:0:0:0:
48,92,30240,2,0,L|36:208,1,108.750004148483,2|0,0:0|0:0,0:0:0:0:
79,283,30746,1,8,0:0:0:0:
152,224,30914,6,0,P|208:212|260:224,1,108.750004148483,10|0,0:1|0:0,0:0:0:0:
328,280,31420,1,8,0:0:0:0:
376,208,31588,2,0,L|376:148,1,54.3750020742417,2|8,0:0|0:0,0:0:0:0:
376,68,31925,1,2,0:0:0:0:
304,112,32094,2,0,P|276:136|240:152,1,54.3750020742417,8|8,0:0|0:1,0:0:0:0:
184,184,32431,6,0,P|132:172|68:192,1,108.750004148483,4|8,0:0|0:0,0:0:0:0:
24,260,32937,2,0,P|84:277|136:256,1,108.750004148483,2|0,0:3|0:0,0:0:0:0:
184,184,33442,1,8,0:0:0:0:
260,248,33611,2,0,L|272:128,1,108.750004148483,6|0,0:0|0:0,0:0:0:0:
296,48,34116,6,0,L|208:28,1,72.5,8|2,1:2|0:0,0:0:0:0:
344,132,34453,2,0,L|424:152,1,72.5,8|2,1:2|0:0,0:0:0:0:
396,48,34790,2,0,L|416:8,2,36.25,8|4|4,0:3|0:3|0:3,0:0:0:0:
344,132,35128,6,0,P|272:112|201:134,1,145,4|2,3:2|3:1,0:0:0:0:
130,182,35633,2,0,L|48:151,1,72.5,2|2,0:0|3:1,0:0:0:0:
14,229,35970,2,0,L|27:302,1,72.5,0|2,0:1|3:1,0:0:0:0:
98,362,36307,1,2,0:0:0:0:
170,306,36476,6,0,P|202:314|247:354,2,72.5,2|0|2,3:1|0:0|3:1,0:0:0:0:
93,267,36981,2,0,P|127:248|152:206,1,72.5,2|2,0:0|3:1,0:0:0:0:
199,152,37319,1,0,0:0:0:0:
268,208,37487,2,0,L|348:200,1,72.5,2|8,3:1|1:2,0:0:0:0:
396,268,37824,6,0,P|425:220|396:132,1,145,2|2,3:2|3:1,0:0:0:0:
332,88,38330,1,0,0:0:0:0:
272,148,38498,2,0,L|200:152,1,72.5,2|0,3:1|0:0,0:0:0:0:
124,104,38835,1,2,3:1:0:0:
88,180,39004,6,0,P|76:216|76:272,1,72.5,2|2,0:0|3:1,0:0:0:0:
100,328,39341,1,2,0:0:0:0:
180,292,39510,2,0,P|215:288|251:292,2,72.5,2|2|2,3:1|0:0|3:1,0:0:0:0:
100,328,40015,1,0,0:0:0:0:
73,250,40184,2,0,P|85:214|88:180,1,72.5,2|8,3:1|1:2,0:0:0:0:
124,104,40521,6,0,P|176:128|264:96,1,145,2|2,3:2|3:1,0:0:0:0:
312,32,41026,2,0,P|336:64|344:120,1,72.5,0|2,0:0|3:1,0:0:0:0:
396,180,41363,2,0,B|408:144|435:128|435:128|420:84|448:28,2,145,0|2|0,0:0|0:0|0:0,0:0:0:0:
320,224,42206,5,2,3:1:0:0:
256,164,42375,2,0,P|216:164|168:176,1,72.5,2|2,0:0|3:1,0:0:0:0:
116,224,42712,1,2,0:0:0:0:
80,144,42880,2,0,P|72:108|72:72,1,72.5,2|8,3:1|1:2,0:0:0:0:
148,20,43217,6,0,P|224:16|280:56,1,145,2|0,3:2|3:0,0:0:0:0:
320,140,43723,2,0,P|384:144|440:68,1,145,2|2,0:0|0:0,0:0:0:0:
352,52,44229,1,8,0:0:0:0:
352,52,44397,6,0,L|412:220,1,145,4|0,3:2|0:0,0:0:0:0:
436,276,44903,1,8,0:0:0:0:
504,220,45071,1,2,3:2:0:0:
496,313,45240,2,0,P|458:299|427:259,1,72.5,8|2,1:2|0:1,0:0:0:0:
400,188,45577,2,0,L|400:143,2,36.25,8|4|4,0:3|0:3|0:3,0:0:0:0:
340,252,45914,6,0,P|304:232|224:236,1,108.750004148483,4|8,0:0|0:1,0:0:0:0:
172,288,46420,1,0,0:0:0:0:
100,240,46588,2,0,P|70:194|71:141,1,108.750004148483,2|8,3:2|0:0,0:0:0:0:
104,60,47094,1,2,0:1:0:0:
180,104,47262,2,0,P|228:76|292:72,1,108.750004148483,10|8,0:1|0:1,0:0:0:0:
356,112,47768,1,0,0:0:0:0:
384,32,47937,6,0,P|424:60|436:136,2,108.750004148483,2|8|2,3:2|0:1|3:2,0:0:0:0:
256,136,48948,1,10,0:1:0:0:
256,136,49285,2,0,P|269:187|312:219,2,108.750004148483,2|8|2,3:2|0:0|3:2,0:0:0:0:
380,32,50296,5,8,0:1:0:0:
468,168,50633,1,2,3:2:0:0:
312,220,50970,1,8,0:1:0:0:
180,124,51307,6,0,P|152:168|152:248,1,108.750004148483,2|8,3:2|0:1,0:0:0:0:
196,296,51813,1,0,0:0:0:0:
268,248,51981,2,0,B|300:208|384:216,1,108.750004148483,2|8,3:2|0:0,0:0:0:0:
448,256,52487,1,0,0:0:0:0:
468,168,52656,6,0,P|484:116|456:52,1,108.750004148483,2|10,3:2|0:1,0:0:0:0:
392,20,53161,1,0,0:0:0:0:
340,88,53330,2,0,P|312:104|268:120,1,54.3750020742417,2|0,3:2|0:0,0:0:0:0:
216,64,53667,2,0,P|185:72|152:100,1,54.3750020742417,8|8,0:1|0:0,0:0:0:0:
144,164,54004,6,0,P|100:140|84:68,1,108.750004148483,6|10,0:0|0:1,0:0:0:0:
136,12,54510,1,8,0:0:0:0:
216,64,54678,2,0,L|332:56,1,108.750004148483,2|8,3:2|0:0,0:0:0:0:
404,112,55184,1,0,0:0:0:0:
404,112,55352,6,0,L|428:232,1,108.750004148483,2|8,3:2|1:2,0:0:0:0:
392,312,55858,1,0,3:0:0:0:
316,256,56026,1,8,1:2:0:0:
248,320,56195,1,8,0:0:0:0:
237,301,56279,1,8,0:0:0:0:
226,282,56363,2,0,P|221:267|218:246,3,27.1875010371209,8|8|4|0,0:0|0:0|0:3|3:0,0:0:0:0:
212,229,56701,6,0,P|164:177|68:201,1,145,4|8,3:2|0:0,0:0:0:0:
49,265,57206,1,2,0:0:0:0:
95,180,57375,2,0,P|103:143|106:109,1,72.5,2|2,3:1|0:0,0:0:0:0:
58,34,57712,1,8,0:0:0:0:
169,50,57880,6,0,L|320:75,1,145,4|0,0:0|0:0,0:0:0:0:
412,58,58386,2,0,P|391:90|385:144,1,72.5,8|2,0:0|0:0,0:0:0:0:
392,217,58723,2,0,P|366:197|316:181,2,72.5,2|2|8,3:1|0:0|0:0,0:0:0:0:
453,284,59229,1,2,0:0:0:0:
381,342,59397,6,0,P|313:361|221:330,1,145,6|8,0:0|0:0,0:0:0:0:
185,270,59903,1,2,0:0:0:0:
135,344,60071,2,0,P|100:309|95:286,1,72.5,2|2,3:1|0:0,0:0:0:0:
126,204,60408,1,8,0:0:0:0:
210,166,60577,6,0,P|279:147|360:170,1,145,4|0,0:0|0:0,0:0:0:0:
443,185,61083,2,0,P|426:216|417:251,1,72.5,8|0,0:0|0:0,0:0:0:0:
415,346,61420,2,0,P|375:334|341:299,1,72.5,2|0,0:0|0:0,0:0:0:0:
286,256,61757,2,0,P|273:290|251:318,1,72.5,8|0,0:0|0:0,0:0:0:0:
160,376,62094,6,0,L|128:204,1,145,6|8,0:0|0:0,0:0:0:0:
99,152,62599,2,0,P|75:168|43:236,1,72.5,2|0,0:0|0:0,0:0:0:0:
134,233,62937,2,0,P|158:217|190:149,1,72.5,2|8,0:0|0:0,0:0:0:0:
160,85,63274,6,0,P|236:100|279:163,1,145,2|2,0:0|0:0,0:0:0:0:
312,228,63779,2,0,P|348:196|360:164,1,72.5,10|0,0:0|0:0,0:0:0:0:
424,232,64116,2,0,L|432:328,1,72.5,2|0,0:0|0:0,0:0:0:0:
372,372,64453,1,8,0:0:0:0:
304,316,64622,1,0,0:0:0:0:
232,368,64790,6,0,L|196:224,1,145,4|8,0:0|0:0,0:0:0:0:
128,160,65296,2,0,L|100:256,1,72.5,4|0,0:0|0:0,0:0:0:0:
72,312,65633,1,2,0:0:0:0:
8,248,65802,1,8,0:0:0:0:
108,229,65970,6,0,P|176:221|264:245,1,145,4|0,0:0|0:0,0:0:0:0:
324,284,66476,1,10,0:0:0:0:
388,224,66644,2,0,P|404:188|408:136,2,72.5,2|12|0,0:0|0:0|3:0,0:0:0:0:
324,284,67150,2,0,L|324:328,3,36.25,8|8|8|8,0:0|0:0|0:0|0:0,0:0:0:0:
80,56,68835,6,0,P|144:28|232:72,1,145,4|8,0:3|0:0,0:0:0:0:
268,120,69341,2,0,P|308:108|344:72,1,72.5,2|0,0:0|0:0,0:0:0:0:
392,148,69678,2,0,L|416:244,1,72.5,2|8,0:0|0:0,0:0:0:0:
412,304,70015,6,0,P|348:280|272:324,1,145,2|0,0:0|0:0,0:0:0:0:
216,368,70521,2,0,P|176:336|156:296,1,72.5,10|0,0:0|0:0,0:0:0:0:
120,240,70858,2,0,P|88:276|80:320,1,72.5,2|0,0:0|0:0,0:0:0:0:
165,319,71195,2,0,L|261:319,1,72.5,10|0,0:0|0:0,0:0:0:0:
320,368,71532,6,0,B|408:336|376:240,1,145,2|8,0:0|0:0,0:0:0:0:
308,196,72038,1,0,0:0:0:0:
312,288,72206,2,0,P|376:324|452:280,1,145,2|8,0:0|0:0,0:0:0:0:
464,216,72712,1,0,0:0:0:0:
436,132,72880,6,0,P|370:107|309:143,1,145,2|8,0:0|0:0,0:0:0:0:
276,224,73386,1,0,0:0:0:0:
200,184,73554,2,0,L|156:276,1,72.5,2|0,0:0|0:0,0:0:0:0:
96,308,73892,2,0,L|64:224,1,72.5,8|0,0:0|0:0,0:0:0:0:
44,144,74229,6,0,P|88:96|176:120,1,145,4|8,0:0|0:0,0:0:0:0:
200,184,74734,2,0,P|236:152|248:112,1,72.5,2|0,0:0|0:0,0:0:0:0:
270,33,75071,2,0,P|314:69|350:76,1,72.5,2|8,0:0|0:0,0:0:0:0:
417,72,75408,1,0,0:0:0:0:
460,148,75577,6,0,P|484:220|444:304,2,145,2|10|2,0:0|0:0|0:0,0:0:0:0:
417,72,76420,1,0,0:0:0:0:
356,136,76588,2,0,P|320:148|260:144,1,72.5,8|0,0:0|0:0,0:0:0:0:
216,92,76925,6,0,P|156:56|72:88,1,145,2|8,0:0|0:0,0:0:0:0:
36,152,77431,1,0,0:0:0:0:
72,232,77599,2,0,P|132:268|216:236,1,145,2|8,0:0|3:2,0:0:0:0:
256,164,78105,6,0,P|296:232|312:316,1,145,4|0,0:0|3:0,0:0:0:0:
264,372,78611,1,8,3:2:0:0:
216,296,78779,1,0,3:0:0:0:
311,296,78948,2,0,P|351:284|391:252,1,72.5,8|0,0:0|3:0,0:0:0:0:
444,200,79285,2,0,L|480:284,1,72.5,8|0,1:2|3:0,0:0:0:0:
388,132,79622,6,0,P|328:100|244:124,1,145,4|8,0:0|0:0,0:0:0:0:
208,196,80128,2,0,P|137:216|75:179,1,145,2|2,0:0|0:0,0:0:0:0:
56,88,80633,1,8,0:0:0:0:
148,136,80802,6,0,L|120:292,1,145,2|0,0:0|0:0,0:0:0:0:
174,365,81307,2,0,P|216:354|250:321,1,72.5,10|0,0:0|0:0,0:0:0:0:
302,261,81644,2,0,P|344:277|385:317,1,72.5,2|0,0:0|0:0,0:0:0:0:
432,356,81981,1,10,0:0:0:0:
432,356,82319,6,0,L|460:200,1,145,2|8,0:0|0:0,0:0:0:0:
420,120,82824,1,0,0:0:0:0:
344,184,82993,2,0,L|192:152,1,145,2|8,0:0|0:0,0:0:0:0:
146,84,83498,6,0,P|113:147|133:214,1,145,2|0,0:0|0:0,0:0:0:0:
200,280,84004,1,8,0:0:0:0:
272,232,84172,2,0,P|316:232|360:252,1,72.5,2|0,0:0|0:0,0:0:0:0:
400,308,84510,1,0,0:0:0:0:
456,240,84678,2,0,B|473:144,1,72.5,10|0,0:0|0:0,0:0:0:0:
392,72,85015,6,0,L|368:220,1,145,4|8,0:0|0:0,0:0:0:0:
352,304,85521,1,0,0:0:0:0:
268,264,85689,2,0,P|232:256|176:264,2,72.5,2|0|8,0:0|0:0|0:0,0:0:0:0:
352,304,86195,1,2,0:0:0:0:
368,215,86363,6,0,L|384:132,1,72.5,4|0,3:2|0:0,0:0:0:0:
452,72,86701,2,0,L|488:160,1,72.5,8|0,0:0|0:0,0:0:0:0:
448,224,87038,2,0,P|417:275|332:288,1,145,6|8,0:0|0:0,0:0:0:0:
268,232,87543,1,0,0:0:0:0:
268,232,87628,1,0,0:0:0:0:
268,232,87712,2,0,L|260:136,1,72.5,6|0,0:0|0:0,0:0:0:0:
188,80,88049,6,0,L|164:172,1,72.5,4|0,0:0|0:0,0:0:0:0:
172,244,88386,2,0,L|192:328,2,72.5,2|0|8,0:0|0:0|0:0,0:0:0:0:
169,150,88892,1,0,0:0:0:0:
100,204,89060,6,0,P|84:136|132:68,1,145,4|10,0:0|0:0,0:0:0:0:
200,24,89566,1,0,0:0:0:0:
252,96,89734,2,0,P|304:82|340:56,1,72.5,2|0,0:0|0:0,0:0:0:0:
388,12,90071,2,0,P|437:25|465:48,1,72.5,8|2,0:0|0:0,0:0:0:0:
500,112,90408,5,2,1:2:0:0:
430,175,90577,1,2,1:2:0:0:
356,116,90746,2,0,P|324:140|304:168,1,72.5,2|2,1:2|1:2,0:0:0:0:
272,255,91083,1,2,1:2:0:0:
198,191,91251,1,2,1:2:0:0:
136,276,91420,2,0,L|96:184,1,72.5,2|2,1:2|1:2,0:0:0:0:
59,83,91757,5,6,0:0:0:0:
59,83,92599,1,2,3:1:0:0:
116,17,92768,2,0,L|156:31,3,36.25,0|0|0|0,1:0|1:0|1:0|1:0,0:0:0:0:
182,56,93105,6,0,B|234:44|266:68|266:68|290:48,1,108.75,4|0,0:3|0:0,0:0:0:0:
314,76,93442,2,0,B|346:172|346:172|382:140,1,145,4|2,0:0|0:1,0:0:0:0:
442,72,93948,1,2,0:0:0:0:
474,156,94116,1,8,0:0:0:0:
454,240,94285,6,0,P|402:300|330:308,1,145,2|0,0:0|0:0,0:0:0:0:
274,248,94790,1,8,0:0:0:0:
194,296,94959,2,0,P|154:236|163:166,1,145,2|2,0:0|0:0,0:0:0:0:
198,84,95465,1,8,0:0:0:0:
266,152,95633,1,2,0:0:0:0:
334,96,95802,6,0,B|418:72|462:156,2,145,4|8|2,0:0|0:0|0:1,0:0:0:0:
266,152,96644,1,2,0:0:0:0:
198,84,96813,1,8,0:0:0:0:
158,168,96981,6,0,L|138:316,1,145,4|0,0:3|0:0,0:0:0:0:
218,352,97487,1,8,0:0:0:0:
290,296,97656,2,0,P|354:272|374:272,1,72.5,2|2,0:0|0:1,0:0:0:0:
420,200,97993,1,2,3:2:0:0:
495,266,98161,2,0,L|482:309,2,36.25,8|8|4,0:0|0:1|0:3,0:0:0:0:
503,165,98498,6,0,P|460:119|379:117,1,145,4|8,0:1|0:0,0:0:0:0:
290,144,99003,1,4,0:1:0:0:
290,144,99340,1,0,3:0:0:0:
226,80,99509,1,10,0:0:0:0:
210,168,99677,6,0,P|262:224|330:216,1,145,4|0,0:1|3:0,0:0:0:0:
394,156,100183,1,8,0:0:0:0:
442,248,100351,1,4,0:1:0:0:
442,248,100689,1,0,3:0:0:0:
498,176,100857,6,0,P|506:160|514:136,2,36.25,4|0|0,0:1|0:0|0:0,0:0:0:0:
442,248,101194,1,10,0:0:0:0:
394,156,101363,2,0,P|328:140|238:168,1,145,4|0,0:1|3:0,0:0:0:0:
170,200,101868,1,8,0:0:0:0:
84,147,102037,6,0,L|69:297,1,145,4|0,0:1|3:0,0:0:0:0:
131,363,102542,1,0,1:0:0:0:
209,306,102711,2,0,P|270:348|360:347,1,145,4|0,0:1|3:0,0:0:0:0:
409,277,103217,6,0,L|420:224,2,36.25,4|0|0,0:1|0:0|3:0,0:0:0:0:
339,353,103554,1,10,0:0:0:0:
288,262,103722,2,0,P|203:219|141:243,1,145,4|4,0:1|0:3,0:0:0:0:
89,287,104228,1,8,0:0:0:0:
67,195,104396,6,0,P|116:140|212:149,1,145,4|10,0:1|0:0,0:0:0:0:
272,162,104902,1,8,0:3:0:0:
353,224,105071,2,0,P|369:148|371:63,1,145,4|0,0:1|3:0,0:0:0:0:
300,9,105576,5,4,0:1:0:0:
272,162,105745,1,4,0:1:0:0:
