osu file format v14

[General]
AudioFilename: Arcadia.mp3
AudioLeadIn: 0
PreviewTime: 67824
Countdown: 0
SampleSet: Soft
StackLeniency: 0.7
Mode: 0
LetterboxInBreaks: 0
WidescreenStoryboard: 0

[Editor]
Bookmarks: 90408,90577,90746,90914,91083,91251,91420,91588,91757
DistanceSpacing: 0.8
BeatDivisor: 4
GridSize: 32
TimelineZoom: 2.899999

[Metadata]
Title:Arcadia
TitleUnicode:アルカディア
Artist:Chitose Sara
ArtistUnicode:千歳サラ
Creator:-Nanaka-
Version:Arcadia
Source:11月のアルカディア
Tags:11gatsu no Arcadia ARCADIA OF NOVEMBER LevoL Opening Visual Novel Eroge
BeatmapID:673632
BeatmapSetID:300384

[Difficulty]
HPDrainRate:6.5
CircleSize:4
OverallDifficulty:9
ApproachRate:9.3
SliderMultiplier:1.8
SliderTickRate:1

[Events]
//Background and Video events
Video,-150,"Arcadia.avi"
0,0,"BG.jpg",0,0
//Break Periods
//Storyboard Layer 0 (Background)
//Storyboard Layer 1 (Fail)
//Storyboard Layer 2 (Pass)
//Storyboard Layer 3 (Foreground)
//Storyboard Sound Samples

[TimingPoints]
1439,337.078651685393,4,2,1,50,1,0
1944,-133.333333333333,4,2,1,35,0,0
2787,-133.333333333333,4,2,1,50,0,0
3124,-133.333333333333,4,2,3,40,0,0
3292,-133.333333333333,4,2,1,50,0,0
11572,-133.333333333333,4,2,2,5,0,0
12056,-133.333333333333,4,2,1,30,0,0
12225,-133.333333333333,4,2,1,50,0,0
12881,337.078651685393,4,2,2,50,1,0
13470,-100,4,2,1,50,0,0
13555,337.078651685393,4,2,2,65,1,0
14229,-100,4,2,2,55,0,0
14397,-100,4,2,2,65,0,0
15577,-100,4,2,2,55,0,0
15746,-100,4,2,2,65,0,0
16925,-100,4,2,2,55,0,0
17094,-100,4,2,2,65,0,0
18274,-100,4,2,2,55,0,0
18442,-100,4,2,2,65,0,0
18779,-100,4,2,1,65,0,0
18948,-100,4,2,2,65,0,0
19453,-100,4,2,2,55,0,0
19790,-100,4,2,2,65,0,0
20128,-100,4,2,2,55,0,0
20465,-100,4,2,2,65,0,0
22824,-66.6666666666667,4,2,2,60,0,0
24004,-83.3333333333333,4,2,1,50,0,0
24088,-83.3333333333333,4,2,1,40,0,0
24341,-133.333333333333,4,2,1,55,0,0
32431,-125,4,2,1,55,0,0
32937,-111.111111111111,4,2,1,60,0,0
33611,-100,4,2,1,65,0,0
34116,-100,4,2,2,65,0,0
34790,-100,4,2,1,65,0,0
35128,-100,4,2,2,65,0,0
45577,-100,4,2,1,65,0,0
45914,-117.647058823529,4,2,2,55,0,0
48442,-117.647058823529,4,2,2,45,0,0
48611,-117.647058823529,4,2,2,55,0,0
56026,-117.647058823529,4,2,2,60,0,0
56363,-100,4,2,2,60,0,0
56532,-100,4,2,1,45,0,0
56616,-100,4,2,2,45,0,0
56701,-100,4,2,2,65,0,0
57880,-100,4,2,1,65,0,0
58217,-100,4,2,2,65,0,0
59397,-100,4,2,1,65,0,0
59734,-100,4,2,2,65,0,0
60577,-100,4,2,1,65,0,0
60914,-100,4,2,2,65,0,0
62094,-100,4,2,1,65,0,0
62431,-100,4,2,2,65,0,0
67993,-125,4,2,2,40,0,0
68246,-100,4,2,2,5,0,0
68330,-100,4,2,2,50,0,0
68498,-100,4,2,3,65,0,0
68667,-100,4,2,1,70,0,0
68835,-90.9090909090909,4,2,2,75,0,1
82150,-90.9090909090909,4,2,1,55,0,1
82234,-90.9090909090909,4,2,1,75,0,1
82319,-90.9090909090909,4,2,2,75,0,1
84847,-90.9090909090909,4,2,1,65,0,1
84931,-90.9090909090909,4,2,2,75,0,1
86363,-83.3333333333333,4,2,3,75,0,1
86532,-83.3333333333333,4,2,2,75,0,1
86701,-90.9090909090909,4,2,2,85,0,1
86869,-90.9090909090909,4,2,2,65,0,1
87038,-83.3333333333333,4,2,2,75,0,1
87206,-83.3333333333333,4,2,2,65,0,1
87375,-90.9090909090909,4,2,2,75,0,1
87712,-90.9090909090909,4,2,1,75,0,1
88049,-83.3333333333333,4,2,2,75,0,1
88386,-90.9090909090909,4,2,2,65,0,1
88554,-90.9090909090909,4,2,2,75,0,1
88723,-90.9090909090909,4,2,2,80,0,1
88892,-90.9090909090909,4,2,2,65,0,1
89060,-90.9090909090909,4,2,1,75,0,1
89397,-90.9090909090909,4,2,2,75,0,1
89566,-90.9090909090909,4,2,2,65,0,1
89734,-90.9090909090909,4,2,2,80,0,1
89903,-90.9090909090909,4,2,2,65,0,1
90071,-90.9090909090909,4,2,2,70,0,1
90240,-90.9090909090909,4,2,2,75,0,1
90408,-83.3333333333333,4,2,2,80,0,1
90577,-83.3333333333333,4,2,2,82,0,1
90746,-83.3333333333333,4,2,2,84,0,1
90914,-83.3333333333333,4,2,2,86,0,1
91083,-83.3333333333333,4,2,2,88,0,1
91251,-83.3333333333333,4,2,2,90,0,1
91420,-83.3333333333333,4,2,2,92,0,1
91588,-83.3333333333333,4,2,2,95,0,1
91757,-83.3333333333333,4,2,1,100,0,0
91841,-83.3333333333333,4,2,1,80,0,1
92094,-76.9230769230769,4,2,1,75,0,1
92599,-76.9230769230769,4,2,2,75,0,1
92768,-83.3333333333333,4,2,1,55,0,1
93105,-100,4,2,2,70,0,0
98330,-100,4,2,1,70,0,0
98498,337.078651685393,7,2,2,70,1,0
99003,-100,7,2,2,60,0,0
99340,-100,7,2,2,70,0,0
100014,-100,7,2,2,70,0,0
100351,-100,7,2,2,60,0,0
100436,-100,7,2,1,50,0,0
100520,-100,7,2,2,60,0,0
100604,-100,7,2,1,60,0,0
100689,-100,7,2,2,70,0,0
101026,-100,7,2,2,60,0,0
101194,-100,7,2,2,70,0,0
101363,-100,7,2,2,55,0,0
101700,-100,7,2,2,70,0,0
102711,-100,7,2,2,60,0,0
102795,-100,7,2,1,60,0,0
102880,-100,7,2,2,70,0,0
102964,-100,7,2,1,60,0,0
103048,-100,7,2,2,70,0,0
103132,-100,7,2,1,60,0,0
103217,-100,7,2,2,70,0,0
103722,-100,7,2,2,60,0,0
104059,-100,7,2,1,60,0,0
104144,-100,7,2,2,70,0,0
104396,-100,7,2,2,70,0,0
104818,-100,7,2,1,60,0,0
104902,-100,7,2,1,50,0,0
104986,-100,7,2,1,50,0,0
105071,-100,7,2,2,60,0,0
105155,-100,7,2,2,70,0,0
105239,-83.3333333333333,7,2,2,70,0,0
105576,-100,7,2,2,60,0,1
105745,-100,7,2,2,40,0,0

[Colours]
Combo1 : 106,255,181
Combo2 : 254,203,1
Combo3 : 106,71,118
Combo4 : 149,219,249

[HitObjects]
152,120,1944,6,0,P|214:104|280:124,1,135.000005149842
348,208,2449,1,0,0:0:0:0:
456,176,2618,1,0,0:0:0:0:
280,124,2787,6,0,P|230:105|188:112,1,67.5000025749208,4|0,0:0|0:0,0:0:0:0:
116,168,3124,1,2,3:2:0:0:
104,72,3292,2,0,L|96:-8,1,67.5000025749208
16,152,3629,1,2,0:0:0:0:
16,152,3967,6,0,P|40:232|164:248,1,202.500007724762,2|0,0:0|0:0,0:0:0:0:
328,164,4810,1,2,0:0:0:0:
212,328,5147,1,0,0:0:0:0:
104,156,5484,1,2,0:0:0:0:
276,260,5821,1,0,0:0:0:0:
276,260,5989,6,0,B|304:320|304:320|344:248|424:276|424:276|444:244|484:236,1,270.000010299683,4|0,0:0|0:0,0:0:0:0:
384,348,6832,2,0,P|356:274|344:218,1,135.000005149842,4|0,0:0|0:0,0:0:0:0:
272,48,7337,2,0,P|240:92|212:184,1,135.000005149842,4|0,0:0|0:0,0:0:0:0:
276,260,7844,1,0,0:0:0:0:
346,164,8012,1,0,0:0:0:0:
424,264,8180,6,0,P|436:244|452:188,1,67.5000025749208,4|0,0:0|0:0,0:0:0:0:
348,344,8517,1,2,0:0:0:0:
276,260,8685,2,0,L|244:336,1,67.5000025749208
140,376,9022,1,2,0:0:0:0:
48,156,9360,1,0,0:0:0:0:
48,156,9528,6,0,B|36:120|36:120|52:84|52:84|32:56|48:16,2,135.000005149842,4|0|4,0:0|0:0|0:0,0:0:0:0:
208,120,10539,2,0,P|244:118|299:100,1,67.5000025749208
332,180,10876,2,0,P|360:236|432:244,1,135.000005149842,4|0,0:0|0:0,0:0:0:0:
500,184,11382,1,0,0:0:0:0:
404,176,11551,6,2,B|336:216|364:280|364:280|275:223|214:236|214:236|266:278|258:341|214:358,1,405.000015449525,4|0,0:0|0:0,0:0:0:0:
224,365,12881,5,8,1:0:0:0:
289,137,13049,1,8,1:0:0:0:
431,247,13218,1,2,0:0:0:0:
404,283,13302,1,2,0:0:0:0:
367,309,13386,1,0,3:0:0:0:
322,312,13470,1,4,0:3:0:0:
278,297,13555,6,0,P|223:232|97:246,1,180,4|8,0:3|0:0,0:0:0:0:
162,384,14060,1,2,0:0:0:0:
133,225,14229,1,2,0:1:0:0:
8,340,14397,1,2,0:0:0:0:
60,157,14566,1,8,0:0:0:0:
150,313,14734,6,0,P|212:265|202:168,1,180,2|0,0:0|0:0,0:0:0:0:
141,36,15240,1,8,0:0:0:0:
288,89,15408,2,0,P|329:80|379:47,1,90,2|2,0:0|0:1,0:0:0:0:
485,186,15746,1,2,0:0:0:0:
375,319,15914,1,8,0:0:0:0:
425,122,16083,1,2,0:0:0:0:
462,312,16251,6,0,P|402:241|296:275,1,180,2|8,0:0|0:0,0:0:0:0:
175,336,16757,1,2,0:0:0:0:
224,200,16925,1,2,0:1:0:0:
67,283,17094,1,2,0:0:0:0:
117,120,17262,1,8,0:0:0:0:
175,336,17431,6,0,L|200:157,1,180,4|0,0:3|0:0,0:0:0:0:
18,274,17937,1,8,0:0:0:0:
86,109,18105,2,0,L|99:221,1,90,2|2,0:0|0:1,0:0:0:0:
36,365,18442,1,2,3:2:0:0:
216,247,18611,1,8,0:0:0:0:
258,260,18695,1,8,0:1:0:0:
301,272,18779,1,4,0:3:0:0:
343,285,18863,1,4,0:3:0:0:
386,296,18948,5,4,0:1:0:0:
192,375,19116,1,0,3:0:0:0:
239,122,19285,1,10,0:0:0:0:
419,306,19453,1,4,0:1:0:0:
419,306,19790,1,8,0:1:0:0:
192,375,19959,1,10,0:0:0:0:
331,119,20128,6,0,P|298:199|213:215,1,180,4|8,0:1|0:1,0:0:0:0:
208,41,20633,1,8,0:0:0:0:
346,296,20802,1,4,0:1:0:0:
346,296,21139,1,0,3:0:0:0:
482,181,21307,1,8,0:0:0:0:
395,360,21476,1,0,3:0:0:0:
415,91,21644,5,4,0:0:0:0:
346,296,21813,1,0,3:0:0:0:
140,207,21981,1,4,0:0:0:0:
346,296,22150,1,0,3:0:0:0:
250,14,22319,5,10,0:0:0:0:
169,288,22487,1,2,3:2:0:0:
385,191,22656,1,10,0:0:0:0:
144,116,22824,6,0,B|170:126|201:120|201:120|219:175|219:175|273:177|304:215,1,202.500007724762,4|0,0:1|0:0,0:0:0:0:
432,279,23161,1,0,3:0:0:0:
496,15,23330,1,8,0:0:0:0:
496,15,23835,5,2,3:1:0:0:
448,100,24004,1,8,0:3:0:0:
448,100,24088,1,4,0:3:0:0:
448,100,24172,1,4,0:3:0:0:
500,200,24341,6,0,P|508:232|504:280,1,67.5000025749208,4|0,0:0|0:0,0:0:0:0:
460,344,24678,1,8,0:0:0:0:
360,308,24847,2,0,P|325:318|284:340,1,67.5000025749208,2|8,0:0|0:0,0:0:0:0:
212,268,25184,1,0,0:0:0:0:
160,368,25352,1,8,0:0:0:0:
100,280,25521,6,0,P|88:240|80:188,1,67.5000025749208,10|8,0:1|0:0,0:0:0:0:
152,120,25858,2,0,P|162:152|168:185,1,67.5000025749208,2|8,0:0|0:0,0:0:0:0:
212,268,26195,2,0,P|248:284|300:288,1,67.5000025749208,2|8,0:0|0:0,0:0:0:0:
350,219,26532,1,0,0:0:0:0:
420,292,26701,1,8,0:0:0:0:
512,248,26869,1,8,0:1:0:0:
497,147,27038,5,10,0:1:0:0:
497,147,27375,1,8,0:0:0:0:
398,130,27543,2,0,P|356:116|316:80,1,67.5000025749208,2|8,0:0|0:0,0:0:0:0:
260,24,27880,1,0,0:0:0:0:
224,148,28049,1,8,0:0:0:0:
152,72,28217,6,0,P|120:81|92:99,1,67.5000025749208,10|8,0:1|0:0,0:0:0:0:
24,176,28554,1,0,0:0:0:0:
56,272,28723,1,8,0:0:0:0:
152,240,28892,2,0,P|220:244|284:284,1,135.000005149842,10|0,0:1|0:0,0:0:0:0:
348,352,29397,1,10,0:0:0:0:
348,352,29734,6,0,L|376:260,1,67.5000025749208,10|0,0:1|0:0,0:0:0:0:
392,192,30071,1,8,0:0:0:0:
328,116,30240,2,0,B|300:136|300:136|288:168|288:168|252:172|239:209,1,135.000005149842,2|0,0:0|0:0,0:0:0:0:
176,284,30746,1,8,0:0:0:0:
88,236,30914,6,0,B|74:255|74:255|80:269|80:269|51:297|44:384,1,135.000005149842,10|0,0:1|0:0,0:0:0:0:
164,200,31420,1,8,0:0:0:0:
132,112,31588,2,0,P|120:68|116:32,1,67.5000025749208,2|8,0:0|0:0,0:0:0:0:
117,46,31925,1,2,0:0:0:0:
240,136,32094,2,0,P|252:180|256:216,1,67.5000025749208,8|8,0:0|0:1,0:0:0:0:
244,292,32431,6,0,P|292:284|344:200,1,144,4|8,0:0|0:0,0:0:0:0:
349,82,32937,2,0,P|417:98|465:196,1,161.999995056153,2|0,0:3|0:0,0:0:0:0:
399,324,33442,1,8,0:0:0:0:
244,292,33611,2,0,B|184:324|184:324|128:276|56:328,1,180,6|0,0:0|0:0,0:0:0:0:
20,198,34116,6,0,L|8:136,1,45,8|0,1:2|0:0,0:0:0:0:
0,68,34285,1,2,0:0:0:0:
112,184,34453,2,0,L|112:140,1,45,8|0,1:2|0:0,0:0:0:0:
112,48,34622,1,2,0:0:0:0:
204,188,34790,1,8,0:3:0:0:
204,188,34875,1,4,0:3:0:0:
204,188,34959,2,0,L|220:124,1,45,4|0,0:3|0:0,0:0:0:0:
273,29,35128,6,0,P|337:79|417:67,1,135,4|0,3:2|0:0,0:0:0:0:
420,59,35465,2,0,P|442:108|441:178,1,90,2|2,3:1|0:0,0:0:0:0:
386,246,35802,1,2,3:1:0:0:
290,161,35970,2,0,L|174:197,1,90,0|2,0:1|3:1,0:0:0:0:
88,106,36307,5,2,0:0:0:0:
51,277,36476,1,2,3:1:0:0:
161,119,36644,1,0,0:0:0:0:
0,216,36813,1,2,3:1:0:0:
70,58,36981,2,0,L|80:165,1,90,2|2,0:0|3:1,0:0:0:0:
101,339,37319,5,0,0:0:0:0:
198,289,37487,1,2,3:1:0:0:
300,202,37656,2,0,L|307:268,1,45,8|0,1:2|0:0,0:0:0:0:
325,340,37824,6,0,B|338:373|338:373|359:324|415:317,1,135,2|0,3:2|0:0,0:0:0:0:
449,324,38161,2,0,P|461:273|463:216,1,90,2|0,3:1|0:0,0:0:0:0:
400,92,38498,1,2,3:1:0:0:
300,202,38667,1,0,0:0:0:0:
306,38,38835,1,2,3:1:0:0:
300,202,39004,6,0,P|254:193|190:178,1,90,2|2,0:0|3:1,0:0:0:0:
45,243,39341,1,2,0:0:0:0:
109,122,39510,1,2,3:1:0:0:
156,312,39678,2,0,P|205:297|259:284,1,90,2|2,0:0|3:1,0:0:0:0:
369,254,40015,5,0,0:0:0:0:
350,358,40184,1,2,3:1:0:0:
373,233,40352,2,0,L|384:176,1,45,8|0,1:2|0:0,0:0:0:0:
424,113,40521,6,0,P|374:156|307:161,1,135,2|0,3:2|0:0,0:0:0:0:
273,138,40858,2,0,P|233:112|168:111,1,90,2|0,3:1|0:0,0:0:0:0:
62,180,41195,1,2,3:1:0:0:
178,272,41363,2,0,P|201:233|208:185,1,90,0|2,0:0|3:1,0:0:0:0:
8,313,41701,5,2,0:0:0:0:
62,180,41869,1,2,3:1:0:0:
108,354,42038,1,0,0:0:0:0:
62,180,42206,1,2,3:1:0:0:
108,354,42375,2,0,P|153:376|218:377,1,90,2|2,0:0|3:1,0:0:0:0:
428,257,42712,5,2,0:0:0:0:
452,172,42880,1,2,3:1:0:0:
375,102,43049,2,0,L|321:135,1,45,8|0,1:2|0:0,0:0:0:0:
238,212,43217,6,0,P|234:180|218:37,1,135,2|0,3:2|0:0,0:0:0:0:
220,45,43554,1,0,3:0:0:0:
375,102,43723,2,0,L|364:219,1,90,2|0,0:0|3:0,0:0:0:0:
222,78,44060,1,2,0:0:0:0:
297,277,44229,1,8,0:0:0:0:
23,193,44397,5,4,3:2:0:0:
23,193,44734,1,0,0:0:0:0:
81,102,44903,1,8,0:0:0:0:
154,246,45071,1,2,3:2:0:0:
222,77,45240,1,8,1:2:0:0:
297,277,45408,1,2,0:1:0:0:
437,131,45577,1,8,0:3:0:0:
437,131,45661,1,4,0:3:0:0:
437,131,45746,1,4,0:3:0:0:
297,277,45914,6,0,B|267:294|267:294|238:280|238:280|193:267|149:302,1,153.000002918243,4|8,0:0|0:1,0:0:0:0:
52,358,46420,1,0,0:0:0:0:
87,251,46588,2,0,P|109:183|91:79,1,153.000002918243,2|8,3:2|0:0,0:0:0:0:
22,38,47094,1,2,0:1:0:0:
101,103,47262,2,0,P|135:129|193:149,1,76.5000014591217,10|0,0:1|0:0,0:0:0:0:
257,86,47599,1,8,0:1:0:0:
325,173,47768,1,0,0:0:0:0:
225,273,47937,6,0,P|239:236|239:195,1,76.5000014591217,2|0,3:2|0:0,0:0:0:0:
122,291,48274,2,0,P|134:327|170:367,1,76.5000014591217,8|0,0:1|1:0,0:0:0:0:
109,200,48611,2,0,P|74:213|48:240,1,76.5000014591217,2|0,3:2|0:0,0:0:0:0:
157,357,48948,2,0,P|192:344|218:317,1,76.5000014591217,10|0,0:1|0:0,0:0:0:0:
239,199,49285,5,2,3:2:0:0:
247,211,49622,1,8,0:0:0:0:
255,223,49959,1,2,3:2:0:0:
263,235,50296,1,8,0:1:0:0:
343,367,50465,5,0,0:0:0:0:
343,367,50549,1,0,0:0:0:0:
343,367,50633,1,2,3:2:0:0:
416,164,50802,2,0,L|430:128,2,38.2500007295609,8|0|8,1:0|0:0|0:1,0:0:0:0:
374,264,51139,1,2,1:2:0:0:
374,264,51223,1,0,0:0:0:0:
374,264,51307,6,0,B|354:292|318:272|318:272|291:309|222:308,1,153.000002918243,2|8,3:2|0:1,0:0:0:0:
131,345,51813,1,0,0:0:0:0:
46,274,51981,2,0,B|14:244|17:199|17:199|43:175|57:127,1,153.000002918243,2|8,3:2|0:0,0:0:0:0:
80,48,52487,1,0,0:0:0:0:
200,160,52656,6,0,L|283:142,1,76.5000014591217,2|0,3:2|0:0,0:0:0:0:
394,206,52993,1,10,0:1:0:0:
366,82,53161,1,0,0:0:0:0:
489,163,53330,2,0,L|468:264,1,76.5000014591217,2|0,3:2|0:0,0:0:0:0:
418,349,53667,1,8,0:1:0:0:
289,293,53835,1,8,0:0:0:0:
289,293,53920,1,0,0:0:0:0:
289,293,54004,6,0,P|225:332|123:320,1,153.000002918243,6|10,0:0|0:1,0:0:0:0:
26,233,54510,1,8,0:0:0:0:
25,138,54678,2,0,P|19:181|24:218,1,76.5000014591217,2|2,3:2|0:1,0:0:0:0:
149,331,55015,2,0,P|161:288|159:249,1,76.5000014591217,8|0,0:0|0:0,0:0:0:0:
25,138,55352,5,2,3:2:0:0:
72,283,55521,1,0,3:0:0:0:
136,65,55689,1,8,1:2:0:0:
72,283,55858,1,0,3:0:0:0:
220,186,56026,5,8,1:2:0:0:
251,161,56111,1,0,0:0:0:0:
286,146,56195,1,8,0:0:0:0:
324,152,56279,1,8,0:0:0:0:
358,169,56363,2,0,L|375:101,1,45,8|8,0:0|0:0,0:0:0:0:
255,26,56532,2,0,L|270:92,1,45,4|0,0:3|3:0,0:0:0:0:
298,236,56701,5,4,3:2:0:0:
298,236,57038,1,8,0:0:0:0:
141,170,57206,1,2,0:0:0:0:
265,70,57375,1,2,3:1:0:0:
298,236,57543,1,2,0:0:0:0:
171,90,57712,1,8,0:0:0:0:
283,322,57880,6,0,P|363:288|373:203,1,180,4|0,0:0|0:0,0:0:0:0:
182,265,58386,2,0,P|171:310|164:363,1,90,8|2,0:0|0:0,0:0:0:0:
50,154,58723,1,2,3:1:0:0:
86,306,58892,1,2,0:0:0:0:
141,108,59060,1,8,0:0:0:0:
3,272,59229,1,2,0:0:0:0:
256,191,59397,5,6,0:0:0:0:
256,191,59734,1,8,0:0:0:0:
337,73,59903,1,2,0:0:0:0:
385,266,60071,1,2,3:1:0:0:
462,123,60240,1,2,0:0:0:0:
256,191,60408,1,8,0:0:0:0:
479,253,60577,6,0,P|417:184|327:192,1,180,4|0,0:0|0:0,0:0:0:0:
176,311,61083,2,0,P|132:283|111:230,1,90,8|0,0:0|0:0,0:0:0:0:
211,138,61420,2,0,P|207:192|192:229,1,90,2|0,0:0|0:0,0:0:0:0:
68,131,61757,1,8,0:0:0:0:
39,317,61925,1,0,0:0:0:0:
194,225,62094,6,0,L|386:266,1,180,6|8,0:0|0:0,0:0:0:0:
486,325,62599,2,0,P|506:283|511:218,1,90,2|0,0:0|0:0,0:0:0:0:
434,150,62937,1,2,0:0:0:0:
393,349,63105,1,8,0:0:0:0:
246,190,63274,6,0,L|229:301,1,90,2|0,0:0|0:0,0:0:0:0:
165,132,63611,1,2,0:0:0:0:
318,61,63779,2,0,L|339:170,1,90,10|0,0:0|0:0,0:0:0:0:
405,312,64116,2,0,P|423:268|427:196,1,90,2|0,0:0|0:0,0:0:0:0:
279,334,64453,1,8,0:0:0:0:
335,149,64622,1,0,0:0:0:0:
103,202,64790,6,0,L|189:226,1,90,4|0,0:0|0:0,0:0:0:0:
335,149,65128,1,8,0:0:0:0:
343,343,65296,2,0,P|367:293|370:245,1,90,4|0,0:0|0:0,0:0:0:0:
181,319,65633,1,2,0:0:0:0:
247,138,65802,1,8,0:0:0:0:
52,75,65970,6,0,L|75:290,1,180,4|0,0:0|0:0,0:0:0:0:
247,138,66476,1,10,0:0:0:0:
181,319,66644,1,2,0:0:0:0:
384,217,66813,1,12,0:0:0:0:
384,217,66981,1,0,3:0:0:0:
181,319,67150,5,8,0:0:0:0:
138,310,67234,1,8,0:0:0:0:
95,299,67319,1,8,0:0:0:0:
52,288,67403,1,8,0:0:0:0:
438,140,67993,6,0,P|465:186|473:239,1,108,2|0,0:0|0:0,0:0:0:0:
465,277,68330,1,2,0:0:0:0:
373,260,68498,1,2,3:2:0:0:
281,238,68667,1,2,0:3:0:0:
340,350,68835,6,0,P|368:304|372:254,1,99.0000030212403,4|0,0:3|0:0,0:0:0:0:
250,151,69172,1,8,0:0:0:0:
159,295,69341,2,0,P|117:267|70:256,1,99.0000030212403,2|0,0:0|0:0,0:0:0:0:
151,157,69678,1,2,0:0:0:0:
81,357,69847,1,8,0:0:0:0:
245,270,70015,1,0,0:0:0:0:
244,53,70184,6,0,P|255:106|240:175,1,99.0000030212403,2|0,0:0|0:0,0:0:0:0:
70,256,70521,2,0,P|58:204|72:136,1,99.0000030212403,10|0,0:0|0:0,0:0:0:0:
156,14,70858,2,0,P|193:41|261:51,1,99.0000030212403,2|0,0:0|0:0,0:0:0:0:
455,12,71195,1,10,0:0:0:0:
374,204,71363,1,0,0:0:0:0:
374,204,71448,1,0,0:0:0:0:
374,204,71532,6,0,B|345:152|353:105|353:105|310:144,1,148.50000453186,2|0,0:0|0:0,0:0:0:0:
290,161,71869,2,0,P|250:137|159:129,1,99.0000030212403,8|0,0:0|0:0,0:0:0:0:
122,292,72206,2,0,P|178:268|207:223,1,99.0000030212403,2|0,0:0|0:0,0:0:0:0:
85,133,72543,1,8,0:0:0:0:
50,332,72712,1,0,0:0:0:0:
201,239,72880,6,0,P|248:249|301:281,1,99.0000030212403,2|0,0:0|0:0,0:0:0:0:
413,363,73217,1,8,0:0:0:0:
469,209,73386,1,0,0:0:0:0:
292,273,73554,2,0,P|311:222|309:163,1,99.0000030212403,2|0,0:0|0:0,0:0:0:0:
198,69,73892,1,8,0:0:0:0:
129,236,74060,1,0,0:0:0:0:
129,236,74144,1,0,0:0:0:0:
129,236,74229,6,0,L|233:210,1,99.0000030212403,4|0,0:0|0:0,0:0:0:0:
37,165,74566,1,8,0:0:0:0:
105,331,74734,2,0,P|122:283|129:216,1,99.0000030212403,2|0,0:0|0:0,0:0:0:0:
98,59,75071,1,2,0:0:0:0:
24,257,75240,1,8,0:0:0:0:
192,132,75408,1,0,0:0:0:0:
180,363,75577,6,0,P|208:332|271:317,1,99.0000030212403,2|0,0:0|0:0,0:0:0:0:
376,225,75914,1,8,0:0:0:0:
422,369,76083,1,0,0:0:0:0:
376,225,76251,2,0,L|389:103,1,99.0000030212403,2|0,0:0|0:0,0:0:0:0:
218,24,76588,2,0,L|235:167,1,99.0000030212403,8|0,0:0|0:0,0:0:0:0:
261,316,76925,6,0,P|196:247|84:256,1,198.000006042481,2|8,0:0|0:0,0:0:0:0:
147,367,77431,1,0,0:0:0:0:
208,201,77599,2,0,P|273:243|370:244,1,148.50000453186,2|0,0:0|0:0,0:0:0:0:
402,176,77937,2,0,L|387:104,1,49.5000015106202,8|0,3:2|0:0,0:0:0:0:
306,40,78105,6,0,B|319:36|340:12|340:12|308:71|299:178,1,198.000006042481,4|0,0:0|3:0,0:0:0:0:
353,364,78611,1,8,3:2:0:0:
301,159,78779,1,0,3:0:0:0:
234,318,78948,1,8,0:0:0:0:
426,261,79116,1,0,3:0:0:0:
206,214,79285,1,8,1:2:0:0:
344,70,79453,1,0,3:0:0:0:
344,70,79538,1,0,3:0:0:0:
344,70,79622,6,0,P|289:112|185:109,1,148.50000453186,4|0,0:0|0:0,0:0:0:0:
176,109,79959,1,8,0:0:0:0:
40,74,80128,2,0,P|67:120|73:200,1,99.0000030212403,2|0,0:0|0:0,0:0:0:0:
116,28,80465,1,2,0:0:0:0:
23,227,80633,1,8,0:0:0:0:
176,109,80802,6,0,P|158:205|149:307,1,198.000006042481,2|0,0:0|0:0,0:0:0:0:
74,140,81307,1,10,0:0:0:0:
69,346,81476,1,0,0:0:0:0:
196,213,81644,1,2,0:0:0:0:
0,289,81813,1,8,0:1:0:0:
74,140,81981,2,0,L|84:208,1,49.5000015106202,10|8,0:0|0:1,0:0:0:0:
150,306,82150,2,0,L|167:232,1,49.5000015106202,4|8,0:3|0:1,0:0:0:0:
165,134,82319,6,0,P|228:179|328:179,1,148.50000453186,2|0,0:0|0:0,0:0:0:0:
337,175,82656,1,8,0:0:0:0:
260,62,82824,1,0,0:0:0:0:
429,138,82993,2,0,P|414:186|417:273,1,99.0000030212403,2|0,0:0|0:0,0:0:0:0:
352,353,83330,1,8,0:0:0:0:
155,140,83498,6,0,P|244:156|262:260,1,198.000006042481,2|0,0:0|0:0,0:0:0:0:
95,304,84004,1,8,0:0:0:0:
189,217,84172,1,2,0:0:0:0:
40,143,84341,1,0,0:0:0:0:
224,58,84510,1,0,0:0:0:0:
84,2,84678,2,0,L|75:88,1,49.5000015106202,10|0,0:0|0:0,0:0:0:0:
137,162,84847,2,0,L|145:97,1,49.5000015106202,4|0,0:3|0:0,0:0:0:0:
64,252,85015,6,0,L|84:358,1,99.0000030212403,4|0,0:0|0:0,0:0:0:0:
137,162,85352,1,8,0:0:0:0:
212,347,85521,1,0,0:0:0:0:
296,225,85689,2,0,P|346:203|409:191,1,99.0000030212403,2|0,0:0|0:0,0:0:0:0:
494,109,86026,1,8,0:0:0:0:
430,301,86195,1,2,0:0:0:0:
401,73,86363,6,0,L|389:192,1,107.999996704102,4|0,3:2|0:0,0:0:0:0:
218,380,86701,2,0,L|201:282,1,99.0000030212403,8|0,0:0|0:0,0:0:0:0:
222,92,87038,2,0,P|171:131|98:148,1,107.999996704102,6|0,0:0|0:0,0:0:0:0:
256,2,87375,5,8,0:0:0:0:
295,22,87459,1,0,0:0:0:0:
317,60,87543,1,0,0:0:0:0:
322,104,87628,1,0,0:0:0:0:
302,143,87712,2,0,L|421:110,1,99.0000030212403,6|0,0:0|0:0,0:0:0:0:
195,248,88049,6,0,L|69:226,1,107.999996704102,4|0,0:0|0:0,0:0:0:0:
279,190,88386,2,0,P|291:237|270:327,1,99.0000030212403,2|0,0:0|0:0,0:0:0:0:
124,355,88723,1,8,0:0:0:0:
166,153,88892,1,0,0:0:0:0:
19,293,89060,6,0,P|3:255|7:177,1,99.0000030212403,4|0,0:0|0:0,0:0:0:0:
179,251,89397,1,10,0:0:0:0:
72,117,89566,1,0,0:0:0:0:
247,51,89734,2,0,L|367:83,1,99.0000030212403,2|0,0:0|0:0,0:0:0:0:
270,228,90071,1,8,0:0:0:0:
343,76,90240,1,2,0:0:0:0:
415,362,90408,5,2,1:2:0:0:
474,156,90577,1,2,1:2:0:0:
243,303,90746,5,2,1:2:0:0:
474,267,90914,1,2,1:2:0:0:
185,178,91083,5,2,1:2:0:0:
445,44,91251,1,2,1:2:0:0:
322,372,91420,5,2,1:2:0:0:
348,18,91588,1,2,1:2:0:0:
50,172,91757,5,6,0:0:0:0:
40,149,92094,1,2,0:0:0:0:
116,301,92262,2,0,B|133:214|133:214|155:260,1,116.999994644165,2|2,0:0|0:3,0:0:0:0:
189,361,92599,1,2,3:1:0:0:
304,120,92768,1,0,1:0:0:0:
320,100,92852,1,0,1:0:0:0:
340,80,92937,1,0,1:0:0:0:
360,60,93021,1,0,1:0:0:0:
376,44,93105,6,0,B|440:24|480:72|480:72|496:36,1,135,4|0,0:3|0:0,0:0:0:0:
408,128,93442,2,0,L|391:226,1,90,4|2,0:0|0:0,0:0:0:0:
365,367,93779,1,2,0:1:0:0:
289,176,93948,1,2,0:0:0:0:
466,317,94116,1,8,0:0:0:0:
281,264,94285,6,0,B|249:255|224:228|224:228|174:272|98:257,1,180,2|0,0:0|0:0,0:0:0:0:
34,348,94790,1,8,0:0:0:0:
111,172,94959,2,0,P|124:221|107:294,1,90,2|2,0:0|0:1,0:0:0:0:
34,348,95296,1,2,0:0:0:0:
111,172,95465,1,8,0:0:0:0:
0,236,95633,1,2,0:0:0:0:
152,49,95802,6,0,B|197:80|239:58|239:58|281:38|331:71,1,180,4|8,0:0|0:0,0:0:0:0:
465,137,96307,1,2,0:0:0:0:
417,4,96476,1,2,0:1:0:0:
377,268,96644,1,2,0:0:0:0:
323,66,96813,1,8,0:0:0:0:
377,268,96981,6,0,P|321:206|215:221,1,180,4|0,0:3|0:0,0:3:0:0:
122,370,97487,1,8,0:0:0:0:
281,302,97656,1,2,0:0:0:0:
230,210,97824,2,0,L|203:134,1,45,2|0,0:1|0:0,0:0:0:0:
130,78,97993,2,0,L|120:129,1,45,2|0,3:2|0:0,0:0:0:0:
94,291,98161,5,8,0:0:0:0:
138,283,98246,1,8,0:1:0:0:
182,275,98330,1,4,0:3:0:0:
226,267,98414,1,4,0:3:0:0:
270,258,98498,5,4,0:1:0:0:
113,159,98666,1,0,3:0:0:0:
331,53,98835,1,8,0:0:0:0:
282,358,99003,1,4,0:1:0:0:
282,358,99340,1,0,3:0:0:0:
170,189,99509,1,10,0:0:0:0:
408,282,99677,6,0,B|458:205|419:138|419:138|378:185,1,180,4|0,0:1|3:0,0:0:0:0:
282,358,100183,1,8,0:0:0:0:
262,92,100351,1,4,3:1:0:0:
226,99,100436,1,4,0:3:0:0:
190,106,100520,1,0,3:0:0:0:
154,112,100604,1,4,0:3:0:0:
118,118,100689,2,0,L|129:49,1,45,0|0,3:0|3:0,0:0:0:0:
35,195,100857,5,4,0:1:0:0:
32,80,101026,1,0,0:0:0:0:
36,324,101194,1,10,0:0:0:0:
187,205,101363,2,0,P|262:257|374:243,1,180,4|0,0:1|3:0,0:0:0:0:
236,375,101868,1,8,0:0:0:0:
409,147,102037,6,0,P|446:213|443:339,1,180,4|0,0:1|3:0,0:0:0:0:
236,375,102542,1,0,1:0:0:0:
306,133,102711,1,4,3:1:0:0:
281,159,102795,1,4,0:3:0:0:
245,167,102880,1,0,3:0:0:0:
209,164,102964,1,4,0:3:0:0:
178,144,103048,2,0,P|169:122|166:96,1,45,0|4,3:0|0:3,0:0:0:0:
97,224,103217,5,4,0:1:0:0:
200,14,103385,1,0,3:0:0:0:
23,117,103554,1,10,0:0:0:0:
228,247,103722,2,0,P|273:234|314:218,1,90,4|0,0:1|0:0,0:0:0:0:
506,131,104059,1,4,0:3:0:0:
506,131,104144,1,0,3:0:0:0:
506,131,104228,1,10,0:0:0:0:
285,41,104396,6,0,L|274:112,1,45,4|0,0:1|0:0,0:0:0:0:
228,247,104565,2,0,L|215:194,1,45
127,75,104733,5,10,0:0:0:0:
121,110,104818,1,4,0:3:0:0:
116,145,104902,1,8,0:3:0:0:
111,180,104986,1,4,0:3:0:0:
108,216,105071,1,4,0:1:0:0:
102,251,105155,1,0,3:0:0:0:
98,290,105239,2,0,L|164:270,1,53.9999983520508,0|0,3:0|3:0,0:0:0:0:
301,316,105408,2,0,P|312:276|315:243,1,53.9999983520508,0|0,3:0|3:0,0:0:0:0:
255,35,105576,5,4,0:1:0:0:
220,367,105745,1,4,0:1:0:0:
