osu file format v14

[General]
AudioFilename: audio.mp3
AudioLeadIn: 0
PreviewTime: 252392
Countdown: 1
SampleSet: Soft
StackLeniency: 0.7
Mode: 0
LetterboxInBreaks: 0
WidescreenStoryboard: 0

[Editor]
Bookmarks: 68756,72051,148074,159665,188756,219665
DistanceSpacing: 2.2
BeatDivisor: 4
GridSize: 4
TimelineZoom: 2.6

[Metadata]
Title:World Heroes
TitleUnicode:World Heroes
Artist:Chitose Haru (CV. Numakura Manami) & Kumagai Eri (CV. Seto Asami)
ArtistUnicode:Chitose Haru (CV. Numakura Manami) & Kumagai Eri (CV. Seto Asami)
Creator:Dizick
Version:Beyond limit
Source:
Tags:
BeatmapID:1425317
BeatmapSetID:673478

[Difficulty]
HPDrainRate:6
CircleSize:4
OverallDifficulty:9
ApproachRate:9.5
SliderMultiplier:2
SliderTickRate:1

[Events]
//Background and Video events
0,0,"art-bai-yemeng-pixiv-fantasia-4429.png",0,0
//Break Periods
2,221456,225503
//Storyboard Layer 0 (Background)
//Storyboard Layer 1 (Fail)
//Storyboard Layer 2 (Pass)
//Storyboard Layer 3 (Foreground)
//Storyboard Sound Samples

[TimingPoints]
8756,454.545454545455,4,2,0,100,1,0
8756,-100,4,2,0,20,0,0
10574,-100,4,2,0,30,0,0
12392,-100,4,2,0,40,0,0
14210,-100,4,2,0,50,0,0
16028,-100,4,2,0,60,0,0
17846,-100,4,2,0,70,0,0
19665,-100,4,2,0,80,0,0
21483,-100,4,2,0,90,0,0
23301,-100,4,2,0,100,0,0
69096,-100,4,2,0,100,0,0
71483,-66.6666666666667,4,2,0,100,0,0
72392,-100,4,2,0,100,0,0
75574,-66.6666666666667,4,2,0,100,0,0
76028,-200,4,2,0,100,0,0
76710,-100,4,2,0,100,0,0
76937,-133.333333333333,4,2,0,100,0,0
77619,-100,4,2,0,100,0,0
77846,-100,4,2,0,100,0,0
78528,-100,4,2,0,100,0,0
78756,-66.6666666666667,4,2,0,100,0,0
79437,-100,4,2,0,100,0,0
83301,-66.6666666666667,4,2,0,100,0,1
83756,-100,4,2,0,100,0,1
84210,-66.6666666666667,4,2,0,100,0,1
84892,-100,4,2,0,100,0,1
85119,-66.6666666666667,4,2,0,100,0,1
86937,-66.6666666666667,4,2,0,100,0,1
88301,-100,4,2,0,100,0,1
90574,-66.6666666666667,4,2,0,100,0,1
91256,-100,4,2,0,100,0,1
91483,-66.6666666666667,4,2,0,100,0,1
92165,-100,4,2,0,100,0,1
92392,-66.6666666666667,4,2,0,100,0,1
94210,-100,4,2,0,100,0,1
108756,-83.3333333333333,4,2,0,100,0,1
111256,-66.6666666666667,4,2,0,100,0,1
112165,-50,4,2,0,100,0,1
114210,-100,4,2,0,100,0,0
128756,-100,4,2,0,100,0,0
161483,-76.9230769230769,4,2,0,100,0,0
162392,-50,4,2,0,100,0,0
163301,-100,4,2,0,100,0,0
165460,-50,4,2,0,100,0,0
166028,-50,4,2,0,100,0,0
166937,-133.333333333333,4,2,0,100,0,0
167619,-100,4,2,0,100,0,0
167846,-100,4,2,0,100,0,0
168528,-100,4,2,0,100,0,0
168756,-66.6666666666667,4,2,0,100,0,0
169437,-100,4,2,0,100,0,0
169665,-50,4,2,0,100,0,0
170346,-100,4,2,0,100,0,0
170574,-200,4,2,0,100,0,0
172392,-66.6666666666667,4,2,0,100,0,0
174210,-66.6666666666667,4,2,0,100,0,1
174892,-100,4,2,0,100,0,1
175119,-66.6666666666667,4,2,0,100,0,1
175801,-100,4,2,0,100,0,1
176028,-66.6666666666667,4,2,0,100,0,1
176937,-100,4,2,0,100,0,1
177846,-66.6666666666667,4,2,0,100,0,1
178528,-100,4,2,0,100,0,1
181483,-66.6666666666667,4,2,0,100,0,1
182165,-100,4,2,0,100,0,1
182392,-66.6666666666667,4,2,0,100,0,1
183073,-100,4,2,0,100,0,1
183301,-66.6666666666667,4,2,0,100,0,1
183983,-100,4,2,0,100,0,1
198522,-76.9230769230769,4,2,0,100,0,1
200346,-66.6666666666667,4,2,0,100,0,1
202165,-55.5555555555556,4,2,0,100,0,1
205119,-100,4,2,0,100,0,0
206028,-55.5555555555556,4,2,0,100,0,0
206483,-66.6666666666667,4,2,0,100,0,0
207619,-66.6666666666667,4,2,0,100,0,0
208756,-100,4,2,0,100,0,0
210574,-66.6666666666667,4,2,0,100,0,0
211256,-100,4,2,0,100,0,0
213528,-66.6666666666667,4,2,0,100,0,0
216028,-100,4,2,0,100,0,0
217392,-66.6666666666667,4,2,0,100,0,0
218074,-100,4,2,0,100,0,0
244665,-100,4,2,0,100,0,0
248756,-66.6666666666667,4,2,0,100,0,0
249210,-50,4,2,0,100,0,0
252392,-66.6666666666667,4,2,0,100,0,1
253074,-100,4,2,0,100,0,1
253301,-66.6666666666667,4,2,0,100,0,1
253983,-100,4,2,0,100,0,1
254210,-66.6666666666667,4,2,0,100,0,1
254892,-100,4,2,0,100,0,1
259665,-66.6666666666667,4,2,0,100,0,1
260346,-100,4,2,0,100,0,1
260574,-66.6666666666667,4,2,0,100,0,1
261256,-100,4,2,0,100,0,1
261483,-66.6666666666667,4,2,0,100,0,1
262165,-100,4,2,0,100,0,1
277619,-66.6666666666667,4,2,0,100,0,1
280346,-50,4,2,0,100,0,1
283301,-100,4,2,0,100,0,0
286937,-66.6666666666667,4,2,0,100,0,0
287846,-50,4,2,0,100,0,0
288983,-100,4,2,0,100,0,0
290574,-66.6666666666667,4,2,0,100,0,0
292619,-100,4,2,0,100,0,0
302165,-76.9230769230769,4,2,0,100,0,0
303074,-100,4,2,0,100,0,0

[HitObjects]
40,32,8756,5,0,0:0:0:0:
168,32,9096,1,0,0:0:0:0:
168,32,9324,1,0,0:0:0:0:
76,128,9665,1,0,0:0:0:0:
208,132,10119,1,0,0:0:0:0:
208,132,10346,1,0,0:0:0:0:
128,228,10574,5,0,0:0:0:0:
260,232,10915,1,0,0:0:0:0:
260,232,11142,1,0,0:0:0:0:
192,336,11483,1,0,0:0:0:0:
324,336,11937,1,0,0:0:0:0:
324,336,12165,1,0,0:0:0:0:
324,168,12392,5,0,0:0:0:0:
456,172,12733,1,0,0:0:0:0:
456,172,12960,1,0,0:0:0:0:
368,72,13301,1,0,0:0:0:0:
240,76,13756,1,0,0:0:0:0:
240,76,13983,1,0,0:0:0:0:
236,236,14210,5,0,0:0:0:0:
96,156,14551,1,0,0:0:0:0:
96,156,14778,1,0,0:0:0:0:
100,320,15119,1,0,0:0:0:0:
184,176,15574,1,0,0:0:0:0:
184,176,15801,1,0,0:0:0:0:
260,324,16028,5,0,0:0:0:0:
116,248,16369,1,0,0:0:0:0:
116,248,16596,1,0,0:0:0:0:
256,148,16937,1,0,0:0:0:0:
384,52,17392,1,0,0:0:0:0:
384,52,17619,1,0,0:0:0:0:
388,216,17846,5,0,0:0:0:0:
200,220,18187,1,0,0:0:0:0:
200,220,18415,1,0,0:0:0:0:
356,336,18756,1,0,0:0:0:0:
356,140,19210,1,0,0:0:0:0:
356,140,19437,1,0,0:0:0:0:
472,284,19665,5,0,0:0:0:0:
296,224,20006,1,0,0:0:0:0:
296,224,20233,1,0,0:0:0:0:
288,36,20574,1,0,0:0:0:0:
144,144,21028,1,0,0:0:0:0:
144,144,21256,1,0,0:0:0:0:
372,136,21483,5,0,0:0:0:0:
244,296,21824,1,0,0:0:0:0:
244,296,22051,1,0,0:0:0:0:
440,296,22392,1,0,0:0:0:0:
256,32,23301,5,4,1:0:0:0:
132,76,23528,1,0,0:0:0:0:
132,76,23642,1,0,0:0:0:0:
224,160,23869,1,0,0:0:0:0:
100,204,24096,1,0,0:0:0:0:
100,204,24210,1,0,0:0:0:0:
200,288,24437,1,0,0:0:0:0:
88,344,24665,2,0,P|48:336|28:288,1,90
172,220,25119,5,0,0:0:0:0:
215,95,25346,1,0,0:0:0:0:
215,95,25460,1,0,0:0:0:0:
304,184,25687,1,0,0:0:0:0:
344,56,25915,1,0,0:0:0:0:
387,64,26028,1,0,0:0:0:0:
422,93,26142,1,0,0:0:0:0:
439,134,26256,1,0,0:0:0:0:
304,184,26483,1,0,0:0:0:0:
314,227,26596,1,0,0:0:0:0:
345,259,26710,1,0,0:0:0:0:
388,271,26824,1,0,0:0:0:0:
472,244,26937,5,0,0:0:0:0:
420,348,27165,1,0,0:0:0:0:
420,348,27278,1,0,0:0:0:0:
388,192,27506,1,0,0:0:0:0:
276,304,27733,1,0,0:0:0:0:
276,304,27846,1,0,0:0:0:0:
300,120,28074,1,0,0:0:0:0:
169,198,28301,2,0,P|144:160|144:104,1,100
224,32,28756,5,0,0:0:0:0:
64,32,28983,1,0,0:0:0:0:
64,32,29096,1,0,0:0:0:0:
61,196,29324,2,0,L|132:280,1,100
136,280,29665,1,0,0:0:0:0:
316,348,29892,2,0,P|368:356|420:348,1,100,0|2,1:0|1:0,0:0:0:0:
256,116,30574,5,0,1:0:0:0:
333,192,31028,1,0,1:0:0:0:
256,269,31483,1,0,1:0:0:0:
180,192,31937,1,0,1:0:0:0:
352,92,32392,5,0,1:0:0:0:
353,293,32846,1,0,1:0:0:0:
150,293,33301,1,0,1:0:0:0:
152,92,33756,1,0,1:0:0:0:
409,192,34210,5,0,1:0:0:0:
256,347,34665,1,0,1:0:0:0:
100,192,35119,1,0,1:0:0:0:
256,38,35574,1,0,1:0:0:0:
122,325,36028,5,0,1:0:0:0:
120,56,36483,1,0,1:0:0:0:
391,56,36937,1,0,1:0:0:0:
389,325,37392,1,0,1:0:0:0:
172,204,37846,5,0,0:0:0:0:
84,268,37998,1,0,0:0:0:0:
76,168,38149,1,0,0:0:0:0:
248,144,38301,2,0,L|328:76,1,66.6666666666667,0|0,0:0|0:0,0:0:0:0:
244,280,38528,2,0,L|324:320,1,66.6666666666667,0|0,0:0|0:0,0:0:0:0:
324,224,38756,2,0,B|408:160|408:276|516:216,1,200,0|0,0:0|0:0,0:0:0:0:
439,288,39665,5,0,0:0:0:0:
411,322,39778,1,0,0:0:0:0:
369,339,39892,1,0,0:0:0:0:
325,333,40006,1,0,0:0:0:0:
256,276,40119,1,0,1:0:0:0:
256,144,40346,5,0,0:0:0:0:
241,102,40460,1,0,0:0:0:0:
164,52,40574,1,0,1:0:0:0:
122,69,40687,1,0,0:0:0:0:
80,86,40801,1,0,0:0:0:0:
50,119,40915,1,0,0:0:0:0:
32,208,41028,1,0,1:0:0:0:
128,300,41256,6,0,L|195:325,1,50,0|0,0:0|0:0,0:0:0:0:
262,351,41483,1,0,1:0:0:0:
305,361,41596,1,0,0:0:0:0:
349,355,41710,1,0,0:0:0:0:
389,333,41824,1,0,0:0:0:0:
452,268,41937,1,0,1:0:0:0:
349,175,42165,5,0,0:0:0:0:
323,209,42278,1,0,0:0:0:0:
260,288,42392,1,0,1:0:0:0:
212,288,42506,1,0,0:0:0:0:
168,280,42619,1,0,0:0:0:0:
126,265,42733,1,0,0:0:0:0:
60,208,42846,1,0,1:0:0:0:
64,80,43074,6,0,L|112:60,1,50
204,24,43301,1,0,1:0:0:0:
246,48,43414,1,0,0:0:0:0:
259,95,43528,1,0,0:0:0:0:
240,140,43641,1,0,0:0:0:0:
160,188,43756,1,0,1:0:0:0:
48,240,43983,5,0,0:0:0:0:
69,279,44096,1,0,0:0:0:0:
132,340,44210,1,0,1:0:0:0:
180,350,44323,1,0,0:0:0:0:
230,351,44437,1,0,0:0:0:0:
279,342,44550,1,0,0:0:0:0:
356,292,44665,1,0,1:0:0:0:
356,160,44892,6,0,L|390:123,1,50,0|0,0:0|0:0,0:0:0:0:
472,80,45119,1,0,1:0:0:0:
479,128,45232,1,0,0:0:0:0:
466,177,45346,1,0,0:0:0:0:
465,226,45459,1,0,0:0:0:0:
464,316,45574,1,0,1:0:0:0:
336,320,45801,5,0,0:0:0:0:
302,291,45915,1,0,0:0:0:0:
260,212,46028,2,0,L|224:152,1,50,0|0,1:0|0:0,0:0:0:0:
204,96,46256,2,0,L|149:81,1,50
68,60,46483,1,0,1:0:0:0:
16,176,46710,6,0,L|16:236,1,50
16,328,46937,1,0,1:0:0:0:
60,331,47051,1,0,0:0:0:0:
100,312,47165,1,0,0:0:0:0:
103,262,47278,1,0,0:0:0:0:
172,204,47392,1,0,1:0:0:0:
240,92,47619,5,0,0:0:0:0:
274,119,47733,1,0,0:0:0:0:
280,216,47846,1,0,1:0:0:0:
279,261,47960,1,0,0:0:0:0:
278,306,48074,1,0,0:0:0:0:
315,329,48187,1,0,0:0:0:0:
404,328,48301,1,0,1:0:0:0:
472,216,48528,6,0,L|480:160,1,50,0|0,0:0|0:0,0:0:0:0:
496,76,48756,1,0,1:0:0:0:
454,56,48869,1,0,0:0:0:0:
410,56,48983,1,0,0:0:0:0:
366,56,49096,1,0,0:0:0:0:
296,112,49210,1,0,1:0:0:0:
198,210,49437,6,0,L|216:164,1,50,0|0,0:0|0:0,0:0:0:0:
212,76,49665,2,0,L|192:12,1,50,0|0,1:0|0:0,0:0:0:0:
152,40,49892,1,0,0:0:0:0:
117,69,50006,1,0,0:0:0:0:
90,155,50119,1,0,1:0:0:0:
24,300,50346,6,0,L|71:314,1,50,0|0,0:0|0:0,0:0:0:0:
132,240,50574,1,0,1:0:0:0:
181,238,50688,1,0,0:0:0:0:
223,263,50802,1,0,0:0:0:0:
247,307,50915,1,0,0:0:0:0:
160,316,51028,1,0,1:0:0:0:
344,340,51256,5,0,0:0:0:0:
385,327,51369,1,0,0:0:0:0:
464,260,51483,1,0,1:0:0:0:
451,218,51596,1,0,0:0:0:0:
400,204,51710,1,0,0:0:0:0:
412,162,51824,1,0,0:0:0:0:
492,112,51937,1,0,1:0:0:0:
376,52,52165,6,0,L|312:24,1,50,0|0,0:0|0:0,0:0:0:0:
292,152,52392,2,0,L|264:216,1,50,0|0,1:3|0:3,0:3:0:0:
184,164,52619,2,0,L|120:136,1,50,0|0,0:0|0:0,0:0:0:0:
84,264,52846,2,0,L|56:328,1,50,0|0,1:3|0:3,0:3:0:0:
168,344,53074,2,0,L|216:360,1,50,0|0,0:0|0:0,0:0:0:0:
312,356,53301,5,0,1:0:0:0:
345,320,53415,1,0,0:0:0:0:
355,272,53528,1,0,0:0:0:0:
341,223,53642,1,0,0:0:0:0:
318,187,53756,2,0,P|292:168|256:156,1,50
184,128,53983,1,0,1:0:0:0:
180,240,54210,5,0,1:0:0:0:
140,259,54324,1,0,0:0:0:0:
100,275,54437,1,0,0:0:0:0:
99,230,54551,1,0,0:0:0:0:
96,140,54665,1,0,1:0:0:0:
96,20,54892,5,0,0:0:0:0:
133,46,55006,1,0,0:0:0:0:
220,88,55119,1,0,1:0:0:0:
260,112,55233,1,0,0:0:0:0:
288,72,55346,1,0,0:0:0:0:
312,32,55460,1,0,0:0:0:0:
400,64,55574,1,0,1:0:0:0:
400,192,55801,6,0,L|400:256,1,50,0|0,0:0|0:0,0:0:0:0:
400,340,56028,1,0,1:0:0:0:
351,350,56141,1,0,0:0:0:0:
301,351,56255,1,0,0:0:0:0:
251,343,56368,1,0,0:0:0:0:
172,300,56483,1,0,1:0:0:0:
172,168,56710,5,0,0:0:0:0:
148,132,56824,1,0,0:0:0:0:
96,60,56937,1,0,1:0:0:0:
71,103,57051,1,0,0:0:0:0:
68,152,57165,1,0,0:0:0:0:
85,199,57278,1,0,0:0:0:0:
60,288,57392,1,0,1:0:0:0:
184,312,57619,6,0,L|212:356,1,50
272,272,57846,2,0,L|286:206,1,50,0|0,1:0|0:0,0:0:0:0:
300,176,58074,1,0,0:0:0:0:
343,162,58187,1,0,0:0:0:0:
432,176,58301,1,0,1:0:0:0:
400,300,58528,5,0,0:0:0:0:
357,315,58642,1,0,0:0:0:0:
272,272,58756,1,0,1:0:0:0:
228,247,58869,1,0,0:0:0:0:
180,236,58983,1,0,0:0:0:0:
130,241,59096,1,0,0:0:0:0:
44,268,59210,1,0,1:0:0:0:
24,148,59437,6,0,L|41:101,1,50,0|0,0:0|0:0,0:0:0:0:
120,40,59665,1,0,1:0:0:0:
166,22,59779,1,0,0:0:0:0:
213,34,59893,1,0,0:0:0:0:
246,71,60006,1,0,0:0:0:0:
224,160,60119,1,0,1:0:0:0:
348,200,60346,5,0,0:0:0:0:
322,236,60460,1,0,0:0:0:0:
264,316,60574,1,0,1:0:0:0:
222,288,60687,1,0,0:0:0:0:
180,261,60801,1,0,0:0:0:0:
138,234,60914,1,0,0:0:0:0:
60,188,61028,1,0,1:0:0:0:
56,316,61256,6,0,L|56:376,1,50
160,352,61483,1,0,1:0:0:0:
202,337,61596,1,0,0:0:0:0:
223,299,61710,1,0,0:0:0:0:
232,260,61824,1,0,0:0:0:0:
316,216,61937,1,0,1:0:0:0:
404,128,62165,5,0,0:0:0:0:
367,103,62278,1,0,0:0:0:0:
280,60,62392,1,0,1:0:0:0:
236,69,62506,1,0,0:0:0:0:
192,78,62619,1,0,0:0:0:0:
148,87,62733,1,0,0:0:0:0:
60,112,62846,1,0,1:0:0:0:
52,240,63074,6,0,L|100:296,1,50,0|0,0:0|0:0,0:0:0:0:
156,344,63301,1,0,1:0:0:0:
203,330,63415,1,0,0:0:0:0:
238,295,63529,1,0,0:0:0:0:
252,248,63642,1,0,0:0:0:0:
296,168,63756,1,0,1:0:0:0:
368,96,63983,5,0,0:0:0:0:
409,113,64096,1,0,0:0:0:0:
492,160,64210,1,0,1:0:0:0:
482,203,64324,1,0,0:0:0:0:
472,246,64437,1,0,0:0:0:0:
472,246,64552,1,0,0:0:0:0:
400,300,64665,1,0,1:0:0:0:
276,304,64892,6,0,L|248:248,1,50,0|0,0:0|0:0,0:0:0:0:
228,172,65119,1,0,1:0:0:0:
185,148,65233,1,0,0:0:0:0:
139,165,65347,1,0,0:0:0:0:
120,209,65460,1,0,0:0:0:0:
120,300,65574,1,0,1:0:0:0:
40,204,65801,5,0,0:0:0:0:
42,160,65915,1,0,0:0:0:0:
104,76,66028,1,0,1:0:0:0:
148,79,66142,1,0,0:0:0:0:
192,84,66256,1,0,0:0:0:0:
230,104,66369,1,0,0:0:0:0:
304,152,66483,1,0,1:0:0:0:
160,208,66710,5,0,0:0:0:0:
320,252,66937,2,0,P|359:281|385:324,1,100,0|0,1:0|0:0,0:0:0:0:
240,352,67392,1,0,0:0:0:0:
240,232,67619,1,0,0:0:0:0:
348,172,67846,2,0,P|407:210|458:282,1,150,0|0,0:0|0:0,0:0:0:0:
364,328,68301,2,0,L|332:348,4,25,0|0|0|0|0,1:0|1:0|1:0|1:0|1:0,1:0:0:0:
454,273,68642,5,0,1:0:0:0:
335,236,68756,2,0,B|298:230|298:230|276:250|230:227,1,100,0|0,1:0|0:0,0:0:0:0:
143,236,69096,2,0,B|179:230|179:230|202:250|248:227,1,100,0|0,1:0|0:0,0:0:0:0:
244,136,69437,1,0,0:0:0:0:
244,332,69665,2,0,P|196:337|140:332,1,100,0|0,1:0|0:0,0:0:0:0:
143,236,70119,1,0,0:0:0:0:
143,236,70346,1,0,0:0:0:0:
52,192,70574,6,0,B|80:268|12:268|52:344,1,150,0|0,1:0|0:0,0:0:0:0:
244,332,71028,1,0,1:0:0:0:
143,236,71256,1,0,0:0:0:0:
292,112,71483,2,0,L|360:48,1,75.0000028610231,2|0,0:0|0:0,0:0:0:0:
292,272,71710,2,0,L|360:336,1,75.0000028610231,2|0,0:0|0:0,0:0:0:0:
164,120,71937,2,0,L|224:52,1,75.0000028610231,2|0,0:0|0:0,0:0:0:0:
164,264,72165,2,0,L|224:332,1,75.0000028610231,2|0,0:0|0:0,0:0:0:0:
412,192,72392,6,0,B|312:220|312:160|208:192,1,200,0|0,1:0|0:0,0:0:0:0:
44,196,73074,1,0,0:0:0:0:
44,196,73187,1,0,0:0:0:0:
44,196,73301,2,0,P|32:244|44:296,1,100,0|0,1:0|0:0,0:0:0:0:
212,244,73756,2,0,L|88:244,1,100
144,93,74210,6,0,B|68:120|113:166|42:195,1,150
113,353,74665,2,0,B|89:306|57:346|41:290,1,100,0|0,1:0|0:0,0:0:0:0:
216,288,75119,2,0,L|216:128,1,150,0|0,1:0|0:0,0:0:0:0:
72,96,75574,2,0,L|20:80,2,37.5000014305115
216,138,75801,2,0,L|296:114,1,75.0000028610231
476,76,76028,6,0,L|476:180,1,100,0|0,1:0|0:0,0:0:0:0:
256,242,76710,2,0,L|256:192,1,50
476,326,76937,2,0,L|476:166,1,150.000005722046,0|0,1:0|0:0,0:0:0:0:
256,192,77619,2,0,L|256:134,1,50
36,288,77846,2,0,L|36:80,1,200,0|0,0:0|1:0,0:0:0:0:
256,192,78528,2,0,L|256:246,1,50
476,40,78756,2,0,L|475:344,1,300.000011444092,0|0,1:0|0:0,0:0:0:0:
304,88,79437,2,0,L|236:128,1,45,0|0,0:0|0:0,0:0:0:0:
112,176,79665,5,0,1:0:0:0:
264,208,79892,1,0,0:0:0:0:
140,264,80119,1,0,0:0:0:0:
166,300,80233,1,0,0:0:0:0:
203,325,80346,1,0,0:0:0:0:
246,335,80460,1,0,0:0:0:0:
336,316,80574,1,0,1:0:0:0:
416,240,80801,5,0,0:0:0:0:
272,184,81028,1,0,0:0:0:0:
436,80,81256,1,0,0:0:0:0:
180,68,81483,5,4,1:0:0:0:
376,284,81824,1,4,1:0:0:0:
112,292,82165,1,4,1:0:0:0:
108,40,82619,6,0,L|176:120,1,100
308,256,83074,1,0,0:0:0:0:
112,176,83301,6,0,B|216:220|218:146|348:176,1,225.000008583069,0|0,1:0|0:0,0:0:0:0:
488,320,83756,1,0,1:0:0:0:
360,272,83983,6,0,L|300:256,1,50
96,256,84210,2,0,P|28:168|96:104,1,225.000008583069,0|0,1:0|0:0,0:0:0:0:
332,172,84665,1,0,1:0:0:0:
240,296,84892,6,0,L|196:348,1,50
20,280,85119,2,0,B|46:166|-27:163|16:59,1,225.000008583069,0|0,1:0|0:0,0:0:0:0:
248,60,85574,1,0,1:0:0:0:
156,212,85801,5,0,0:0:0:0:
376,160,86028,1,0,1:0:0:0:
248,340,86256,1,0,0:0:0:0:
248,340,86369,1,0,0:0:0:0:
248,340,86483,1,0,1:0:0:0:
244,176,86710,1,0,0:0:0:0:
64,240,86937,6,0,B|80:176|48:144|48:144|80:96|80:96|48:64|64:16,1,225.000008583069,0|0,1:0|0:0,0:0:0:0:
300,80,87392,1,0,1:0:0:0:
156,224,87619,1,0,0:0:0:0:
184,248,87733,1,0,0:0:0:0:
219,259,87846,1,0,1:0:0:0:
464,160,88074,1,0,0:0:0:0:
435,135,88188,1,0,0:0:0:0:
400,124,88301,1,0,1:0:0:0:
464,320,88528,1,0,0:0:0:0:
308,144,88756,5,0,1:0:0:0:
304,360,88983,1,0,0:0:0:0:
268,368,89096,1,0,0:0:0:0:
231,361,89210,1,0,1:0:0:0:
344,248,89437,1,0,0:0:0:0:
128,248,89665,1,0,1:0:0:0:
308,144,89892,1,0,0:0:0:0:
313,108,90006,1,0,0:0:0:0:
302,72,90119,2,0,P|255:41|199:32,1,100,0|0,1:0|0:0,0:0:0:0:
36,260,90574,6,0,B|80:152|4:152|36:24,1,225.000008583069,0|0,1:0|0:0,0:0:0:0:
248,120,91028,1,0,1:0:0:0:
248,120,91256,6,0,L|216:168,1,50,0|0,0:0|0:0,0:0:0:0:
36,260,91483,2,0,P|68:336|224:296,1,225.000008583069,0|0,1:0|0:0,0:0:0:0:
248,120,91937,1,0,1:0:0:0:
248,120,92165,6,0,L|284:68,1,50
484,40,92392,2,0,B|455:152|531:152|487:260,1,225.000008583069,0|0,1:0|0:0,0:0:0:0:
300,320,92846,1,0,1:0:0:0:
336,136,93074,1,0,0:0:0:0:
371,148,93187,1,0,0:0:0:0:
406,161,93301,1,0,1:0:0:0:
300,320,93528,1,0,0:0:0:0:
265,307,93642,1,0,0:0:0:0:
230,295,93756,1,0,1:0:0:0:
156,108,93983,5,0,0:0:0:0:
140,67,94097,1,0,0:0:0:0:
125,33,94210,1,0,1:0:0:0:
88,224,94437,2,0,L|76:280,2,50,0|0|0,0:0|0:0|1:0,0:0:0:0:
264,165,94892,5,0,0:0:0:0:
304,147,95006,1,0,0:0:0:0:
338,133,95119,1,0,1:0:0:0:
230,295,95346,2,0,L|198:343,2,50,0|0|0,0:0|0:0|1:0,0:0:0:0:
88,224,95801,5,0,0:0:0:0:
60,191,95915,1,0,0:0:0:0:
36,163,96028,1,0,1:0:0:0:
224,24,96256,1,0,0:0:0:0:
200,52,96370,1,0,0:0:0:0:
172,85,96483,1,0,1:0:0:0:
88,224,96710,1,0,0:0:0:0:
292,136,96937,1,0,1:0:0:0:
160,292,97165,5,0,0:0:0:0:
131,323,97278,1,0,0:0:0:0:
106,351,97392,1,0,1:0:0:0:
312,348,97619,1,0,0:0:0:0:
312,348,97733,2,0,L|352:320,2,25,0|0|0,0:0|0:0|1:0,0:0:0:0:
264,252,97960,5,0,0:0:0:0:
226,219,98074,1,0,0:0:0:0:
208,173,98187,1,0,0:0:0:0:
204,84,98301,1,0,1:0:0:0:
324,32,98528,5,0,0:0:0:0:
360,65,98642,1,0,0:0:0:0:
360,152,98756,1,0,1:0:0:0:
381,195,98869,1,0,0:0:0:0:
426,215,98983,1,0,0:0:0:0:
468,228,99096,1,0,0:0:0:0:
492,316,99210,1,0,1:0:0:0:
344,320,99437,6,0,L|280:324,1,50
200,324,99665,1,0,1:0:0:0:
166,288,99778,1,0,0:0:0:0:
171,240,99892,1,0,0:0:0:0:
166,192,100006,1,0,0:0:0:0:
228,128,100119,1,0,1:0:0:0:
176,40,100346,5,0,0:0:0:0:
126,41,100460,1,0,0:0:0:0:
52,96,100574,1,0,1:0:0:0:
64,144,100687,1,0,0:0:0:0:
24,176,100801,1,0,0:0:0:0:
36,224,100914,1,0,0:0:0:0:
60,312,101028,1,0,1:0:0:0:
192,336,101256,6,0,L|260:344,1,50
304,280,101483,1,0,1:0:0:0:
325,235,101596,1,0,0:0:0:0:
323,186,101710,1,0,0:0:0:0:
298,143,101824,1,0,0:0:0:0:
224,76,101937,1,0,1:0:0:0:
224,200,102165,5,0,0:0:0:0:
215,247,102278,1,0,0:0:0:0:
136,288,102392,1,0,1:0:0:0:
136,239,102506,1,0,0:0:0:0:
136,190,102619,1,0,0:0:0:0:
136,141,102733,1,0,0:0:0:0:
136,52,102846,1,0,1:0:0:0:
268,56,103074,6,0,L|324:92,1,50
328,168,103301,1,0,1:0:0:0:
329,217,103415,1,0,0:0:0:0:
331,267,103528,1,0,0:0:0:0:
367,300,103642,1,0,0:0:0:0:
448,256,103756,1,0,1:0:0:0:
460,144,103983,5,0,0:0:0:0:
451,95,104096,1,0,0:0:0:0:
376,40,104210,1,0,1:0:0:0:
328,27,104324,1,0,0:0:0:0:
306,77,104437,1,0,0:0:0:0:
352,89,104551,1,0,0:0:0:0:
384,172,104665,1,0,1:0:0:0:
380,304,104892,6,0,L|332:328,1,50
228,312,105119,1,0,1:0:0:0:
181,309,105233,1,0,0:0:0:0:
166,264,105346,1,0,0:0:0:0:
203,234,105460,1,0,0:0:0:0:
292,256,105574,1,0,1:0:0:0:
288,124,105801,5,0,0:0:0:0:
289,75,105915,1,0,0:0:0:0:
204,32,106028,1,0,1:0:0:0:
156,39,106142,1,0,0:0:0:0:
130,80,106256,1,0,0:0:0:0:
144,126,106369,1,0,0:0:0:0:
216,180,106483,1,0,1:0:0:0:
228,312,106710,6,0,L|268:364,1,50
336,304,106937,1,0,1:0:0:0:
370,267,107051,1,0,0:0:0:0:
420,248,107165,1,0,0:0:0:0:
384,214,107278,1,0,0:0:0:0:
316,156,107392,1,0,1:0:0:0:
184,156,107619,5,0,0:0:0:0:
158,199,107733,1,0,0:0:0:0:
88,260,107846,1,0,1:0:0:0:
63,303,107960,1,0,0:0:0:0:
27,262,108074,1,0,0:0:0:0:
52,219,108187,1,0,0:0:0:0:
100,140,108301,1,0,1:0:0:0:
200,60,108528,6,0,L|272:44,1,50
344,80,108756,1,0,1:0:0:0:
350,139,108869,1,0,0:0:0:0:
326,193,108983,1,0,0:0:0:0:
280,230,109096,1,0,0:0:0:0:
252,128,109210,1,0,1:0:0:0:
140,208,109437,5,0,0:0:0:0:
194,228,109551,1,0,0:0:0:0:
256,312,109665,1,0,1:0:0:0:
232,365,109778,1,0,0:0:0:0:
177,384,109892,1,0,0:0:0:0:
125,357,110006,1,0,0:0:0:0:
60,280,110119,1,0,1:0:0:0:
60,148,110346,6,0,L|60:40,1,59.9999981689454
152,32,110574,1,0,1:0:0:0:
202,63,110687,1,0,0:0:0:0:
253,95,110801,1,0,0:0:0:0:
304,127,110915,1,0,0:0:0:0:
392,180,111028,1,0,1:0:0:0:
412,76,111256,5,0,0:0:0:0:
463,128,111369,1,0,0:0:0:0:
464,224,111483,1,0,1:0:0:0:
419,282,111596,1,0,0:0:0:0:
356,248,111710,1,0,0:0:0:0:
305,298,111824,1,0,0:0:0:0:
212,344,111937,1,0,1:0:0:0:
376,160,112165,5,0,0:0:0:0:
350,71,112278,1,0,0:0:0:0:
258,81,112392,1,0,0:0:0:0:
88,128,112619,5,0,0:0:0:0:
312,236,112846,1,0,0:0:0:0:
296,12,113074,1,0,0:0:0:0:
128,240,113301,1,0,0:0:0:0:
420,156,113528,1,0,0:0:0:0:
152,68,113756,1,0,0:0:0:0:
248,312,113983,1,0,0:0:0:0:
320,76,114210,5,0,1:0:0:0:
420,156,114437,1,0,0:0:0:0:
406,202,114551,1,0,0:0:0:0:
363,225,114665,1,0,1:0:0:0:
364,328,114892,1,0,0:0:0:0:
413,335,115005,1,0,0:0:0:0:
451,305,115119,1,0,1:0:0:0:
364,328,115346,1,0,0:0:0:0:
344,144,115574,1,0,1:0:0:0:
288,232,115801,1,0,0:0:0:0:
152,80,116028,6,8,P|144:128|152:184,1,100,0|0,1:0|0:0,0:0:0:0:
256,148,116369,1,0,0:0:0:0:
344,144,116483,1,0,1:0:0:0:
208,276,116710,1,0,0:0:0:0:
214,323,116824,1,0,0:0:0:0:
304,340,116937,1,0,1:0:0:0:
132,344,117165,1,0,0:0:0:0:
208,276,117392,5,0,1:0:0:0:
244,240,117506,1,0,0:0:0:0:
266,196,117619,1,0,0:0:0:0:
315,189,117733,1,0,0:0:0:0:
384,120,117846,1,0,1:0:0:0:
448,64,118074,5,0,0:0:0:0:
475,104,118187,1,0,0:0:0:0:
456,184,118301,2,0,L|434:242,1,50,0|0,1:0|0:0,0:0:0:0:
352,296,118642,1,0,0:0:0:0:
352,296,118756,1,0,1:0:0:0:
332,136,118983,1,0,0:0:0:0:
216,248,119210,1,0,1:0:0:0:
200,92,119437,1,0,0:0:0:0:
100,232,119665,5,0,1:0:0:0:
104,100,119892,1,0,0:0:0:0:
104,100,120006,1,0,0:0:0:0:
104,100,120119,2,0,L|192:40,1,100,0|0,1:0|0:0,0:0:0:0:
336,96,120574,6,0,B|355:102|371:135|371:135|443:146|443:146|454:190,1,150,0|0,1:0|0:0,0:0:0:0:
448,268,121028,1,0,1:0:0:0:
312,240,121256,1,0,0:0:0:0:
424,364,121483,5,0,1:0:0:0:
260,328,121710,1,0,0:0:0:0:
215,306,121824,1,0,0:0:0:0:
128,268,121937,1,0,1:0:0:0:
123,219,122051,1,0,0:0:0:0:
142,173,122165,1,0,0:0:0:0:
284,40,122392,5,0,1:0:0:0:
128,80,122619,1,0,0:0:0:0:
264,172,122846,1,0,1:0:0:0:
128,268,123074,1,0,0:0:0:0:
316,268,123301,5,0,1:0:0:0:
179,204,123528,1,0,0:0:0:0:
142,173,123642,1,0,0:0:0:0:
132,88,123756,1,0,1:0:0:0:
178,75,123869,1,0,0:0:0:0:
220,88,123983,1,0,0:0:0:0:
324,100,124210,5,0,1:0:0:0:
384,216,124437,1,0,0:0:0:0:
200,260,124665,1,0,1:0:0:0:
184,305,124778,1,0,0:0:0:0:
215,342,124892,1,0,0:0:0:0:
384,216,125119,5,0,1:0:0:0:
376,120,125346,1,0,0:0:0:0:
341,84,125460,1,0,0:0:0:0:
256,48,125574,2,0,L|176:24,2,50,0|0|0,1:0|0:0|0:0,0:0:0:0:
312,224,126028,5,0,1:0:0:0:
204,112,126256,1,0,0:0:0:0:
208,320,126483,1,0,1:0:0:0:
312,224,126710,1,0,0:0:0:0:
96,224,126937,5,0,1:0:0:0:
312,224,127165,1,0,0:0:0:0:
360,225,127278,1,0,0:0:0:0:
395,191,127392,1,0,1:0:0:0:
352,117,127506,1,0,0:0:0:0:
370,72,127619,1,0,0:0:0:0:
416,52,127733,1,0,0:0:0:0:
480,104,127846,2,0,P|488:200|424:288,1,200,0|0,1:0|0:0,0:0:0:0:
256,192,128415,12,0,130346,0:0:0:0:
76,60,130574,5,0,1:0:0:0:
71,108,130687,1,0,0:0:0:0:
96,150,130801,1,0,0:0:0:0:
141,169,130915,1,0,0:0:0:0:
232,168,131028,1,0,1:0:0:0:
232,36,131256,5,0,0:0:0:0:
280,34,131369,1,0,0:0:0:0:
360,80,131483,1,0,1:0:0:0:
364,128,131596,1,0,0:0:0:0:
360,176,131710,1,0,0:0:0:0:
364,224,131824,1,0,0:0:0:0:
364,312,131937,1,0,1:0:0:0:
456,216,132165,6,0,L|456:272,1,50
364,312,132392,1,0,1:0:0:0:
315,319,132506,1,0,0:0:0:0:
267,308,132619,1,0,0:0:0:0:
227,278,132733,1,0,0:0:0:0:
200,192,132846,1,0,1:0:0:0:
196,72,133074,5,0,0:0:0:0:
160,38,133187,1,0,0:0:0:0:
68,40,133301,1,0,1:0:0:0:
23,60,133415,1,0,0:0:0:0:
23,109,133528,1,0,0:0:0:0:
23,159,133642,1,0,0:0:0:0:
28,252,133756,1,0,1:0:0:0:
116,168,133983,6,0,L|168:128,1,50
216,268,134210,2,0,L|244:318,1,50,0|0,1:0|0:0,0:0:0:0:
152,360,134437,2,0,L|104:384,1,50
112,264,134665,1,0,1:0:0:0:
224,184,134892,5,0,0:0:0:0:
266,158,135006,1,0,0:0:0:0:
348,124,135119,1,0,1:0:0:0:
346,173,135233,1,0,0:0:0:0:
379,209,135346,1,0,0:0:0:0:
346,245,135460,1,0,0:0:0:0:
348,336,135574,1,0,1:0:0:0:
232,296,135801,6,0,L|176:272,1,50
112,216,136028,1,0,1:0:0:0:
84,256,136142,1,0,0:0:0:0:
81,305,136256,1,0,0:0:0:0:
105,349,136369,1,0,0:0:0:0:
192,368,136483,1,0,1:0:0:0:
328,364,136710,6,0,L|328:308,1,50
328,188,136937,2,0,L|355:146,1,50,0|0,1:0|0:0,0:0:0:0:
300,72,137165,2,0,L|272:30,1,50
260,144,137392,1,0,1:0:0:0:
184,256,137619,6,0,L|156:297,1,50
200,376,137846,1,0,1:0:0:0:
151,381,137960,1,0,0:0:0:0:
106,361,138074,1,0,0:0:0:0:
77,322,138187,1,0,0:0:0:0:
76,232,138301,1,0,1:0:0:0:
72,104,138528,5,0,0:0:0:0:
72,56,138642,1,0,0:0:0:0:
168,56,138756,1,0,1:0:0:0:
199,94,138869,1,0,0:0:0:0:
200,140,138983,1,0,0:0:0:0:
219,185,139096,1,0,0:0:0:0:
292,236,139210,1,0,1:0:0:0:
360,120,139437,6,0,L|412:88,1,50
496,60,139666,1,0,1:0:0:0:
500,109,139778,1,0,0:0:0:0:
494,159,139892,1,0,0:0:0:0:
477,206,140005,1,0,0:0:0:0:
424,280,140120,1,0,1:0:0:0:
344,180,140346,5,0,0:0:0:0:
296,184,140459,1,0,0:0:0:0:
232,252,140574,1,0,1:0:0:0:
200,214,140687,1,0,0:0:0:0:
195,164,140801,1,0,0:0:0:0:
227,126,140915,1,0,0:0:0:0:
296,68,141028,1,0,1:0:0:0:
168,48,141256,6,0,L|108:56,1,50
52,120,141483,1,0,1:0:0:0:
33,165,141596,1,0,0:0:0:0:
37,214,141710,1,0,0:0:0:0:
63,257,141824,1,0,0:0:0:0:
140,304,141937,1,0,1:0:0:0:
268,332,142165,5,0,0:0:0:0:
296,292,142278,1,0,0:0:0:0:
296,200,142392,1,0,1:0:0:0:
267,161,142506,1,0,0:0:0:0:
220,160,142619,1,0,0:0:0:0:
220,110,142732,1,0,0:0:0:0:
288,44,142846,1,0,1:0:0:0:
296,200,143074,5,0,0:0:0:0:
76,140,143301,1,0,1:0:0:0:
164,244,143528,1,0,0:0:0:0:
164,16,143756,1,0,1:0:0:0:
272,96,143983,1,0,0:0:0:0:
80,224,144210,2,0,P|64:296|80:376,1,150,0|0,1:0|0:0,0:0:0:0:
196,316,144665,2,0,B|268:348|271:286|364:316,1,150,0|0,1:0|0:0,0:0:0:0:
420,216,145119,5,0,1:0:0:0:
374,199,145233,1,0,0:0:0:0:
348,158,145346,1,0,0:0:0:0:
323,116,145460,1,0,0:0:0:0:
236,88,145574,1,0,1:0:0:0:
228,224,145801,5,0,0:0:0:0:
227,274,145915,1,0,0:0:0:0:
224,368,146028,1,0,1:0:0:0:
179,344,146142,1,0,0:0:0:0:
138,314,146255,1,0,0:0:0:0:
98,284,146369,1,0,0:0:0:0:
28,228,146483,1,0,1:0:0:0:
28,100,146710,5,0,0:0:0:0:
71,74,146824,1,0,0:0:0:0:
180,72,146937,1,0,1:0:0:0:
223,98,147051,1,0,0:0:0:0:
224,152,147165,1,0,0:0:0:0:
267,178,147278,1,0,0:0:0:0:
264,288,147392,1,0,1:0:0:0:
388,236,147619,5,0,0:0:0:0:
432,214,147732,1,0,0:0:0:0:
500,140,147846,1,0,1:0:0:0:
467,103,147959,1,0,0:0:0:0:
420,87,148073,1,0,0:0:0:0:
373,71,148187,1,0,0:0:0:0:
288,44,148301,1,0,1:0:0:0:
292,176,148528,6,0,L|250:203,1,50
144,132,148756,2,0,L|92:104,1,50,0|0,1:0|0:0,0:0:0:0:
96,208,148983,2,0,L|96:258,1,50
204,328,149210,1,0,1:0:0:0:
214,215,149437,5,0,0:0:0:0:
232,169,149551,1,0,0:0:0:0:
328,112,149665,1,0,1:0:0:0:
374,94,149778,1,0,0:0:0:0:
421,76,149892,1,0,0:0:0:0:
438,122,150006,1,0,0:0:0:0:
468,224,150119,1,0,1:0:0:0:
364,304,150346,6,0,L|312:340,1,50
216,336,150574,1,0,1:0:0:0:
216,286,150687,1,0,0:0:0:0:
216,236,150801,1,0,0:0:0:0:
216,186,150915,1,0,0:0:0:0:
212,76,151028,1,0,1:0:0:0:
96,144,151256,6,0,L|48:176,1,50
52,272,151483,1,0,1:0:0:0:
86,308,151596,1,0,0:0:0:0:
120,345,151710,1,0,0:0:0:0:
154,308,151824,1,0,0:0:0:0:
212,240,151937,1,0,1:0:0:0:
340,236,152165,6,0,L|400:212,1,50
268,168,152392,2,0,L|221:149,1,50,0|0,1:0|0:0,0:0:0:0:
304,88,152619,2,0,L|350:69,1,50
222,36,152846,1,0,1:0:0:0:
128,68,153074,5,0,0:0:0:0:
102,110,153187,1,0,0:0:0:0:
100,216,153301,1,0,1:0:0:0:
126,259,153415,1,0,0:0:0:0:
169,282,153528,1,0,0:0:0:0:
215,267,153642,1,0,0:0:0:0:
276,200,153756,1,0,1:0:0:0:
272,328,153983,6,0,L|272:384,1,50
368,328,154210,1,0,1:0:0:0:
408,300,154324,1,0,0:0:0:0:
424,254,154437,1,0,0:0:0:0:
440,208,154551,1,0,0:0:0:0:
440,100,154665,1,0,1:0:0:0:
324,36,154892,5,0,0:0:0:0:
289,72,155006,1,0,0:0:0:0:
288,172,155119,1,0,1:0:0:0:
288,222,155233,1,0,0:0:0:0:
252,257,155346,1,0,0:0:0:0:
216,292,155460,1,0,0:0:0:0:
104,292,155574,1,0,1:0:0:0:
120,160,155801,6,0,L|120:100,1,50
30,173,156028,1,0,1:0:0:0:
38,221,156142,1,0,0:0:0:0:
63,263,156256,1,0,0:0:0:0:
104,292,156369,1,0,0:0:0:0:
216,292,156483,1,0,1:0:0:0:
340,292,156710,5,0,0:0:0:0:
389,294,156824,1,0,0:0:0:0:
354,226,156937,1,0,1:0:0:0:
403,229,157051,1,0,0:0:0:0:
408,184,157165,1,0,0:0:0:0:
358,181,157278,1,0,0:0:0:0:
396,76,157392,1,0,1:0:0:0:
268,76,157619,5,0,0:0:0:0:
408,232,157846,1,0,1:0:0:0:
272,232,158074,1,0,0:0:0:0:
472,300,158301,1,0,1:0:0:0:
340,304,158528,1,0,0:0:0:0:
340,108,158756,2,0,P|312:44|220:36,1,150,0|0,1:0|0:0,0:0:0:0:
192,112,159210,2,0,B|148:60|148:60|92:60|92:60|60:8,1,150,0|0,1:0|0:0,0:0:0:0:
192,112,159665,6,0,B|256:128|272:16|272:16|384:72|384:72|336:136|384:200|384:200|336:248|384:296|384:296|384:340|448:320|448:272|448:272|464:192,1,700
264,256,161483,6,0,B|212:231|192:188|192:188|156:188|156:188|112:136,1,194.999991073609
12,152,161937,1,0,1:0:0:0:
64,296,162165,1,0,0:0:0:0:
216,289,162392,6,0,B|248:304|248:304|252:320|252:320|264:312|264:312|296:324,1,100
347,158,162619,2,0,B|328:152|328:152|328:132|328:132|312:144|312:144|276:128,1,100
174,354,162846,2,0,B|196:321|196:321|186:303|186:303|206:306|206:306|218:284,1,100
386,91,163074,2,0,B|365:124|365:124|375:142|375:142|355:139|355:139|347:158,1,100
76,136,163301,6,0,B|32:104|16:56|16:56|76:60|116:128|116:128|184:136|228:84|228:84|296:112|296:112|336:72|380:112|380:112|428:72|453:113|453:113|481:28,1,700,0|0,1:0|0:0,0:0:0:0:
368,208,165119,1,0,0:0:0:0:
452,272,165460,2,0,L|356:328,1,100,0|0,0:0|1:0,0:0:0:0:
276,48,165801,2,0,L|172:96,1,100
228,312,166028,2,0,P|156:288|272:276,1,300
426,119,166483,6,0,B|406:145|406:145|334:141|334:141|314:182|265:205,1,200
168,304,166937,2,0,P|256:336|340:304,1,187.500007152558,0|0,1:0|0:0,0:0:0:0:
126,275,167619,6,0,L|170:305,1,50
372,196,167846,2,0,P|256:156|136:196,1,250,0|0,1:0|0:0,0:0:0:0:
411,165,168528,6,0,L|355:209,1,50
108,272,168756,2,0,P|258:337|392:344,1,300.000011444092,0|0,0:0|1:0,0:0:0:0:
71,238,169437,6,0,L|122:285,1,50
480,120,169665,2,0,P|256:40|-8:112,1,500,0|0,1:0|0:0,0:0:0:0:
480,120,170346,6,0,L|508:79,1,50
376,148,170574,2,0,P|296:168|220:148,1,150,0|0,1:0|0:0,0:0:0:0:
44,148,171483,1,0,1:0:0:0:
148,248,171710,1,0,0:0:0:0:
152,52,171937,1,0,0:0:0:0:
44,148,172165,1,0,0:0:0:0:
232,152,172392,2,0,B|342:119|340:184|464:152,2,225.000008583069,0|0|0,1:0|1:0|1:0,1:0:0:0:
136,112,173301,5,4,1:0:0:0:
112,69,173415,1,0,0:0:0:0:
141,31,173528,1,0,0:0:0:0:
220,32,173642,5,0,0:0:0:0:
262,53,173756,1,4,1:0:0:0:
299,23,173869,1,0,0:0:0:0:
379,52,173983,5,0,0:0:0:0:
360,96,174096,1,0,0:0:0:0:
392,132,174210,2,0,P|416:248|368:344,1,225.000008583069,0|0,1:0|0:0,0:0:0:0:
244,160,174665,1,0,1:0:0:0:
244,160,174892,2,0,L|216:212,1,50
16,340,175119,2,0,B|72:220|-36:228|16:124,1,225.000008583069,0|0,1:0|0:0,0:0:0:0:
228,28,175574,1,0,1:0:0:0:
228,28,175801,2,0,L|272:60,1,50
396,244,176028,6,0,P|488:256|432:184,1,225.000008583069,0|0,1:0|0:0,0:3:0:0:
248,152,176483,1,0,1:0:0:0:
308,276,176710,1,0,0:0:0:0:
84,220,176937,1,0,1:0:0:0:
144,320,177165,1,0,0:0:0:0:
144,344,177278,1,0,0:0:0:0:
144,370,177392,1,0,1:0:0:0:
324,252,177619,1,0,0:0:0:0:
324,252,177733,1,0,0:0:0:0:
324,252,177846,6,0,B|369:217|380:173|380:173|452:162|452:162|468:129|524:100,1,225.000008583069,0|0,1:0|0:0,0:0:0:0:
268,56,178301,1,0,1:0:0:0:
324,252,178528,1,0,0:0:0:0:
302,296,178642,1,0,0:0:0:0:
263,327,178756,1,0,1:0:0:0:
124,152,178983,1,0,0:0:0:0:
146,108,179097,1,0,0:0:0:0:
185,77,179210,1,0,1:0:0:0:
302,296,179437,5,0,0:0:0:0:
263,327,179551,1,0,0:0:0:0:
225,360,179665,1,0,1:0:0:0:
146,108,179892,1,0,0:0:0:0:
185,77,180006,1,0,0:0:0:0:
222,43,180119,1,0,1:0:0:0:
440,168,180346,5,0,0:0:0:0:
439,216,180460,1,0,0:0:0:0:
404,250,180574,1,0,1:0:0:0:
200,352,180801,1,0,0:0:0:0:
200,303,180915,1,0,0:0:0:0:
235,269,181028,1,0,1:0:0:0:
404,250,181256,1,0,0:0:0:0:
192,144,181483,6,0,B|144:128|128:96|128:96|112:160|112:160|96:128|32:144,1,225.000008583069,0|0,1:0|0:0,0:0:0:0:
36,352,181937,1,0,1:0:0:0:
36,352,182165,2,0,L|104:312,1,50
304,240,182392,2,0,P|306:345|256:304,1,225.000008583069,0|0,1:0|0:0,0:0:0:0:
80,196,182846,1,0,1:0:0:0:
80,196,183074,2,0,L|136:168,1,50
348,224,183301,6,0,B|439:158|312:109|433:35,1,225.000008583069,0|0,1:0|0:0,0:0:0:0:
488,252,183756,1,0,1:0:0:0:
256,200,183983,1,0,0:0:0:0:
269,248,184096,1,0,0:0:0:0:
282,296,184210,1,0,1:0:0:0:
459,132,184437,1,0,0:0:0:0:
445,83,184551,1,0,0:0:0:0:
432,35,184665,1,0,1:0:0:0:
256,200,184892,5,0,0:0:0:0:
212,224,185005,1,0,0:0:0:0:
170,251,185119,1,0,1:0:0:0:
8,88,185346,1,0,0:0:0:0:
56,100,185460,1,0,0:0:0:0:
105,112,185574,1,0,1:0:0:0:
332,168,185801,5,0,0:0:0:0:
357,210,185915,1,0,0:0:0:0:
383,253,186028,2,0,B|392:337|491:265|489:393,1,150,0|0,1:0|0:0,0:0:0:0:
256,316,186483,1,0,1:0:0:0:
383,253,186710,1,0,0:0:0:0:
140,200,186937,5,0,1:0:0:0:
360,136,187165,1,0,0:0:0:0:
408,120,187278,1,0,0:0:0:0:
455,105,187392,1,0,1:0:0:0:
256,288,187619,1,0,0:0:0:0:
208,300,187733,1,0,0:0:0:0:
159,312,187846,1,0,1:0:0:0:
56,152,188074,5,0,0:0:0:0:
78,123,188188,1,0,0:0:0:0:
100,152,188301,1,0,1:0:0:0:
176,80,188528,1,0,0:0:0:0:
56,152,188756,5,0,1:0:0:0:
56,202,188869,1,0,0:0:0:0:
128,236,188983,1,0,0:0:0:0:
128,286,189096,1,0,0:0:0:0:
248,264,189210,1,0,1:0:0:0:
248,264,189437,5,0,0:0:0:0:
296,260,189551,1,0,0:0:0:0:
416,316,189665,1,0,1:0:0:0:
438,271,189778,1,0,0:0:0:0:
388,208,189892,1,0,0:0:0:0:
379,159,190006,1,0,0:0:0:0:
460,64,190119,1,0,1:0:0:0:
460,64,190346,6,0,L|396:80,1,50
288,104,190574,1,0,1:0:0:0:
285,153,190687,1,0,0:0:0:0:
272,228,190801,1,0,0:0:0:0:
226,246,190915,1,0,0:0:0:0:
100,224,191028,1,0,1:0:0:0:
100,224,191256,5,0,0:0:0:0:
76,266,191369,1,0,0:0:0:0:
24,156,191482,1,0,1:0:0:0:
14,107,191596,1,0,0:0:0:0:
80,64,191711,1,0,0:0:0:0:
129,56,191824,1,0,0:0:0:0:
256,56,191937,1,0,1:0:0:0:
224,208,192165,6,0,L|172:240,1,50
280,320,192392,1,0,1:0:0:0:
318,350,192506,1,0,0:0:0:0:
360,284,192619,1,0,0:0:0:0:
401,257,192733,1,0,0:0:0:0:
488,344,192846,1,0,1:0:0:0:
488,344,193074,6,0,L|488:284,1,50
484,164,193301,2,0,L|476:104,1,50,0|0,1:0|0:0,0:0:0:0:
388,52,193528,2,0,L|381:101,1,50
352,228,193756,1,0,1:0:0:0:
352,228,193983,5,0,0:0:0:0:
355,277,194096,1,0,0:0:0:0:
248,336,194210,1,0,1:0:0:0:
200,350,194324,1,0,0:0:0:0:
124,328,194438,1,0,0:0:0:0:
84,298,194552,1,0,0:0:0:0:
12,192,194665,1,0,1:0:0:0:
12,192,194892,5,0,0:0:0:0:
44,156,195005,1,0,0:0:0:0:
120,56,195119,1,0,1:0:0:0:
152,93,195232,1,0,0:0:0:0:
124,168,195346,1,0,0:0:0:0:
156,205,195459,1,0,0:0:0:0:
252,116,195574,1,0,1:0:0:0:
252,116,195801,6,0,L|292:146,1,50
408,212,196028,1,0,1:0:0:0:
406,260,196142,1,0,0:0:0:0:
332,272,196256,1,0,0:0:0:0:
324,321,196370,1,0,0:0:0:0:
200,340,196483,1,0,1:0:0:0:
200,340,196710,5,0,0:0:0:0:
151,344,196824,1,0,0:0:0:0:
36,296,196937,1,0,1:0:0:0:
35,245,197051,1,0,0:0:0:0:
88,188,197165,1,0,0:0:0:0:
112,144,197278,1,0,0:0:0:0:
40,40,197392,1,0,1:0:0:0:
40,40,197619,5,0,0:0:0:0:
90,40,197733,1,0,0:0:0:0:
216,72,197846,1,0,1:0:0:0:
263,89,197959,1,0,0:0:0:0:
312,148,198074,1,0,0:0:0:0:
265,165,198187,1,0,0:0:0:0:
164,248,198301,1,0,1:0:0:0:
164,248,198528,5,0,0:0:0:0:
119,202,198641,1,0,0:0:0:0:
116,76,198755,1,0,1:0:0:0:
154,25,198868,1,0,0:0:0:0:
193,101,198983,1,0,0:0:0:0:
258,101,199096,1,0,0:0:0:0:
392,100,199210,1,0,1:0:0:0:
392,100,199437,5,0,0:0:0:0:
397,165,199550,1,0,0:0:0:0:
272,184,199665,1,0,1:0:0:0:
278,249,199778,1,0,0:0:0:0:
213,272,199892,1,0,0:0:0:0:
218,337,200005,1,0,0:0:0:0:
96,360,200119,1,0,1:0:0:0:
96,360,200346,5,0,0:0:0:0:
36,334,200459,1,0,0:0:0:0:
32,208,200573,1,0,1:0:0:0:
69,158,200686,1,0,0:0:0:0:
180,176,200801,1,0,0:0:0:0:
215,111,200914,1,0,0:0:0:0:
88,40,201028,1,0,1:0:0:0:
88,40,201256,5,0,0:0:0:0:
138,97,201369,1,0,0:0:0:0:
112,224,201483,1,0,1:0:0:0:
115,297,201596,1,0,0:0:0:0:
208,284,201710,1,0,0:0:0:0:
281,297,201823,1,0,0:0:0:0:
428,324,201937,1,0,1:0:0:0:
428,324,202165,5,0,0:0:0:0:
485,254,202278,1,0,0:0:0:0:
352,160,202392,1,0,1:0:0:0:
278,110,202505,1,0,0:0:0:0:
192,208,202619,1,0,0:0:0:0:
135,276,202732,1,0,0:0:0:0:
281,297,202846,1,0,1:0:0:0:
42,258,203074,5,0,0:0:0:0:
106,199,203188,1,0,0:0:0:0:
192,208,203301,1,0,0:0:0:0:
136,80,203528,5,0,0:0:0:0:
136,80,203642,1,0,0:0:0:0:
136,80,203756,1,0,0:0:0:0:
216,328,203983,1,0,0:0:0:0:
20,256,204210,1,0,0:0:0:0:
244,188,204437,1,0,0:0:0:0:
244,188,204551,1,0,0:0:0:0:
244,188,204665,1,0,0:0:0:0:
44,80,204892,1,0,0:0:0:0:
300,72,205119,5,0,1:0:0:0:
176,124,205346,1,0,0:0:0:0:
176,124,205460,1,0,0:0:0:0:
180,256,205687,1,0,0:0:0:0:
308,200,205915,1,0,0:0:0:0:
308,200,206028,2,0,P|348:292|316:280,1,179.999994506836,0|0,1:0|0:0,0:0:0:0:
180,256,206483,2,0,L|80:180,1,75.0000028610231
280,296,206710,2,0,L|220:340,1,75.0000028610231
40,344,206937,6,0,P|36:308|40:268,1,75.0000028610231
96,92,207165,1,0,0:0:0:0:
96,92,207278,1,0,0:0:0:0:
172,100,207392,1,0,1:0:0:0:
172,100,207619,2,0,L|208:188,1,75.0000028610231,0|0,0:0|0:0,0:0:0:0:
276,24,207846,2,0,B|364:52|364:52|380:120,1,150.000005722046,0|0,1:0|0:0,0:0:0:0:
272,220,208301,1,0,0:0:0:0:
432,192,208528,1,0,0:0:0:0:
200,169,208756,6,0,P|188:217|200:276,1,100,0|0,1:0|0:0,0:0:0:0:
200,296,209096,1,0,0:0:0:0:
340,220,209324,1,0,0:0:0:0:
388,192,209437,1,0,0:0:0:0:
436,164,209551,1,0,0:0:0:0:
344,124,209665,2,0,L|248:92,1,100,0|0,1:0|0:0,0:0:0:0:
70,96,210119,2,0,L|160:52,1,100
428,144,210574,6,0,L|480:64,1,75.0000028610231
368,36,210801,1,0,0:0:0:0:
312,36,210915,1,0,0:0:0:0:
211,81,211028,2,0,L|252:144,1,75.0000028610231,0|0,1:0|0:0,0:0:0:0:
356,248,211256,1,0,0:0:0:0:
346,294,211369,1,0,0:0:0:0:
256,328,211483,2,0,L|123:282,1,100,0|0,1:0|0:0,0:0:0:0:
64,224,211937,1,0,0:0:0:0:
244,192,212165,1,0,0:0:0:0:
64,96,212392,6,0,B|104:44|104:44|116:100|188:40|216:116|216:116|268:44,1,300,0|0,1:0|0:0,0:0:0:0:
476,104,213301,1,0,1:0:0:0:
452,200,213528,2,0,L|492:280,1,75.0000028610231
420,355,213756,2,0,L|388:288,1,75.0000028610231
308,232,213983,2,0,L|275:164,1,75.0000028610231
244,320,214210,6,0,P|200:248|136:228,1,150.000005722046
100,232,214551,1,0,0:0:0:0:
124,328,214665,1,0,1:0:0:0:
12,268,214892,1,0,0:0:0:0:
160,344,215119,1,0,1:0:0:0:
100,232,215346,1,0,0:0:0:0:
212,160,215574,2,0,B|292:148|368:160,1,150.000005722046
464,304,216028,6,0,B|412:272|412:272|416:308|416:308|376:280|380:320|344:280|344:280|344:328|344:328|244:292|276:352|196:296|196:296|208:344|208:344|68:324|68:324,1,550,0|0,1:0|0:0,0:0:0:0:
76,228,217392,2,0,L|24:168,1,75.0000028610231
160,216,217619,2,0,L|212:144,1,75.0000028610231,0|0,0:0|0:0,0:0:0:0:
104,56,217846,5,0,0:0:0:0:
256,64,218074,1,0,0:0:0:0:
302,81,218187,1,0,0:0:0:0:
336,172,218301,1,0,1:0:0:0:
349,220,218414,1,0,0:0:0:0:
204,304,218756,1,0,1:0:0:0:
336,316,219210,1,0,0:0:0:0:
268,248,219437,1,0,0:0:0:0:
216,164,219665,5,0,1:0:0:0:
16,144,219892,1,4,1:0:0:0:
96,288,220006,2,0,L|96:332,2,25,0|0|0,1:0|1:0|1:0,1:0:0:0:
136,80,220346,1,0,1:0:0:0:
216,164,220574,2,0,L|256:156,4,25,0|0|0|0|0,1:0|1:0|1:0|1:0|1:0,1:0:0:0:
228,180,220915,5,4,3:0:0:0:
240,196,221028,5,4,3:0:0:0:
256,216,221142,5,4,3:0:0:0:
268,232,221256,5,4,3:0:0:0:
256,192,226028,12,0,235574,0:0:0:0:
256,276,236028,5,0,1:0:0:0:
171,192,236483,1,0,1:0:0:0:
256,107,236937,1,0,1:0:0:0:
340,192,237392,1,0,1:0:0:0:
207,324,237846,5,0,1:0:0:0:
123,143,238301,1,0,1:0:0:0:
304,59,238756,1,0,1:0:0:0:
388,240,239210,1,0,1:0:0:0:
136,312,239665,5,0,1:0:0:0:
136,71,240118,1,0,1:0:0:0:
376,72,240574,1,0,1:0:0:0:
375,312,241028,1,0,1:0:0:0:
70,278,241483,5,0,1:0:0:0:
169,6,241937,1,0,1:0:0:0:
441,105,242392,1,0,1:0:0:0:
342,377,242846,1,0,1:0:0:0:
40,128,243301,5,0,1:0:0:0:
92,36,243528,1,0,1:0:0:0:
136,132,243756,1,0,1:0:0:0:
188,40,243983,1,0,1:0:0:0:
236,136,244210,1,0,1:0:0:0:
288,44,244437,1,0,1:0:0:0:
340,136,244665,1,0,1:0:0:0:
288,44,244892,1,0,1:0:0:0:
472,32,245119,5,0,1:0:0:0:
472,140,245346,1,0,1:0:0:0:
476,240,245574,1,0,1:0:0:0:
476,352,245801,1,0,1:0:0:0:
396,292,246028,1,0,1:0:0:0:
320,224,246256,1,0,1:0:0:0:
248,152,246483,1,0,1:0:0:0:
320,224,246710,1,0,1:0:0:0:
64,48,246937,5,0,1:0:0:0:
61,97,247050,1,0,0:0:0:0:
77,144,247164,1,0,0:0:0:0:
109,182,247278,1,0,0:0:0:0:
68,284,247392,5,0,1:0:0:0:
109,311,247505,1,0,0:0:0:0:
158,319,247619,1,0,0:0:0:0:
206,308,247733,1,0,0:0:0:0:
216,200,247846,5,0,1:0:0:0:
240,156,247959,1,0,0:0:0:0:
277,123,248073,1,0,0:0:0:0:
322,102,248186,1,0,0:0:0:0:
324,208,248301,5,0,1:0:0:0:
324,258,248414,1,0,0:0:0:0:
324,308,248528,1,0,0:0:0:0:
324,358,248641,1,0,0:0:0:0:
424,280,248756,5,0,1:0:0:0:
453,211,248869,1,0,0:0:0:0:
451,137,248983,1,0,0:0:0:0:
420,69,249096,1,0,0:0:0:0:
352,144,249210,5,0,1:0:0:0:
326,214,249323,1,0,0:0:0:0:
275,268,249437,1,0,0:0:0:0:
206,297,249550,1,0,0:0:0:0:
108,268,249665,6,0,L|108:204,7,50,0|0|0|0|0|0|0|0,1:0|0:0|0:0|0:0|0:0|0:0|0:0|0:0,0:0:0:0:
136,128,250119,2,0,L|184:168,7,50,0|0|0|0|0|0|0|0,1:0|0:0|0:0|0:0|0:0|0:0|0:0|0:0,0:0:0:0:
232,52,250574,5,0,0:0:0:0:
284,208,250725,1,0,0:0:0:0:
388,112,250877,1,0,0:0:0:0:
396,232,251028,2,0,L|403:337,1,100,0|0,1:0|0:0,0:0:0:0:
304,288,251256,2,0,L|184:340,1,100,0|0,1:0|0:0,0:0:0:0:
184,236,251483,2,0,P|92:160|220:216,1,400,0|0,1:0|0:0,0:0:0:0:
168,165,252165,1,0,0:0:0:0:
400,84,252392,6,0,B|356:188|430:190|400:320,1,225.000008583069,0|0,1:0|0:0,0:0:0:0:
176,292,252846,1,0,1:0:0:0:
176,292,253074,6,0,L|116:264,1,50
24,72,253301,2,0,B|152:120|152:-8|260:76,1,225.000008583069,0|0,1:0|0:0,0:0:0:0:
436,160,253756,1,0,1:0:0:0:
436,160,253983,6,0,L|376:172,1,50
128,224,254210,2,0,P|64:160|160:160,1,225.000008583069,0|0,1:0|0:0,0:0:0:0:
320,248,254665,5,0,1:0:0:0:
468,148,254892,1,0,0:0:0:0:
497,110,255006,1,0,0:0:0:0:
484,64,255119,1,0,1:0:0:0:
304,164,255346,1,0,0:0:0:0:
290,209,255459,1,0,0:0:0:0:
320,248,255574,1,0,1:0:0:0:
484,64,255801,5,0,0:0:0:0:
436,53,255915,1,0,0:0:0:0:
390,69,256028,1,0,1:0:0:0:
225,252,256256,1,0,0:0:0:0:
273,263,256370,1,0,0:0:0:0:
320,248,256483,1,0,1:0:0:0:
160,136,256710,6,0,L|104:100,1,50
256,24,256937,1,0,1:0:0:0:
352,136,257165,6,0,L|408:100,1,50
256,24,257392,1,0,1:0:0:0:
117,108,257619,6,0,L|61:144,1,50
213,220,257846,1,0,1:0:0:0:
378,297,258074,5,0,0:0:0:0:
347,334,258188,1,0,0:0:0:0:
300,328,258301,1,0,1:0:0:0:
344,144,258529,5,0,0:0:0:0:
375,107,258643,1,0,0:0:0:0:
422,113,258756,1,0,1:0:0:0:
187,240,258983,1,0,0:0:0:0:
152,208,259096,1,0,0:0:0:0:
162,160,259210,1,0,1:0:0:0:
296,80,259437,1,0,0:0:0:0:
367,290,259665,6,0,B|319:274|303:242|303:242|287:306|287:306|271:274|207:290,1,225.000008583069,0|0,1:0|0:0,0:0:0:0:
52,60,260119,1,0,1:0:0:0:
52,60,260346,2,0,L|108:60,1,50
369,141,260574,2,0,B|382:193|350:209|350:209|414:225|414:225|382:241|366:289,1,225.000008583069,0|0,1:0|0:0,0:0:0:0:
140,320,261028,1,0,1:0:0:0:
140,320,261256,6,0,L|60:292,1,50
366,289,261483,2,0,B|373:232|349:193|349:193|392:134|392:134|380:100|389:81,1,225.000008583069,0|0,1:0|0:0,0:0:0:0:
176,124,261936,1,0,1:0:0:0:
296,240,262165,1,0,0:0:0:0:
296,290,262278,1,0,0:0:0:0:
296,340,262391,1,0,1:0:0:0:
176,224,262619,1,0,0:0:0:0:
176,174,262732,1,0,0:0:0:0:
176,124,262845,1,0,1:0:0:0:
296,340,263074,6,0,L|240:388,1,50
92,336,263300,1,0,1:0:0:0:
32,144,263528,6,0,L|88:96,1,50
236,148,263754,1,0,1:0:0:0:
236,148,263983,1,0,0:0:0:0:
281,168,264096,1,0,0:0:0:0:
326,189,264209,1,0,1:0:0:0:
422,46,264437,1,0,0:0:0:0:
377,67,264550,1,0,0:0:0:0:
332,88,264663,1,0,1:0:0:0:
116,136,264892,5,0,0:0:0:0:
144,176,265005,1,0,0:0:0:0:
172,217,265118,1,0,1:0:0:0:
320,292,265346,1,0,0:0:0:0:
348,251,265460,1,0,0:0:0:0:
376,211,265572,1,0,1:0:0:0:
256,172,265801,6,0,L|256:88,1,50
112,48,266027,1,0,1:0:0:0:
256,172,266256,6,0,L|256:256,1,50
112,296,266482,1,0,1:0:0:0:
128,144,266710,1,0,0:0:0:0:
284,332,266936,5,0,1:0:0:0:
333,333,267050,1,0,0:0:0:0:
344,256,267164,1,0,0:0:0:0:
374,217,267277,1,0,0:0:0:0:
384,124,267390,1,0,1:0:0:0:
384,124,267619,6,0,L|356:64,1,50
284,80,267845,1,0,1:0:0:0:
240,104,267959,1,0,0:0:0:0:
192,44,268074,1,0,0:0:0:0:
148,68,268188,1,0,0:0:0:0:
152,168,268300,1,0,1:0:0:0:
152,168,268528,6,0,L|100:160,1,50
4,160,268755,1,0,1:0:0:0:
26,204,268869,1,0,0:0:0:0:
28,280,268983,1,0,0:0:0:0:
72,303,269096,1,0,0:0:0:0:
160,260,269210,1,0,1:0:0:0:
160,260,269437,5,0,0:0:0:0:
175,308,269550,1,0,0:0:0:0:
240,228,269665,1,0,1:0:0:0:
257,181,269778,1,0,0:0:0:0:
320,220,269892,1,0,0:0:0:0:
341,265,270005,1,0,0:0:0:0:
412,336,270119,1,0,1:0:0:0:
412,336,270346,5,0,0:0:0:0:
419,286,270459,1,0,0:0:0:0:
432,184,270574,1,0,1:0:0:0:
398,147,270687,1,0,0:0:0:0:
344,96,270801,1,0,0:0:0:0:
310,59,270914,1,0,0:0:0:0:
216,32,271028,1,0,1:0:0:0:
216,32,271256,5,0,0:0:0:0:
196,76,271369,1,0,0:0:0:0:
100,84,271483,1,0,1:0:0:0:
97,133,271596,1,0,0:0:0:0:
168,160,271710,1,0,0:0:0:0:
171,209,271823,1,0,0:0:0:0:
112,280,271937,1,0,1:0:0:0:
112,280,272165,5,0,0:0:0:0:
159,294,272278,1,0,0:0:0:0:
256,328,272392,1,0,1:0:0:0:
256,278,272505,1,0,0:0:0:0:
332,272,272619,1,0,0:0:0:0:
332,222,272732,1,0,0:0:0:0:
248,168,272846,1,0,1:0:0:0:
248,168,273074,5,0,0:0:0:0:
291,144,273187,1,0,0:0:0:0:
392,144,273301,1,0,1:0:0:0:
438,163,273414,1,0,0:0:0:0:
480,224,273528,1,0,0:0:0:0:
450,264,273641,1,0,0:0:0:0:
376,328,273755,1,0,1:0:0:0:
376,328,273983,6,0,L|328:288,1,50
248,240,274210,1,0,1:0:0:0:
196,240,274323,1,0,0:0:0:0:
120,224,274437,1,0,0:0:0:0:
122,273,274550,1,0,0:0:0:0:
220,316,274664,1,0,1:0:0:0:
220,316,274892,5,0,0:0:0:0:
255,352,275006,1,0,0:0:0:0:
344,312,275119,1,0,1:0:0:0:
380,276,275232,1,0,0:0:0:0:
384,204,275346,1,0,0:0:0:0:
384,154,275459,1,0,0:0:0:0:
380,60,275573,1,0,1:0:0:0:
380,60,275801,5,0,0:0:0:0:
332,47,275914,1,0,0:0:0:0:
240,44,276028,1,0,1:0:0:0:
192,57,276141,1,0,0:0:0:0:
184,136,276255,1,0,0:0:0:0:
138,156,276369,1,0,0:0:0:0:
76,240,276483,1,0,1:0:0:0:
76,240,276710,5,0,0:0:0:0:
113,273,276823,1,0,0:0:0:0:
212,280,276937,1,0,1:0:0:0:
262,273,277050,1,0,0:0:0:0:
328,244,277165,2,0,L|372:208,1,50
440,144,277392,1,0,1:0:0:0:
440,144,277619,5,0,0:0:0:0:
440,76,277733,1,0,0:0:0:0:
344,76,277846,1,0,1:0:0:0:
344,144,277960,1,0,0:0:0:0:
288,200,278074,1,0,0:0:0:0:
232,240,278187,1,0,0:0:0:0:
316,288,278301,1,0,1:0:0:0:
316,288,278528,5,0,0:0:0:0:
384,255,278641,1,0,0:0:0:0:
288,200,278756,1,0,1:0:0:0:
221,164,278869,1,0,0:0:0:0:
148,128,278983,1,0,0:0:0:0:
199,67,279096,1,0,0:0:0:0:
300,44,279209,1,0,1:0:0:0:
300,44,279437,5,0,0:0:0:0:
338,107,279550,1,0,0:0:0:0:
288,200,279664,1,0,1:0:0:0:
242,257,279777,1,0,0:0:0:0:
148,291,279892,1,0,0:0:0:0:
208,332,280005,1,0,0:0:0:0:
148,184,280119,1,0,1:0:0:0:
148,184,280346,5,0,0:0:0:0:
48,184,280459,1,0,0:0:0:0:
48,56,280573,1,0,1:0:0:0:
148,56,280686,1,0,0:0:0:0:
220,120,280800,1,0,0:0:0:0:
272,32,280915,1,0,0:0:0:0:
340,164,281028,1,0,1:0:0:0:
272,32,281256,5,0,0:0:0:0:
380,64,281369,1,0,0:0:0:0:
340,164,281483,1,0,0:0:0:0:
196,316,281710,1,0,0:0:0:0:
80,72,281937,1,0,0:0:0:0:
280,104,282165,1,0,0:0:0:0:
96,256,282392,1,0,0:0:0:0:
336,312,282619,1,0,0:0:0:0:
344,56,282846,1,0,0:0:0:0:
192,308,283074,1,0,0:0:0:0:
456,232,283301,5,0,1:0:0:0:
288,200,283528,1,0,0:0:0:0:
239,188,283641,1,0,0:0:0:0:
190,177,283755,1,0,1:0:0:0:
24,104,283983,1,0,0:0:0:0:
70,83,284096,1,0,0:0:0:0:
116,63,284210,1,0,1:0:0:0:
280,60,284437,1,0,0:0:0:0:
188,264,284665,1,0,1:0:0:0:
360,236,284892,1,0,0:0:0:0:
172,120,285119,6,0,P|128:148|112:212,1,100,0|0,1:0|0:0,0:0:0:0:
256,360,285574,1,0,1:0:0:0:
300,296,285801,1,0,0:0:0:0:
300,296,285915,1,0,0:0:0:0:
300,296,286028,1,0,1:0:0:0:
176,180,286256,1,0,0:0:0:0:
376,64,286483,1,0,1:0:0:0:
216,20,286710,1,0,0:0:0:0:
264,192,286937,6,0,B|296:238|334:216|334:216|309:283|309:283|346:277|396:296,1,225.000008583069,0|0,1:0|0:0,0:0:0:0:
492,128,287392,1,0,1:0:0:0:
376,64,287619,1,0,0:0:0:0:
256,216,287846,2,0,P|164:204|264:196,1,300.000011444092,0|0,1:0|0:0,0:0:0:0:
444,252,288301,1,0,1:0:0:0:
344,160,288528,1,0,0:0:0:0:
344,160,288642,1,0,0:0:0:0:
344,160,288756,1,0,1:0:0:0:
116,164,288983,5,0,0:0:0:0:
71,184,289096,1,0,0:0:0:0:
52,276,289210,1,0,1:0:0:0:
59,325,289323,1,0,0:0:0:0:
184,340,289551,1,0,0:0:0:0:
204,248,289665,1,0,1:0:0:0:
204,248,289892,1,0,0:0:0:0:
392,300,290119,1,0,1:0:0:0:
272,320,290346,1,0,0:0:0:0:
320,48,290574,6,0,B|355:161|442:57|483:232,1,225.000008583069,0|0,1:0|0:0,0:0:0:0:
256,220,291028,1,0,1:0:0:0:
376,188,291256,1,0,0:0:0:0:
256,352,291483,2,0,B|240:338|203:342|203:342|157:285|157:285|114:299|60:278,1,225.000008583069,0|0,1:0|0:0,0:0:0:0:
256,220,291937,1,0,1:0:0:0:
256,220,292165,1,0,0:0:0:0:
56,52,292392,1,0,1:0:0:0:
204,36,292619,5,0,0:0:0:0:
251,50,292732,1,0,0:0:0:0:
188,128,292846,1,0,1:0:0:0:
199,176,292959,1,0,0:0:0:0:
199,229,293073,1,0,0:0:0:0:
163,263,293187,1,0,0:0:0:0:
72,284,293301,1,0,1:0:0:0:
72,284,293528,1,0,0:0:0:0:
188,128,293756,1,0,1:0:0:0:
64,168,293983,1,0,0:0:0:0:
188,128,294210,6,0,B|248:168|268:32|268:32|372:88|372:88|316:152|364:216|364:216|304:248|332:320|332:320|380:356|436:332|476:264|428:196|428:196,1,750,0|0,1:0|0:0,0:0:0:0:
460,100,296028,1,0,1:0:0:0:
280,204,296256,5,0,0:0:0:0:
243,236,296369,1,0,0:0:0:0:
194,246,296483,1,0,1:0:0:0:
108,168,296710,1,0,0:0:0:0:
100,119,296823,1,0,0:0:0:0:
164,44,296937,1,0,1:0:0:0:
210,26,297050,1,0,0:0:0:0:
257,42,297165,1,0,0:0:0:0:
108,168,297392,1,0,1:0:0:0:
108,168,297619,1,0,0:0:0:0:
328,64,297846,6,0,L|404:144,1,100,0|0,1:0|0:0,0:0:0:0:
452,152,298187,1,0,0:0:0:0:
396,224,298301,1,0,1:0:0:0:
340,316,298528,1,0,0:0:0:0:
290,313,298641,1,0,0:0:0:0:
247,288,298756,2,0,L|156:224,1,100,0|0,1:0|0:0,0:0:0:0:
128,200,299096,1,0,0:0:0:0:
97,161,299209,1,0,1:0:0:0:
106,114,299323,1,0,0:0:0:0:
147,88,299437,2,0,L|208:56,1,50,0|0,0:0|0:0,0:0:0:0:
216,124,299665,6,0,L|272:92,1,50,0|0,1:0|0:0,0:0:0:0:
288,160,299892,2,0,L|336:132,2,50,0|0|0,1:0|1:0|1:0,1:0:0:0:
164,232,300346,2,0,P|188:292|272:316,1,150
356,248,300801,2,0,P|404:196|396:96,1,150,0|0,0:0|0:0,0:0:0:0:
312,44,301256,1,0,0:0:0:0:
100,52,301483,5,0,1:0:0:0:
118,97,301596,1,0,0:0:0:0:
161,120,301710,1,0,0:0:0:0:
80,124,301824,5,0,0:0:0:0:
107,163,301937,1,0,1:0:0:0:
154,176,302051,1,0,0:0:0:0:
119,215,302165,5,0,0:0:0:0:
179,237,302278,1,0,0:0:0:0:
243,232,302392,1,0,1:0:0:0:
299,201,302505,1,0,0:0:0:0:
337,148,302619,2,0,L|380:88,1,64.9999970245363,0|0,0:0|0:0,0:0:0:0:
460,96,302846,6,0,L|492:172,1,64.9999970245363,0|0,1:0|0:0,0:0:0:0:
476,216,303074,1,0,0:0:0:0:
450,258,303187,1,0,0:0:0:0:
408,296,303301,2,0,L|324:328,1,50,0|0,1:0|0:0,0:0:0:0:
304,316,303528,1,0,0:0:0:0:
256,288,303642,2,0,L|200:260,1,50,0|0,0:0|1:0,0:0:0:0:
128,216,303869,2,0,L|148:144,1,50
48,112,304096,6,0,P|88:64|196:68,1,150
368,116,304665,1,0,1:0:0:0:
204,180,304892,1,0,0:0:0:0:
464,260,305119,5,0,1:0:0:0:
424,290,305232,1,0,0:0:0:0:
385,321,305346,2,0,L|323:359,1,50,0|0,0:0|0:0,0:0:0:0:
316,252,305574,1,0,1:0:0:0:
276,282,305687,1,0,0:0:0:0:
237,313,305801,2,0,L|175:351,1,50,0|0,0:0|0:0,0:0:0:0:
200,212,306028,1,0,1:0:0:0:
160,242,306141,1,0,0:0:0:0:
121,273,306255,2,0,L|59:311,1,50,0|0,0:0|0:0,0:0:0:0:
132,148,306483,5,0,1:0:0:0:
172,118,306596,1,0,0:0:0:0:
211,87,306710,2,0,L|253:60,1,50,0|0,0:0|0:0,0:0:0:0:
344,48,306937,5,0,1:0:0:0:
393,50,307050,1,0,0:0:0:0:
433,79,307164,1,0,0:0:0:0:
452,125,307277,1,0,0:0:0:0:
443,173,307392,2,0,L|352:208,1,50,0|0,1:0|0:0,0:0:0:0:
352,204,307619,1,0,0:0:0:0:
303,193,307732,1,0,0:0:0:0:
263,164,307846,1,0,1:0:0:0:
160,72,308074,1,0,0:0:0:0:
136,212,308301,2,0,L|188:268,2,50,0|0|0,1:0|0:0|0:0,0:0:0:0:
36,172,308756,6,0,P|24:256|84:340,1,150,0|0,1:0|0:0,0:0:0:0:
136,212,309210,1,0,1:0:0:0:
188,316,309437,2,0,P|256:320|312:256,1,150
316,160,309892,1,0,0:0:0:0:
216,116,310119,2,0,P|240:72|304:48,1,100,0|0,1:0|0:0,0:0:0:0:
420,48,310574,1,0,1:0:0:0:
428,168,310801,2,0,L|428:252,1,50
428,272,311028,1,0,1:0:0:0:
328,312,311256,6,0,L|396:288,1,50
416,264,311483,1,0,1:0:0:0:
367,239,311596,1,0,0:0:0:0:
322,215,311709,1,0,0:0:0:0:
278,192,311823,1,0,0:0:0:0:
212,256,311937,1,0,1:0:0:0:
171,228,312050,1,0,0:0:0:0:
155,181,312164,1,0,0:0:0:0:
171,134,312277,1,0,0:0:0:0:
211,106,312391,1,0,1:0:0:0:
256,192,312506,12,0,316028,0:0:0:0:
