osu file format v14

[General]
AudioFilename: call me shannon.mp3
AudioLeadIn: 0
PreviewTime: 166324
Countdown: 0
SampleSet: Normal
StackLeniency: 0.2
Mode: 1
LetterboxInBreaks: 0
WidescreenStoryboard: 0

[Editor]
DistanceSpacing: 0.5
BeatDivisor: 4
GridSize: 32
TimelineZoom: 3.499998

[Metadata]
Title:Perfect Free
TitleUnicode:Perfect Free
Artist:Chitose Haru & Kumagai Eri
ArtistUnicode:千歳ハル&熊谷絵里
Creator:Nwolf
Version:Oni
Source:音楽少女
Tags:Nwolf 沼倉愛美 numakura manami 瀬戸麻沙美 seto asami ongaku shoujo taishi cosmic record ending electro muster electro.muster GWAVE dnb drum and bass drumstep anime
BeatmapID:1164010
BeatmapSetID:549700

[Difficulty]
HPDrainRate:5
CircleSize:4
OverallDifficulty:6
ApproachRate:9
SliderMultiplier:1.4
SliderTickRate:1

[Events]
//Background and Video events
0,0,"loading.jpg",0,45
//Break Periods
//Storyboard Layer 0 (Background)
//Storyboard Layer 1 (Fail)
//Storyboard Layer 2 (Pass)
//Storyboard Layer 3 (Foreground)
//Storyboard Sound Samples

[TimingPoints]
1156,337.078651685393,4,1,0,75,1,0
10594,-133.333333333333,4,1,0,75,0,0
14302,-100,4,1,0,90,0,0
17504,-133.333333333333,4,1,0,75,0,0
19863,-113.636363636364,4,1,0,90,0,0
21127,-100,4,1,0,90,0,0
22897,-108.695652173913,4,1,0,90,0,0
23234,-119.047619047619,4,1,0,75,0,0
23908,-133.333333333333,4,1,0,75,0,0
25257,-111.111111111111,4,1,0,75,0,0
28038,-100,4,1,0,80,0,0
29386,-95.2380952380952,4,1,0,80,0,0
30734,-90.9090909090909,4,1,0,80,0,0
32082,-86.9565217391304,4,1,0,80,0,0
33431,-83.3333333333333,4,1,0,100,0,0
33599,-111.111111111111,4,1,0,100,0,0
44049,-105.263157894737,4,1,0,100,0,0
44217,-100,4,1,0,100,0,0
55257,-133.333333333333,4,1,0,60,0,0
65790,-113.636363636364,4,1,0,80,0,0
71184,-111.111111111111,4,1,0,80,0,0
72363,-106.382978723404,4,1,0,80,0,0
73880,-100,4,1,0,80,0,0
74891,-97.0873786407767,4,1,0,80,0,0
75060,-92.5925925925926,4,1,0,80,0,0
75481,-111.111111111111,4,1,0,70,0,0
78009,-100,4,1,0,100,0,1
80622,-98.0392156862745,4,1,0,100,0,1
80959,-95.2380952380952,4,1,0,100,0,1
81296,-90.9090909090909,4,1,0,100,0,1
81633,-86.9565217391304,4,1,0,100,0,1
81802,-83.3333333333333,4,1,0,100,0,1
82139,-80,4,1,0,100,0,1
82307,-86.9565217391304,4,1,0,100,0,1
82476,-92.5925925925926,4,1,0,100,0,1
82644,-100,4,1,0,100,0,1
91408,-98.0392156862745,4,1,0,100,0,1
91745,-95.2380952380952,4,1,0,100,0,1
92082,-92.5925925925926,4,1,0,100,0,1
92251,-89.2857142857143,4,1,0,100,0,1
92420,-86.2068965517241,4,1,0,100,0,1
92588,-83.3333333333333,4,1,0,100,0,1
92925,-80,4,1,0,100,0,1
93094,-76.9230769230769,4,1,0,100,0,1
93262,-83.3333333333333,4,1,0,100,0,1
93515,-88.4955752212389,4,1,0,100,0,1
93599,-89.2857142857143,4,1,0,100,0,1
93684,-90.0900900900901,4,1,0,100,0,1
93768,-90.9090909090909,4,1,0,100,0,1
93852,-91.743119266055,4,1,0,100,0,1
94021,-93.4579439252336,4,1,0,100,0,1
94105,-100,4,1,0,100,0,1
98066,-100,4,1,0,100,0,0
110453,-125,4,1,0,60,0,0
122251,-100,4,1,0,90,0,0
122504,-100,4,1,0,100,0,1
132111,-86.9565217391304,4,1,0,100,0,1
133290,-100,4,1,0,100,0,0
144245,-133.333333333333,4,1,0,60,0,0
154526,-119.047619047619,4,1,0,70,0,0
154611,-113.636363636364,4,1,0,75,0,0
154695,-108.695652173913,4,1,0,80,0,0
154779,-104.166666666667,4,1,0,85,0,0
154863,-100,4,1,0,90,0,0
166998,-100,4,1,0,100,0,1
169611,-95.2380952380952,4,1,0,100,0,1
169948,-90.9090909090909,4,1,0,100,0,1
170285,-86.9565217391304,4,1,0,100,0,1
170622,-83.3333333333333,4,1,0,100,0,1
170959,-86.9565217391304,4,1,0,100,0,1
171296,-90.9090909090909,4,1,0,100,0,1
171464,-95.2380952380952,4,1,0,100,0,1
171633,-100,4,1,0,100,0,1
180481,-98.0392156862745,4,1,0,100,0,1
180650,-96.1538461538461,4,1,0,100,0,1
180818,-94.3396226415094,4,1,0,100,0,1
180903,-93.4579439252336,4,1,0,100,0,1
180987,-92.5925925925926,4,1,0,100,0,1
181155,-90.9090909090909,4,1,0,100,0,1
181240,-90.0900900900901,4,1,0,100,0,1
181324,-89.2857142857143,4,1,0,100,0,1
181493,-87.719298245614,4,1,0,100,0,1
181661,-86.2068965517241,4,1,0,100,0,1
181830,-84.7457627118644,4,1,0,100,0,1
181998,-83.3333333333333,4,1,0,100,0,1
182251,-86.9565217391304,4,1,0,100,0,1
182504,-90.9090909090909,4,1,0,100,0,1
182588,-91.743119266055,4,1,0,100,0,1
182672,-92.5925925925926,4,1,0,100,0,1
182757,-93.4579439252336,4,1,0,100,0,1
182841,-94.3396226415094,4,1,0,100,0,1
183094,-100,4,1,0,100,0,1
187054,-100,4,1,0,100,0,0
188655,-133.333333333333,4,1,0,50,0,0
191184,-100,4,1,0,90,0,0
202139,-125,4,1,0,60,0,0
214021,-125,4,1,0,70,0,0
235594,-100,4,1,0,80,0,0
258684,-100,4,1,0,100,0,1
278740,-100,4,1,0,100,0,0
281605,-100,4,1,0,100,0,1
284217,-94.3396226415094,4,1,0,100,0,1
284554,-89.2857142857143,4,1,0,100,0,1
284891,-84.7457627118644,4,1,0,100,0,1
285229,-80.6451612903226,4,1,0,100,0,1
285397,-76.9230769230769,4,1,0,100,0,1
285734,-73.5294117647059,4,1,0,100,0,1
285903,-77.5193798449612,4,1,0,100,0,1
286071,-81.9672131147541,4,1,0,100,0,1
286324,-86.9565217391304,4,1,0,100,0,1
286408,-87.719298245614,4,1,0,100,0,1
286493,-88.4955752212389,4,1,0,100,0,1
286577,-89.2857142857143,4,1,0,100,0,1
286661,-90.0900900900901,4,1,0,100,0,1
286830,-95.2380952380952,4,1,0,100,0,1
286914,-100,4,1,0,100,0,1
295004,-95.2380952380952,4,1,0,100,0,1
295341,-90.9090909090909,4,1,0,100,0,1
295678,-86.9565217391304,4,1,0,100,0,1
295847,-83.3333333333333,4,1,0,100,0,1
296015,-80,4,1,0,100,0,1
296184,-76.9230769230769,4,1,0,100,0,1
296521,-74.0740740740741,4,1,0,100,0,1
296858,-78.7401574803149,4,1,0,100,0,1
297111,-84.0336134453781,4,1,0,100,0,1
297195,-84.7457627118644,4,1,0,100,0,1
297279,-85.4700854700855,4,1,0,100,0,1
297363,-86.2068965517241,4,1,0,100,0,1
297448,-86.9565217391304,4,1,0,100,0,1
297616,-93.4579439252336,4,1,0,100,0,1
297700,-100,4,1,0,100,0,1
301661,-100,4,1,0,100,0,0
301914,-111.111111111111,4,1,0,60,0,0
303347,-133.333333333333,4,1,0,60,0,0
310425,-121.951219512195,4,1,0,70,0,0
310762,-111.111111111111,4,1,0,80,0,0
311015,-100,4,1,0,90,0,0
311268,-100,4,1,0,100,0,1
332841,-100,4,1,0,100,0,0
333009,-111.111111111111,4,1,0,60,0,0
333515,-125,4,1,0,60,0,0
343627,-125,4,1,0,70,0,0
343712,-125,4,1,0,50,0,0

[Colours]
Combo1 : 64,159,255
Combo2 : 158,140,196
Combo3 : 255,0,128
Combo4 : 238,202,147
Combo5 : 255,147,38
Combo6 : 176,210,205
Combo7 : 183,113,113
Combo8 : 255,162,255

[HitObjects]
224,160,11942,5,0,0:0:0:0:
224,160,12111,1,0,0:0:0:0:
224,160,12616,1,0,0:0:0:0:
224,160,12785,1,0,0:0:0:0:
288,160,13122,1,8,0:0:0:0:
288,160,13964,1,8,0:0:0:0:
288,160,14133,1,8,0:0:0:0:
288,160,14639,1,8,0:0:0:0:
288,160,14723,1,8,0:0:0:0:
288,160,14807,1,8,0:0:0:0:
288,160,15144,1,8,0:0:0:0:
224,160,15313,1,0,0:0:0:0:
224,160,15397,1,0,0:0:0:0:
224,160,15481,1,0,0:0:0:0:
288,160,15650,1,8,0:0:0:0:
288,160,15734,1,8,0:0:0:0:
224,160,15818,1,0,0:0:0:0:
224,160,15987,1,0,0:0:0:0:
288,160,16324,1,8,0:0:0:0:
224,160,16661,1,0,0:0:0:0:
288,160,16998,1,8,0:0:0:0:
288,160,17111,1,8,0:0:0:0:
288,160,17223,1,8,0:0:0:0:
224,224,17335,1,4,0:0:0:0:
288,160,17841,1,8,0:0:0:0:
224,160,18178,1,0,0:0:0:0:
224,160,18515,1,0,0:0:0:0:
288,160,18852,1,8,0:0:0:0:
288,160,19021,1,8,0:0:0:0:
288,160,19358,1,8,0:0:0:0:
288,160,19526,1,8,0:0:0:0:
224,224,20032,1,4,0:0:0:0:
224,160,20200,1,0,0:0:0:0:
288,160,20369,1,8,0:0:0:0:
224,160,20538,1,0,0:0:0:0:
288,160,20706,1,8,0:0:0:0:
288,160,20875,1,8,0:0:0:0:
288,160,21043,1,8,0:0:0:0:
224,224,21212,1,4,0:0:0:0:
288,160,21717,1,8,0:0:0:0:
288,160,21830,1,8,0:0:0:0:
288,160,21942,1,8,0:0:0:0:
224,160,22054,1,0,0:0:0:0:
288,160,22391,1,8,0:0:0:0:
288,160,22504,1,8,0:0:0:0:
288,160,22616,1,8,0:0:0:0:
224,224,22729,1,4,0:0:0:0:
224,160,23066,1,0,0:0:0:0:
224,160,23403,1,0,0:0:0:0:
288,160,23571,1,8,0:0:0:0:
224,160,23740,1,0,0:0:0:0:
224,160,24077,1,0,0:0:0:0:
288,160,24245,1,8,0:0:0:0:
224,160,24414,1,0,0:0:0:0:
288,160,24582,1,8,0:0:0:0:
288,160,24667,1,8,0:0:0:0:
288,160,24751,1,8,0:0:0:0:
288,160,24920,1,8,0:0:0:0:
224,160,25088,1,0,0:0:0:0:
224,160,25425,1,0,0:0:0:0:
224,160,25509,1,0,0:0:0:0:
288,160,25594,1,8,0:0:0:0:
288,160,25762,1,8,0:0:0:0:
224,160,25931,1,0,0:0:0:0:
288,160,26268,1,8,0:0:0:0:
288,160,26352,1,8,0:0:0:0:
288,160,26436,1,8,0:0:0:0:
224,160,26773,1,0,0:0:0:0:
288,160,27111,1,8,0:0:0:0:
224,160,27448,1,0,0:0:0:0:
288,160,27785,1,8,0:0:0:0:
288,160,27869,1,8,0:0:0:0:
288,160,27953,1,8,0:0:0:0:
288,224,28122,1,12,0:0:0:0:
224,160,28290,1,0,0:0:0:0:
288,160,28459,1,8,0:0:0:0:
224,160,28627,1,0,0:0:0:0:
288,160,28796,1,8,0:0:0:0:
288,160,28964,1,8,0:0:0:0:
224,160,29133,1,0,0:0:0:0:
288,160,29302,1,8,0:0:0:0:
224,224,29470,1,4,0:0:0:0:
224,160,29639,1,0,0:0:0:0:
288,160,29807,1,8,0:0:0:0:
288,160,29976,1,8,0:0:0:0:
224,160,30144,1,0,0:0:0:0:
224,160,30313,1,0,0:0:0:0:
288,160,30481,1,8,0:0:0:0:
224,160,30650,1,0,0:0:0:0:
288,224,30818,1,12,0:0:0:0:
288,160,30987,1,8,0:0:0:0:
224,160,31155,1,0,0:0:0:0:
224,160,31324,1,0,0:0:0:0:
288,160,31493,1,8,0:0:0:0:
288,160,31661,1,8,0:0:0:0:
224,160,31830,1,0,0:0:0:0:
288,160,31998,1,8,0:0:0:0:
288,224,32167,1,12,0:0:0:0:
288,160,32335,1,8,0:0:0:0:
224,160,32504,1,0,0:0:0:0:
224,160,32672,1,0,0:0:0:0:
224,160,32757,1,0,0:0:0:0:
224,160,32841,1,0,0:0:0:0:
224,160,32925,1,0,0:0:0:0:
224,160,33009,1,0,0:0:0:0:
288,160,33178,1,8,0:0:0:0:
224,160,33347,1,0,0:0:0:0:
224,224,33515,5,4,0:0:0:0:
224,160,34021,1,0,0:0:0:0:
288,160,34189,1,8,0:0:0:0:
288,160,34358,1,8,0:0:0:0:
288,160,34526,1,8,0:0:0:0:
224,160,34695,1,0,0:0:0:0:
224,160,35200,1,0,0:0:0:0:
288,160,35538,1,8,0:0:0:0:
288,160,35706,1,8,0:0:0:0:
288,160,35875,1,8,0:0:0:0:
224,160,36043,1,0,0:0:0:0:
224,160,36212,1,0,0:0:0:0:
224,160,36717,1,0,0:0:0:0:
288,160,36886,1,8,0:0:0:0:
288,160,37054,1,8,0:0:0:0:
288,160,37223,1,8,0:0:0:0:
224,160,37391,1,0,0:0:0:0:
224,160,37897,1,0,0:0:0:0:
224,160,38066,1,0,0:0:0:0:
288,160,38234,1,8,0:0:0:0:
224,160,38403,1,0,0:0:0:0:
224,160,38487,1,0,0:0:0:0:
288,160,38571,1,8,0:0:0:0:
288,160,38655,1,8,0:0:0:0:
224,160,38740,1,0,0:0:0:0:
224,224,38908,1,4,0:0:0:0:
224,160,39414,1,0,0:0:0:0:
288,160,39582,1,8,0:0:0:0:
288,160,39751,1,8,0:0:0:0:
288,160,39920,1,8,0:0:0:0:
224,160,40088,1,0,0:0:0:0:
224,160,40594,1,0,0:0:0:0:
288,160,40931,1,8,0:0:0:0:
288,160,41268,1,8,0:0:0:0:
224,160,41436,1,0,0:0:0:0:
224,224,41605,1,4,0:0:0:0:
288,160,41858,1,8,0:0:0:0:
224,160,42111,1,0,0:0:0:0:
288,160,42279,1,8,0:0:0:0:
224,160,42448,1,0,0:0:0:0:
288,160,42616,1,8,0:0:0:0:
288,224,42785,1,12,0:0:0:0:
288,160,43122,1,8,0:0:0:0:
288,160,43290,1,8,0:0:0:0:
288,160,43459,1,8,0:0:0:0:
224,160,44133,1,0,0:0:0:0:
224,224,44302,1,4,0:0:0:0:
288,160,44639,1,8,0:0:0:0:
224,160,44807,1,0,0:0:0:0:
288,160,44976,1,8,0:0:0:0:
288,160,45060,1,8,0:0:0:0:
288,160,45144,1,8,0:0:0:0:
288,160,45313,1,8,0:0:0:0:
224,160,45481,1,0,0:0:0:0:
224,160,45566,1,0,0:0:0:0:
224,160,45650,1,0,0:0:0:0:
224,160,45818,1,0,0:0:0:0:
288,160,45987,1,8,0:0:0:0:
224,160,46155,1,0,0:0:0:0:
288,160,46324,1,8,0:0:0:0:
288,160,46408,1,8,0:0:0:0:
224,160,46493,1,0,0:0:0:0:
288,160,46661,1,8,0:0:0:0:
288,160,46830,1,8,0:0:0:0:
224,160,46998,1,0,0:0:0:0:
288,160,47335,1,8,0:0:0:0:
224,160,47504,1,0,0:0:0:0:
288,160,47672,1,8,0:0:0:0:
288,160,47757,1,8,0:0:0:0:
288,160,47841,1,8,0:0:0:0:
288,160,48009,1,8,0:0:0:0:
224,160,48178,1,0,0:0:0:0:
224,160,48262,1,0,0:0:0:0:
224,160,48347,1,0,0:0:0:0:
288,160,48515,1,8,0:0:0:0:
288,160,48684,1,8,0:0:0:0:
288,160,48852,1,8,0:0:0:0:
288,160,48936,1,8,0:0:0:0:
224,160,49021,1,0,0:0:0:0:
224,160,49105,1,0,0:0:0:0:
224,160,49189,1,0,0:0:0:0:
288,160,49358,1,8,0:0:0:0:
224,160,49526,1,0,0:0:0:0:
224,224,49695,1,4,0:0:0:0:
288,160,50032,1,8,0:0:0:0:
224,160,50200,1,0,0:0:0:0:
288,160,50369,1,8,0:0:0:0:
288,160,50453,1,8,0:0:0:0:
288,160,50538,1,8,0:0:0:0:
288,160,50706,1,8,0:0:0:0:
224,160,50875,1,0,0:0:0:0:
224,160,50959,1,0,0:0:0:0:
224,160,51043,1,0,0:0:0:0:
224,160,51212,1,0,0:0:0:0:
288,160,51380,1,8,0:0:0:0:
224,160,51717,1,0,0:0:0:0:
288,160,51886,1,8,0:0:0:0:
224,160,51970,1,0,0:0:0:0:
288,160,52054,1,8,0:0:0:0:
224,160,52223,1,0,0:0:0:0:
224,160,52391,1,0,0:0:0:0:
224,160,52476,1,0,0:0:0:0:
224,160,52560,1,0,0:0:0:0:
288,160,52729,1,8,0:0:0:0:
224,160,52897,1,0,0:0:0:0:
224,160,53234,1,0,0:0:0:0:
224,160,53318,1,0,0:0:0:0:
288,160,53403,1,8,0:0:0:0:
288,160,53571,1,8,0:0:0:0:
224,160,53740,1,0,0:0:0:0:
224,160,53908,1,0,0:0:0:0:
224,160,53993,1,0,0:0:0:0:
288,160,54077,1,8,0:0:0:0:
288,160,54245,1,8,0:0:0:0:
288,160,54330,1,8,0:0:0:0:
288,160,54414,1,8,0:0:0:0:
224,160,54582,1,0,0:0:0:0:
224,160,54667,1,0,0:0:0:0:
288,160,54751,1,8,0:0:0:0:
288,160,54835,1,8,0:0:0:0:
288,160,54920,1,8,0:0:0:0:
224,224,55088,5,4,0:0:0:0:
224,160,55594,1,0,0:0:0:0:
288,160,56099,1,8,0:0:0:0:
224,160,56268,1,0,0:0:0:0:
288,160,56942,1,8,0:0:0:0:
224,160,57785,1,0,0:0:0:0:
288,160,58290,1,8,0:0:0:0:
224,160,58796,1,0,0:0:0:0:
224,160,58964,1,0,0:0:0:0:
224,160,60481,1,0,0:0:0:0:
224,160,60987,1,0,0:0:0:0:
288,160,61493,1,8,0:0:0:0:
224,160,61661,1,0,0:0:0:0:
288,160,62335,1,8,0:0:0:0:
288,160,62841,1,8,0:0:0:0:
288,160,63009,1,8,0:0:0:0:
224,160,63178,1,0,0:0:0:0:
288,160,64189,1,8,0:0:0:0:
224,160,64358,1,0,0:0:0:0:
224,160,64526,1,0,0:0:0:0:
32,64,64863,2,0,L|288:0,1,262.500010013581
224,224,65875,5,4,0:0:0:0:
224,160,66380,1,0,0:0:0:0:
288,160,66549,1,8,0:0:0:0:
288,160,66886,1,8,0:0:0:0:
224,160,67054,1,0,0:0:0:0:
224,160,67560,1,0,0:0:0:0:
288,160,67729,1,8,0:0:0:0:
288,160,67897,1,8,0:0:0:0:
224,160,68234,1,0,0:0:0:0:
224,160,68571,1,0,0:0:0:0:
224,160,69077,1,0,0:0:0:0:
288,160,69245,1,8,0:0:0:0:
224,160,69582,1,0,0:0:0:0:
224,160,69751,1,0,0:0:0:0:
288,160,70088,1,8,0:0:0:0:
224,160,70257,1,0,0:0:0:0:
224,160,70425,1,0,0:0:0:0:
288,160,70594,1,8,0:0:0:0:
224,160,70762,1,0,0:0:0:0:
288,160,70931,1,8,0:0:0:0:
288,160,71099,1,8,0:0:0:0:
224,224,71268,1,4,0:0:0:0:
224,160,71773,1,0,0:0:0:0:
288,160,71942,1,8,0:0:0:0:
288,160,72111,1,8,0:0:0:0:
288,160,72279,1,8,0:0:0:0:
224,224,72448,1,4,0:0:0:0:
224,160,72953,1,0,0:0:0:0:
288,160,73290,1,8,0:0:0:0:
288,160,73627,1,8,0:0:0:0:
288,160,73796,1,8,0:0:0:0:
224,224,73964,1,4,0:0:0:0:
288,160,74217,1,8,0:0:0:0:
224,160,74470,1,0,0:0:0:0:
288,160,74639,1,8,0:0:0:0:
224,160,74807,1,0,0:0:0:0:
288,160,74976,1,8,0:0:0:0:
288,224,75144,1,12,0:0:0:0:
288,160,75650,1,8,0:0:0:0:
288,160,76324,1,8,0:0:0:0:
288,160,76493,1,8,0:0:0:0:
224,160,77335,1,0,0:0:0:0:
288,160,77672,1,8,0:0:0:0:
288,224,78009,5,12,0:0:0:0:
224,160,78178,1,0,0:0:0:0:
288,160,78347,1,8,0:0:0:0:
224,224,78515,1,4,0:0:0:0:
224,160,78684,1,0,0:0:0:0:
288,224,79021,1,12,0:0:0:0:
224,160,79189,1,0,0:0:0:0:
288,160,79358,1,8,0:0:0:0:
224,224,79526,1,4,0:0:0:0:
288,160,79695,1,8,0:0:0:0:
288,160,80032,1,8,0:0:0:0:
288,160,80116,1,8,0:0:0:0:
224,160,80200,1,0,0:0:0:0:
224,160,80285,1,0,0:0:0:0:
288,160,80369,1,8,0:0:0:0:
224,160,80538,1,0,0:0:0:0:
288,224,80706,1,12,0:0:0:0:
224,160,80875,1,0,0:0:0:0:
288,224,81043,1,12,0:0:0:0:
288,224,81380,1,12,0:0:0:0:
224,160,81549,1,0,0:0:0:0:
288,224,81717,1,12,0:0:0:0:
288,224,81886,1,12,0:0:0:0:
288,224,82223,1,12,0:0:0:0:
288,160,82391,1,8,0:0:0:0:
288,160,82560,1,8,0:0:0:0:
224,160,82729,1,0,0:0:0:0:
224,160,82813,1,0,0:0:0:0:
224,160,82897,1,0,0:0:0:0:
224,160,82981,1,0,0:0:0:0:
288,160,83066,1,8,0:0:0:0:
224,160,83234,1,0,0:0:0:0:
288,224,83403,1,12,0:0:0:0:
224,160,83571,1,0,0:0:0:0:
288,160,83740,1,8,0:0:0:0:
224,224,83908,1,4,0:0:0:0:
224,160,84077,1,0,0:0:0:0:
288,224,84414,1,12,0:0:0:0:
224,160,84582,1,0,0:0:0:0:
288,160,84751,1,8,0:0:0:0:
224,224,84920,1,4,0:0:0:0:
288,160,85088,1,8,0:0:0:0:
288,160,85425,1,8,0:0:0:0:
288,160,85509,1,8,0:0:0:0:
224,160,85594,1,0,0:0:0:0:
224,160,85678,1,0,0:0:0:0:
288,160,85762,1,8,0:0:0:0:
224,160,85931,1,0,0:0:0:0:
288,160,86099,1,8,0:0:0:0:
288,160,86184,1,8,0:0:0:0:
224,160,86268,1,0,0:0:0:0:
288,160,86436,1,8,0:0:0:0:
224,160,86605,1,0,0:0:0:0:
288,160,86773,1,8,0:0:0:0:
288,160,86858,1,8,0:0:0:0:
224,160,86942,1,0,0:0:0:0:
288,160,87111,1,8,0:0:0:0:
288,160,87279,1,8,0:0:0:0:
224,160,87448,1,0,0:0:0:0:
224,160,87616,1,0,0:0:0:0:
224,160,87700,1,0,0:0:0:0:
288,160,87785,1,8,0:0:0:0:
224,160,87953,1,0,0:0:0:0:
288,160,88122,1,8,0:0:0:0:
288,160,88206,1,8,0:0:0:0:
224,160,88290,1,0,0:0:0:0:
224,160,88375,1,0,0:0:0:0:
288,160,88459,1,8,0:0:0:0:
288,224,88796,1,12,0:0:0:0:
224,160,88964,1,0,0:0:0:0:
288,160,89133,1,8,0:0:0:0:
224,224,89302,1,4,0:0:0:0:
224,160,89470,1,0,0:0:0:0:
288,224,89807,1,12,0:0:0:0:
224,160,89976,1,0,0:0:0:0:
288,160,90144,1,8,0:0:0:0:
224,224,90313,1,4,0:0:0:0:
288,160,90481,1,8,0:0:0:0:
288,160,90818,1,8,0:0:0:0:
288,160,90903,1,8,0:0:0:0:
224,160,90987,1,0,0:0:0:0:
224,160,91071,1,0,0:0:0:0:
288,160,91155,1,8,0:0:0:0:
224,160,91324,1,0,0:0:0:0:
288,224,91493,1,12,0:0:0:0:
224,160,91661,1,0,0:0:0:0:
288,224,91830,1,12,0:0:0:0:
288,224,92167,1,12,0:0:0:0:
288,224,92335,1,12,0:0:0:0:
288,224,92504,1,12,0:0:0:0:
288,224,92672,1,12,0:0:0:0:
288,224,93009,1,12,0:0:0:0:
288,224,93178,1,12,0:0:0:0:
224,160,93347,1,0,0:0:0:0:
288,160,93515,1,8,0:0:0:0:
288,160,93599,1,8,0:0:0:0:
224,160,93684,1,0,0:0:0:0:
224,160,93768,1,0,0:0:0:0:
288,160,93852,1,8,0:0:0:0:
288,160,94021,1,8,0:0:0:0:
224,224,94189,1,4,0:0:0:0:
224,160,94358,1,0,0:0:0:0:
288,160,94526,1,8,0:0:0:0:
224,224,94695,1,4,0:0:0:0:
224,160,94863,1,0,0:0:0:0:
288,224,95200,1,12,0:0:0:0:
224,160,95369,1,0,0:0:0:0:
224,160,95538,1,0,0:0:0:0:
288,224,95706,1,12,0:0:0:0:
288,160,95875,1,8,0:0:0:0:
288,160,96212,1,8,0:0:0:0:
288,160,96296,1,8,0:0:0:0:
224,160,96380,1,0,0:0:0:0:
288,160,96549,1,8,0:0:0:0:
224,160,96717,1,0,0:0:0:0:
224,224,96886,1,4,0:0:0:0:
224,160,97054,1,0,0:0:0:0:
224,160,97139,1,0,0:0:0:0:
288,160,97223,1,8,0:0:0:0:
288,160,97391,1,8,0:0:0:0:
224,160,97560,1,0,0:0:0:0:
224,160,97729,1,0,0:0:0:0:
288,160,97897,1,8,0:0:0:0:
224,224,98066,1,4,0:0:0:0:
288,160,98908,1,8,0:0:0:0:
288,160,99245,1,8,0:0:0:0:
288,160,99414,1,8,0:0:0:0:
224,224,99582,5,4,0:0:0:0:
288,160,99751,1,8,0:0:0:0:
288,160,99835,1,8,0:0:0:0:
288,160,99920,1,8,0:0:0:0:
224,160,100088,1,0,0:0:0:0:
288,160,100257,1,8,0:0:0:0:
288,160,100594,1,8,0:0:0:0:
224,160,100762,1,0,0:0:0:0:
224,160,100847,1,0,0:0:0:0:
224,160,100931,1,0,0:0:0:0:
288,160,101099,1,8,0:0:0:0:
288,160,101268,1,8,0:0:0:0:
224,160,101436,1,0,0:0:0:0:
224,160,101773,1,0,0:0:0:0:
288,160,101942,1,8,0:0:0:0:
288,160,102026,1,8,0:0:0:0:
288,160,102111,1,8,0:0:0:0:
224,160,102279,1,0,0:0:0:0:
288,160,102448,1,8,0:0:0:0:
224,160,102532,1,0,0:0:0:0:
288,160,102616,1,8,0:0:0:0:
224,160,102785,1,0,0:0:0:0:
288,160,102953,1,8,0:0:0:0:
224,160,103122,1,0,0:0:0:0:
288,160,103290,1,8,0:0:0:0:
224,160,103459,1,0,0:0:0:0:
224,160,103543,1,0,0:0:0:0:
224,160,103627,1,0,0:0:0:0:
224,160,103796,1,0,0:0:0:0:
288,160,103964,1,8,0:0:0:0:
288,160,104133,1,8,0:0:0:0:
288,160,104217,1,8,0:0:0:0:
224,160,104302,1,0,0:0:0:0:
224,160,104470,1,0,0:0:0:0:
288,160,104639,1,8,0:0:0:0:
224,224,104976,1,4,0:0:0:0:
224,160,105144,1,0,0:0:0:0:
224,160,105229,1,0,0:0:0:0:
288,160,105313,1,8,0:0:0:0:
224,160,105481,1,0,0:0:0:0:
288,160,105650,1,8,0:0:0:0:
288,160,105987,1,8,0:0:0:0:
224,160,106155,1,0,0:0:0:0:
224,160,106240,1,0,0:0:0:0:
224,160,106324,1,0,0:0:0:0:
288,160,106493,1,8,0:0:0:0:
288,160,106661,1,8,0:0:0:0:
224,160,106830,1,0,0:0:0:0:
224,160,107167,1,0,0:0:0:0:
224,160,107251,1,0,0:0:0:0:
288,160,107335,1,8,0:0:0:0:
224,160,107504,1,0,0:0:0:0:
288,160,107672,1,8,0:0:0:0:
224,160,107841,1,0,0:0:0:0:
288,160,108009,1,8,0:0:0:0:
224,160,108178,1,0,0:0:0:0:
224,160,108262,1,0,0:0:0:0:
224,160,108347,1,0,0:0:0:0:
224,160,108515,1,0,0:0:0:0:
288,160,108684,1,8,0:0:0:0:
288,160,108852,1,8,0:0:0:0:
224,160,109021,1,0,0:0:0:0:
224,160,109189,1,0,0:0:0:0:
224,160,109273,1,0,0:0:0:0:
288,160,109358,1,8,0:0:0:0:
224,160,109526,1,0,0:0:0:0:
224,160,109695,1,0,0:0:0:0:
224,160,109779,1,0,0:0:0:0:
288,160,109863,1,8,0:0:0:0:
288,160,110032,1,8,0:0:0:0:
288,160,110116,1,8,0:0:0:0:
288,160,110200,1,8,0:0:0:0:
224,224,110369,1,4,0:0:0:0:
288,160,110706,5,8,0:0:0:0:
288,160,111043,1,8,0:0:0:0:
224,160,111549,1,0,0:0:0:0:
288,160,111886,1,8,0:0:0:0:
288,160,112223,1,8,0:0:0:0:
224,160,113066,1,0,0:0:0:0:
288,160,113403,1,8,0:0:0:0:
288,160,113740,1,8,0:0:0:0:
224,160,114245,1,0,0:0:0:0:
288,160,114582,1,8,0:0:0:0:
288,160,114920,1,8,0:0:0:0:
224,160,115762,1,0,0:0:0:0:
288,160,116099,1,8,0:0:0:0:
288,160,116436,1,8,0:0:0:0:
224,160,116942,1,0,0:0:0:0:
288,160,117279,1,8,0:0:0:0:
288,160,117616,1,8,0:0:0:0:
224,160,118459,1,0,0:0:0:0:
288,160,118796,1,8,0:0:0:0:
288,160,119133,1,8,0:0:0:0:
224,160,119639,1,0,0:0:0:0:
288,160,119976,1,8,0:0:0:0:
288,160,120313,1,8,0:0:0:0:
288,160,122335,5,8,0:0:0:0:
224,224,122504,1,4,0:0:0:0:
224,160,122841,1,0,0:0:0:0:
224,160,123009,1,0,0:0:0:0:
224,160,123094,1,0,0:0:0:0:
288,160,123178,1,8,0:0:0:0:
224,160,123515,1,0,0:0:0:0:
288,224,123684,1,12,0:0:0:0:
288,160,124021,1,8,0:0:0:0:
288,160,124189,1,8,0:0:0:0:
224,160,124358,1,0,0:0:0:0:
224,160,124442,1,0,0:0:0:0:
288,160,124526,1,8,0:0:0:0:
288,160,124611,1,8,0:0:0:0:
224,160,124695,1,0,0:0:0:0:
288,160,124863,1,8,0:0:0:0:
224,160,125032,1,0,0:0:0:0:
288,224,125200,1,12,0:0:0:0:
224,160,125706,1,0,0:0:0:0:
224,160,125790,1,0,0:0:0:0:
288,160,125875,1,8,0:0:0:0:
288,160,126212,1,8,0:0:0:0:
224,224,126380,1,4,0:0:0:0:
224,160,126717,1,0,0:0:0:0:
288,160,126886,1,8,0:0:0:0:
224,160,127054,1,0,0:0:0:0:
224,160,127139,1,0,0:0:0:0:
288,160,127223,1,8,0:0:0:0:
288,160,127391,1,8,0:0:0:0:
224,160,127476,1,0,0:0:0:0:
288,160,127560,1,8,0:0:0:0:
288,160,127729,1,8,0:0:0:0:
224,160,127897,1,0,0:0:0:0:
288,224,128234,1,12,0:0:0:0:
224,160,128403,1,0,0:0:0:0:
224,160,128487,1,0,0:0:0:0:
288,160,128571,1,8,0:0:0:0:
224,160,128740,1,0,0:0:0:0:
224,160,128908,1,0,0:0:0:0:
288,224,129077,1,12,0:0:0:0:
288,160,129414,1,8,0:0:0:0:
288,160,129582,1,8,0:0:0:0:
224,160,129751,1,0,0:0:0:0:
224,160,129835,1,0,0:0:0:0:
288,160,129920,1,8,0:0:0:0:
224,160,130088,1,0,0:0:0:0:
224,160,130172,1,0,0:0:0:0:
224,160,130257,1,0,0:0:0:0:
288,160,130425,1,8,0:0:0:0:
224,224,130594,1,4,0:0:0:0:
288,160,130847,1,8,0:0:0:0:
224,160,131099,1,0,0:0:0:0:
224,160,131184,1,0,0:0:0:0:
288,160,131268,1,8,0:0:0:0:
288,160,131436,1,8,0:0:0:0:
224,160,131605,1,0,0:0:0:0:
288,224,131773,1,12,0:0:0:0:
288,224,132279,1,12,0:0:0:0:
288,224,132616,1,12,0:0:0:0:
288,224,132953,1,12,0:0:0:0:
224,224,133290,5,4,0:0:0:0:
288,160,133627,1,8,0:0:0:0:
224,160,133796,1,0,0:0:0:0:
288,160,133964,1,8,0:0:0:0:
288,160,134049,1,8,0:0:0:0:
224,160,134133,1,0,0:0:0:0:
288,160,134302,1,8,0:0:0:0:
224,160,134470,1,0,0:0:0:0:
224,160,134554,1,0,0:0:0:0:
224,160,134639,1,0,0:0:0:0:
224,160,134807,1,0,0:0:0:0:
288,160,134976,1,8,0:0:0:0:
224,160,135144,1,0,0:0:0:0:
288,160,135313,1,8,0:0:0:0:
288,160,135397,1,8,0:0:0:0:
224,160,135481,1,0,0:0:0:0:
288,160,135650,1,8,0:0:0:0:
224,160,135818,1,0,0:0:0:0:
224,160,135903,1,0,0:0:0:0:
224,160,135987,1,0,0:0:0:0:
288,160,136324,1,8,0:0:0:0:
224,160,136493,1,0,0:0:0:0:
288,160,136661,1,8,0:0:0:0:
288,160,136745,1,8,0:0:0:0:
224,160,136830,1,0,0:0:0:0:
288,160,136998,1,8,0:0:0:0:
224,160,137167,1,0,0:0:0:0:
288,160,137504,1,8,0:0:0:0:
288,160,137672,1,8,0:0:0:0:
288,160,137841,1,8,0:0:0:0:
224,160,138178,1,0,0:0:0:0:
288,160,138347,1,8,0:0:0:0:
224,160,138515,1,0,0:0:0:0:
224,224,138684,1,4,0:0:0:0:
288,224,139021,1,12,0:0:0:0:
224,160,139189,1,0,0:0:0:0:
288,160,139358,1,8,0:0:0:0:
288,160,139442,1,8,0:0:0:0:
224,160,139526,1,0,0:0:0:0:
288,160,139695,1,8,0:0:0:0:
224,160,139863,1,0,0:0:0:0:
224,160,139948,1,0,0:0:0:0:
224,160,140032,1,0,0:0:0:0:
224,160,140200,1,0,0:0:0:0:
288,160,140369,1,8,0:0:0:0:
224,160,140706,1,0,0:0:0:0:
288,160,140875,1,8,0:0:0:0:
288,160,140959,1,8,0:0:0:0:
288,160,141043,1,8,0:0:0:0:
288,160,141212,1,8,0:0:0:0:
224,160,141380,1,0,0:0:0:0:
256,192,141549,12,0,142054,0:0:0:0:
288,160,142223,5,8,0:0:0:0:
288,160,142391,1,8,0:0:0:0:
288,160,142560,1,8,0:0:0:0:
288,160,142897,1,8,0:0:0:0:
288,160,143066,1,8,0:0:0:0:
288,160,143234,1,8,0:0:0:0:
288,160,143571,1,8,0:0:0:0:
224,160,143740,1,0,0:0:0:0:
224,160,143824,1,0,0:0:0:0:
224,160,143908,1,0,0:0:0:0:
224,160,143993,1,0,0:0:0:0:
224,160,144077,5,0,0:0:0:0:
224,160,144582,1,0,0:0:0:0:
288,160,145088,1,8,0:0:0:0:
224,160,145257,1,0,0:0:0:0:
288,160,145931,1,8,0:0:0:0:
224,160,146773,1,0,0:0:0:0:
288,160,147279,1,8,0:0:0:0:
224,160,147785,1,0,0:0:0:0:
224,160,147953,1,0,0:0:0:0:
224,160,149470,1,0,0:0:0:0:
224,160,149976,1,0,0:0:0:0:
288,160,150481,1,8,0:0:0:0:
224,160,150650,1,0,0:0:0:0:
288,160,151324,1,8,0:0:0:0:
288,160,151830,1,8,0:0:0:0:
288,160,151998,1,8,0:0:0:0:
224,160,152167,1,0,0:0:0:0:
288,160,153178,1,8,0:0:0:0:
224,160,153347,1,0,0:0:0:0:
224,160,153515,1,0,0:0:0:0:
288,160,154526,1,8,0:0:0:0:
288,160,154611,1,8,0:0:0:0:
288,160,154695,1,8,0:0:0:0:
224,224,154863,1,4,0:0:0:0:
224,160,155369,1,0,0:0:0:0:
288,160,155538,1,8,0:0:0:0:
288,160,155875,1,8,0:0:0:0:
224,160,156043,1,0,0:0:0:0:
288,160,156549,1,8,0:0:0:0:
224,160,156717,1,0,0:0:0:0:
288,160,156886,1,8,0:0:0:0:
224,160,157054,1,0,0:0:0:0:
224,160,157223,1,0,0:0:0:0:
288,160,157391,1,8,0:0:0:0:
224,160,157560,1,0,0:0:0:0:
224,160,158066,1,0,0:0:0:0:
288,160,158234,1,8,0:0:0:0:
288,160,158571,1,8,0:0:0:0:
224,160,158740,1,0,0:0:0:0:
288,160,159077,1,8,0:0:0:0:
288,160,159161,1,8,0:0:0:0:
224,160,159245,1,0,0:0:0:0:
224,160,159414,1,0,0:0:0:0:
288,160,159582,1,8,0:0:0:0:
288,160,159667,1,8,0:0:0:0:
224,160,159751,1,0,0:0:0:0:
224,160,159920,1,0,0:0:0:0:
288,160,160088,1,8,0:0:0:0:
224,160,160257,1,0,0:0:0:0:
288,224,160594,1,12,0:0:0:0:
224,160,160762,1,0,0:0:0:0:
288,160,160931,1,8,0:0:0:0:
288,160,161099,1,8,0:0:0:0:
288,160,161268,1,8,0:0:0:0:
224,224,161436,1,4,0:0:0:0:
224,160,161942,1,0,0:0:0:0:
288,160,162279,1,8,0:0:0:0:
224,160,162448,1,0,0:0:0:0:
224,160,162532,1,0,0:0:0:0:
288,160,162616,1,8,0:0:0:0:
288,160,162785,1,8,0:0:0:0:
224,224,162953,1,4,0:0:0:0:
288,160,163206,1,8,0:0:0:0:
224,160,163459,1,0,0:0:0:0:
288,160,163627,1,8,0:0:0:0:
288,160,163964,1,8,0:0:0:0:
288,224,164133,1,12,0:0:0:0:
0,32,164470,2,0,L|512:32,1,490
224,160,166324,1,0,0:0:0:0:
288,160,166661,1,8,0:0:0:0:
288,224,166998,5,12,0:0:0:0:
224,160,167167,1,0,0:0:0:0:
288,160,167335,1,8,0:0:0:0:
224,224,167504,1,4,0:0:0:0:
224,160,167672,1,0,0:0:0:0:
224,160,167841,1,0,0:0:0:0:
288,224,168009,1,12,0:0:0:0:
224,160,168178,1,0,0:0:0:0:
288,160,168347,1,8,0:0:0:0:
224,224,168515,1,4,0:0:0:0:
288,160,168684,1,8,0:0:0:0:
288,160,168852,1,8,0:0:0:0:
288,160,169021,1,8,0:0:0:0:
288,160,169105,1,8,0:0:0:0:
224,160,169189,1,0,0:0:0:0:
224,160,169273,1,0,0:0:0:0:
288,160,169358,1,8,0:0:0:0:
224,160,169695,1,0,0:0:0:0:
224,160,169779,1,0,0:0:0:0:
224,160,169863,1,0,0:0:0:0:
288,160,170032,1,8,0:0:0:0:
288,160,170116,1,8,0:0:0:0:
288,160,170200,1,8,0:0:0:0:
224,160,170369,1,0,0:0:0:0:
224,160,170453,1,0,0:0:0:0:
224,160,170538,1,0,0:0:0:0:
288,160,170706,1,8,0:0:0:0:
288,160,170875,1,8,0:0:0:0:
224,160,171212,1,0,0:0:0:0:
288,160,171380,1,8,0:0:0:0:
288,160,171549,1,8,0:0:0:0:
224,160,171717,1,0,0:0:0:0:
224,160,171802,1,0,0:0:0:0:
224,160,171886,1,0,0:0:0:0:
224,160,171970,1,0,0:0:0:0:
288,160,172054,1,8,0:0:0:0:
224,160,172223,1,0,0:0:0:0:
288,224,172391,1,12,0:0:0:0:
224,160,172560,1,0,0:0:0:0:
288,160,172729,1,8,0:0:0:0:
224,224,172897,1,4,0:0:0:0:
224,160,173066,1,0,0:0:0:0:
224,160,173234,1,0,0:0:0:0:
288,224,173403,1,12,0:0:0:0:
224,160,173571,1,0,0:0:0:0:
288,160,173740,1,8,0:0:0:0:
224,224,173908,1,4,0:0:0:0:
288,160,174077,1,8,0:0:0:0:
288,160,174245,1,8,0:0:0:0:
288,160,174414,1,8,0:0:0:0:
288,160,174498,1,8,0:0:0:0:
224,160,174582,1,0,0:0:0:0:
224,160,174667,1,0,0:0:0:0:
288,160,174751,1,8,0:0:0:0:
288,160,175088,1,8,0:0:0:0:
288,160,175172,1,8,0:0:0:0:
224,160,175257,1,0,0:0:0:0:
288,160,175425,1,8,0:0:0:0:
224,160,175594,1,0,0:0:0:0:
288,160,175762,1,8,0:0:0:0:
288,160,175847,1,8,0:0:0:0:
224,160,175931,1,0,0:0:0:0:
288,160,176099,1,8,0:0:0:0:
288,160,176268,1,8,0:0:0:0:
224,160,176436,1,0,0:0:0:0:
224,160,176605,1,0,0:0:0:0:
224,160,176689,1,0,0:0:0:0:
288,160,176773,1,8,0:0:0:0:
288,160,176942,1,8,0:0:0:0:
224,160,177111,1,0,0:0:0:0:
224,160,177195,1,0,0:0:0:0:
224,160,177279,1,0,0:0:0:0:
224,160,177363,1,0,0:0:0:0:
288,160,177448,1,8,0:0:0:0:
288,224,177785,1,12,0:0:0:0:
224,160,177953,1,0,0:0:0:0:
288,160,178122,1,8,0:0:0:0:
224,224,178290,1,4,0:0:0:0:
224,160,178459,1,0,0:0:0:0:
224,160,178627,1,0,0:0:0:0:
288,224,178796,1,12,0:0:0:0:
224,160,178964,1,0,0:0:0:0:
288,160,179133,1,8,0:0:0:0:
224,224,179302,1,4,0:0:0:0:
288,160,179470,1,8,0:0:0:0:
288,160,179639,1,8,0:0:0:0:
288,160,179807,1,8,0:0:0:0:
288,160,179891,1,8,0:0:0:0:
224,160,179976,1,0,0:0:0:0:
224,160,180060,1,0,0:0:0:0:
288,160,180144,1,8,0:0:0:0:
224,160,180313,1,0,0:0:0:0:
288,160,180481,1,8,0:0:0:0:
288,160,180650,1,8,0:0:0:0:
288,160,180818,1,8,0:0:0:0:
288,160,180903,1,8,0:0:0:0:
288,160,180987,1,8,0:0:0:0:
224,160,181155,1,0,0:0:0:0:
224,160,181240,1,0,0:0:0:0:
224,160,181324,1,0,0:0:0:0:
288,160,181493,1,8,0:0:0:0:
288,160,181661,1,8,0:0:0:0:
224,160,181830,1,0,0:0:0:0:
288,160,181998,1,8,0:0:0:0:
288,160,182167,1,8,0:0:0:0:
224,160,182335,1,0,0:0:0:0:
224,160,182504,1,0,0:0:0:0:
224,160,182588,1,0,0:0:0:0:
224,160,182672,1,0,0:0:0:0:
224,160,182757,1,0,0:0:0:0:
288,160,182841,1,8,0:0:0:0:
288,224,183178,1,12,0:0:0:0:
224,160,183347,1,0,0:0:0:0:
288,160,183515,1,8,0:0:0:0:
224,224,183684,1,4,0:0:0:0:
224,160,183852,1,0,0:0:0:0:
288,224,184189,1,12,0:0:0:0:
224,160,184358,1,0,0:0:0:0:
224,160,184526,1,0,0:0:0:0:
288,224,184695,1,12,0:0:0:0:
288,160,184863,1,8,0:0:0:0:
224,160,185032,1,0,0:0:0:0:
288,160,185200,1,8,0:0:0:0:
288,160,185285,1,8,0:0:0:0:
224,160,185369,1,0,0:0:0:0:
224,160,185453,1,0,0:0:0:0:
288,160,185538,1,8,0:0:0:0:
224,160,185706,1,0,0:0:0:0:
224,160,185875,1,0,0:0:0:0:
288,160,186212,1,8,0:0:0:0:
288,160,186380,1,8,0:0:0:0:
224,160,186549,1,0,0:0:0:0:
224,160,186717,1,0,0:0:0:0:
288,160,186886,1,8,0:0:0:0:
224,224,187054,1,4,0:0:0:0:
288,160,187897,1,8,0:0:0:0:
288,160,188234,1,8,0:0:0:0:
288,160,188403,1,8,0:0:0:0:
224,160,190257,1,0,0:0:0:0:
224,160,190509,2,0,L|416:160,1,183.750007009506
224,224,191268,5,4,0:0:0:0:
224,160,191436,1,0,0:0:0:0:
288,160,191605,1,8,0:0:0:0:
224,160,191773,1,0,0:0:0:0:
288,160,191942,1,8,0:0:0:0:
288,160,192111,1,8,0:0:0:0:
224,160,192279,1,0,0:0:0:0:
224,224,192448,1,4,0:0:0:0:
224,160,192785,1,0,0:0:0:0:
288,160,192953,1,8,0:0:0:0:
288,160,193122,1,8,0:0:0:0:
288,160,193290,1,8,0:0:0:0:
224,160,193459,1,0,0:0:0:0:
288,160,193627,1,8,0:0:0:0:
224,160,193796,1,0,0:0:0:0:
224,224,193964,1,4,0:0:0:0:
224,160,194133,1,0,0:0:0:0:
288,160,194302,1,8,0:0:0:0:
224,160,194470,1,0,0:0:0:0:
288,160,194639,1,8,0:0:0:0:
288,160,194807,1,8,0:0:0:0:
224,160,194976,1,0,0:0:0:0:
224,224,195144,1,4,0:0:0:0:
288,160,195481,1,8,0:0:0:0:
224,160,195650,1,0,0:0:0:0:
224,160,195818,1,0,0:0:0:0:
288,160,195987,1,8,0:0:0:0:
288,160,196324,1,8,0:0:0:0:
288,160,196493,1,8,0:0:0:0:
224,160,196661,1,0,0:0:0:0:
288,224,196998,1,12,0:0:0:0:
224,160,197167,1,0,0:0:0:0:
288,160,197335,1,8,0:0:0:0:
288,160,197504,1,8,0:0:0:0:
224,160,197672,1,0,0:0:0:0:
224,224,197841,1,4,0:0:0:0:
224,160,198178,1,0,0:0:0:0:
288,160,198347,1,8,0:0:0:0:
288,160,198515,1,8,0:0:0:0:
288,160,198684,1,8,0:0:0:0:
224,160,198852,1,0,0:0:0:0:
288,160,199021,1,8,0:0:0:0:
288,160,199189,1,8,0:0:0:0:
224,224,199358,1,4,0:0:0:0:
288,160,199611,1,8,0:0:0:0:
224,160,199863,1,0,0:0:0:0:
288,160,200032,1,8,0:0:0:0:
224,160,200200,1,0,0:0:0:0:
288,160,200369,1,8,0:0:0:0:
224,224,200538,1,4,0:0:0:0:
32,32,200875,2,0,L|400:32,1,350
224,224,202054,1,4,0:0:0:0:
288,160,202391,5,8,0:0:0:0:
288,160,202729,1,8,0:0:0:0:
224,160,203234,1,0,0:0:0:0:
288,160,203571,1,8,0:0:0:0:
288,160,203908,1,8,0:0:0:0:
224,160,204751,1,0,0:0:0:0:
288,160,205088,1,8,0:0:0:0:
288,160,205425,1,8,0:0:0:0:
224,160,205931,1,0,0:0:0:0:
288,160,206268,1,8,0:0:0:0:
288,160,206605,1,8,0:0:0:0:
224,160,207448,1,0,0:0:0:0:
288,160,207785,1,8,0:0:0:0:
288,160,208122,1,8,0:0:0:0:
224,160,208627,1,0,0:0:0:0:
288,160,208964,1,8,0:0:0:0:
288,160,209302,1,8,0:0:0:0:
224,160,209807,1,0,0:0:0:0:
224,160,210144,1,0,0:0:0:0:
288,160,210481,1,8,0:0:0:0:
288,160,210818,1,8,0:0:0:0:
224,160,211155,1,0,0:0:0:0:
224,160,211324,1,0,0:0:0:0:
288,160,211661,1,8,0:0:0:0:
288,160,211998,1,8,0:0:0:0:
224,160,212167,1,0,0:0:0:0:
224,160,212504,1,0,0:0:0:0:
224,160,212672,1,0,0:0:0:0:
256,192,213178,12,0,213852,0:0:0:0:
288,160,214189,5,8,0:0:0:0:
288,160,214358,1,8,0:0:0:0:
224,160,214695,1,0,0:0:0:0:
224,160,214863,1,0,0:0:0:0:
288,160,215200,1,8,0:0:0:0:
288,160,215369,1,8,0:0:0:0:
224,160,215706,1,0,0:0:0:0:
224,160,215875,1,0,0:0:0:0:
288,160,216212,1,8,0:0:0:0:
288,160,216549,1,8,0:0:0:0:
224,160,216886,1,0,0:0:0:0:
224,160,217054,1,0,0:0:0:0:
288,160,217391,1,8,0:0:0:0:
288,160,217560,1,8,0:0:0:0:
288,160,217897,1,8,0:0:0:0:
224,160,218066,1,0,0:0:0:0:
224,160,218403,1,0,0:0:0:0:
224,160,218571,1,0,0:0:0:0:
288,160,218908,1,8,0:0:0:0:
288,160,219077,1,8,0:0:0:0:
224,160,219245,1,0,0:0:0:0:
224,160,219414,1,0,0:0:0:0:
288,160,219582,1,8,0:0:0:0:
288,160,219751,1,8,0:0:0:0:
224,160,220088,1,0,0:0:0:0:
224,160,220257,1,0,0:0:0:0:
288,160,220594,1,8,0:0:0:0:
288,160,220762,1,8,0:0:0:0:
224,160,221099,1,0,0:0:0:0:
224,160,221268,1,0,0:0:0:0:
288,160,221605,1,8,0:0:0:0:
288,160,221942,1,8,0:0:0:0:
224,160,222279,1,0,0:0:0:0:
224,160,222448,1,0,0:0:0:0:
288,160,222785,1,8,0:0:0:0:
288,160,222953,1,8,0:0:0:0:
224,160,223290,1,0,0:0:0:0:
288,160,223459,1,8,0:0:0:0:
288,160,223796,1,8,0:0:0:0:
224,160,223964,1,0,0:0:0:0:
288,160,224302,1,8,0:0:0:0:
288,160,224386,1,8,0:0:0:0:
288,160,224470,1,8,0:0:0:0:
224,160,224639,1,0,0:0:0:0:
224,160,224807,1,0,0:0:0:0:
288,160,224976,1,8,0:0:0:0:
288,160,225144,1,8,0:0:0:0:
224,160,225481,1,0,0:0:0:0:
224,160,225650,1,0,0:0:0:0:
288,160,225987,1,8,0:0:0:0:
288,160,226155,1,8,0:0:0:0:
224,160,226493,1,0,0:0:0:0:
224,160,226661,1,0,0:0:0:0:
288,160,226998,1,8,0:0:0:0:
288,160,227335,1,8,0:0:0:0:
224,160,227672,1,0,0:0:0:0:
224,160,227841,1,0,0:0:0:0:
288,160,228178,1,8,0:0:0:0:
288,160,228347,1,8,0:0:0:0:
288,160,228684,1,8,0:0:0:0:
224,160,228852,1,0,0:0:0:0:
224,160,229189,1,0,0:0:0:0:
224,160,229358,1,0,0:0:0:0:
288,160,229695,1,8,0:0:0:0:
288,160,229863,1,8,0:0:0:0:
224,160,230032,1,0,0:0:0:0:
224,160,230200,1,0,0:0:0:0:
288,160,230369,1,8,0:0:0:0:
288,160,230538,1,8,0:0:0:0:
224,160,230875,1,0,0:0:0:0:
224,160,231043,1,0,0:0:0:0:
288,160,231380,1,8,0:0:0:0:
288,160,231549,1,8,0:0:0:0:
224,160,231886,1,0,0:0:0:0:
224,160,232054,1,0,0:0:0:0:
288,160,232391,1,8,0:0:0:0:
224,160,232729,1,0,0:0:0:0:
224,160,233066,1,0,0:0:0:0:
224,160,233234,1,0,0:0:0:0:
288,160,233571,1,8,0:0:0:0:
288,160,233740,1,8,0:0:0:0:
224,160,234077,1,0,0:0:0:0:
288,160,234245,1,8,0:0:0:0:
288,160,234582,1,8,0:0:0:0:
224,160,234751,1,0,0:0:0:0:
288,160,235088,1,8,0:0:0:0:
224,160,235257,1,0,0:0:0:0:
288,160,235425,1,8,0:0:0:0:
288,224,235762,5,12,0:0:0:0:
224,160,236268,1,0,0:0:0:0:
288,160,236436,1,8,0:0:0:0:
288,160,236773,1,8,0:0:0:0:
224,160,236942,1,0,0:0:0:0:
224,160,237279,1,0,0:0:0:0:
224,160,237448,1,0,0:0:0:0:
288,160,237785,1,8,0:0:0:0:
288,160,237953,1,8,0:0:0:0:
224,160,238122,1,0,0:0:0:0:
224,160,238290,1,0,0:0:0:0:
288,160,238459,1,8,0:0:0:0:
288,160,238796,1,8,0:0:0:0:
224,160,238964,1,0,0:0:0:0:
224,160,239049,1,0,0:0:0:0:
288,160,239133,1,8,0:0:0:0:
288,160,239470,1,8,0:0:0:0:
288,160,239639,1,8,0:0:0:0:
288,160,239976,1,8,0:0:0:0:
224,160,240144,1,0,0:0:0:0:
224,160,240313,1,0,0:0:0:0:
224,160,240397,1,0,0:0:0:0:
288,160,240481,1,8,0:0:0:0:
224,160,240650,1,0,0:0:0:0:
288,160,240818,1,8,0:0:0:0:
288,224,241155,1,12,0:0:0:0:
224,160,241661,1,0,0:0:0:0:
288,160,241830,1,8,0:0:0:0:
288,160,242167,1,8,0:0:0:0:
224,160,242335,1,0,0:0:0:0:
224,160,242672,1,0,0:0:0:0:
224,160,242841,1,0,0:0:0:0:
288,160,243178,1,8,0:0:0:0:
224,160,243347,1,0,0:0:0:0:
288,160,243515,1,8,0:0:0:0:
288,160,243684,1,8,0:0:0:0:
288,224,243852,1,12,0:0:0:0:
224,160,244021,1,0,0:0:0:0:
224,160,244105,1,0,0:0:0:0:
288,160,244189,1,8,0:0:0:0:
224,160,244358,1,0,0:0:0:0:
288,160,244526,1,8,0:0:0:0:
288,160,244863,1,8,0:0:0:0:
288,224,245032,1,12,0:0:0:0:
224,160,245875,1,0,0:0:0:0:
288,160,246212,1,8,0:0:0:0:
288,160,246296,1,8,0:0:0:0:
224,160,246380,1,0,0:0:0:0:
288,224,246549,1,12,0:0:0:0:
224,160,247054,1,0,0:0:0:0:
288,160,247223,1,8,0:0:0:0:
288,160,247560,1,8,0:0:0:0:
224,160,247729,1,0,0:0:0:0:
224,160,248066,1,0,0:0:0:0:
224,160,248234,1,0,0:0:0:0:
288,160,248571,1,8,0:0:0:0:
288,160,248740,1,8,0:0:0:0:
224,160,248908,1,0,0:0:0:0:
224,160,249077,1,0,0:0:0:0:
288,160,249245,1,8,0:0:0:0:
224,160,249751,1,0,0:0:0:0:
288,160,249920,1,8,0:0:0:0:
288,160,250257,1,8,0:0:0:0:
288,160,250425,1,8,0:0:0:0:
288,160,250762,1,8,0:0:0:0:
288,160,250931,1,8,0:0:0:0:
224,160,251099,1,0,0:0:0:0:
288,160,251268,1,8,0:0:0:0:
224,160,251436,1,0,0:0:0:0:
224,160,251521,1,0,0:0:0:0:
224,160,251605,1,0,0:0:0:0:
288,160,251773,1,8,0:0:0:0:
224,160,251942,1,0,0:0:0:0:
288,224,252279,1,12,0:0:0:0:
224,160,252448,1,0,0:0:0:0:
288,160,252616,1,8,0:0:0:0:
288,160,252953,1,8,0:0:0:0:
224,224,253122,1,4,0:0:0:0:
224,160,253459,1,0,0:0:0:0:
224,160,253627,1,0,0:0:0:0:
288,160,253964,1,8,0:0:0:0:
224,160,254133,1,0,0:0:0:0:
288,160,254302,1,8,0:0:0:0:
288,160,254470,1,8,0:0:0:0:
224,224,254639,1,4,0:0:0:0:
288,160,254891,1,8,0:0:0:0:
224,160,255144,1,0,0:0:0:0:
224,160,255229,1,0,0:0:0:0:
288,160,255313,1,8,0:0:0:0:
224,160,255481,1,0,0:0:0:0:
288,160,255650,1,8,0:0:0:0:
224,224,255818,1,4,0:0:0:0:
256,192,256155,12,0,257335,0:0:0:0:
224,224,258684,5,4,0:0:0:0:
224,160,258852,1,0,0:0:0:0:
288,160,259021,1,8,0:0:0:0:
224,160,259189,1,0,0:0:0:0:
224,160,259273,1,0,0:0:0:0:
224,160,259358,1,0,0:0:0:0:
224,160,259526,1,0,0:0:0:0:
288,160,259695,1,8,0:0:0:0:
288,160,259863,1,8,0:0:0:0:
288,160,259948,1,8,0:0:0:0:
224,160,260032,1,0,0:0:0:0:
224,160,260200,1,0,0:0:0:0:
288,160,260369,1,8,0:0:0:0:
288,160,260538,1,8,0:0:0:0:
288,160,260622,1,8,0:0:0:0:
224,160,260706,1,0,0:0:0:0:
224,160,260875,1,0,0:0:0:0:
224,160,260959,1,0,0:0:0:0:
288,160,261043,1,8,0:0:0:0:
224,160,261212,1,0,0:0:0:0:
288,160,261380,1,8,0:0:0:0:
288,160,261464,1,8,0:0:0:0:
224,160,261549,1,0,0:0:0:0:
224,160,261633,1,0,0:0:0:0:
288,160,261717,1,8,0:0:0:0:
288,160,261886,1,8,0:0:0:0:
224,160,261970,1,0,0:0:0:0:
288,160,262054,1,8,0:0:0:0:
224,160,262223,1,0,0:0:0:0:
224,160,262307,1,0,0:0:0:0:
288,160,262391,1,8,0:0:0:0:
288,160,262476,1,8,0:0:0:0:
224,160,262560,1,0,0:0:0:0:
224,160,262644,1,0,0:0:0:0:
224,160,262729,1,0,0:0:0:0:
224,160,262897,1,0,0:0:0:0:
224,160,262981,1,0,0:0:0:0:
288,160,263066,1,8,0:0:0:0:
288,160,263234,1,8,0:0:0:0:
224,160,263403,1,0,0:0:0:0:
288,160,263571,1,8,0:0:0:0:
224,160,263655,1,0,0:0:0:0:
288,160,263740,1,8,0:0:0:0:
224,224,264077,1,4,0:0:0:0:
224,160,264245,1,0,0:0:0:0:
288,160,264414,1,8,0:0:0:0:
288,160,264582,1,8,0:0:0:0:
288,160,264667,1,8,0:0:0:0:
288,160,264751,1,8,0:0:0:0:
224,160,264920,1,0,0:0:0:0:
288,160,265088,1,8,0:0:0:0:
224,160,265257,1,0,0:0:0:0:
224,160,265341,1,0,0:0:0:0:
288,160,265425,1,8,0:0:0:0:
288,160,265509,1,8,0:0:0:0:
224,160,265594,1,0,0:0:0:0:
288,160,265762,1,8,0:0:0:0:
224,160,265931,1,0,0:0:0:0:
224,160,266015,1,0,0:0:0:0:
288,160,266099,1,8,0:0:0:0:
224,160,266268,1,0,0:0:0:0:
288,160,266436,1,8,0:0:0:0:
288,160,266605,1,8,0:0:0:0:
224,224,266773,1,4,0:0:0:0:
288,160,266942,1,8,0:0:0:0:
288,160,267111,1,8,0:0:0:0:
288,160,267195,1,8,0:0:0:0:
224,160,267279,1,0,0:0:0:0:
288,160,267448,1,8,0:0:0:0:
288,160,267532,1,8,0:0:0:0:
224,160,267616,1,0,0:0:0:0:
224,160,267700,1,0,0:0:0:0:
288,160,267785,1,8,0:0:0:0:
224,160,267953,1,0,0:0:0:0:
224,160,268038,1,0,0:0:0:0:
224,160,268122,1,0,0:0:0:0:
288,160,268290,1,8,0:0:0:0:
288,160,268375,1,8,0:0:0:0:
288,160,268459,1,8,0:0:0:0:
288,160,268627,1,8,0:0:0:0:
224,160,268796,1,0,0:0:0:0:
224,160,268880,1,0,0:0:0:0:
224,160,268964,1,0,0:0:0:0:
224,160,269049,1,0,0:0:0:0:
288,160,269133,1,8,0:0:0:0:
288,160,269302,1,8,0:0:0:0:
224,224,269470,1,4,0:0:0:0:
288,160,269639,1,8,0:0:0:0:
288,160,269807,1,8,0:0:0:0:
224,160,269976,1,0,0:0:0:0:
224,160,270060,1,0,0:0:0:0:
288,160,270144,1,8,0:0:0:0:
288,224,270481,1,12,0:0:0:0:
288,160,270650,1,8,0:0:0:0:
224,160,270818,1,0,0:0:0:0:
224,160,270987,1,0,0:0:0:0:
224,160,271071,1,0,0:0:0:0:
288,160,271155,1,8,0:0:0:0:
224,160,271324,1,0,0:0:0:0:
288,160,271493,1,8,0:0:0:0:
224,160,271661,1,0,0:0:0:0:
288,160,271745,1,8,0:0:0:0:
224,160,271914,1,0,0:0:0:0:
288,160,271998,1,8,0:0:0:0:
288,224,272167,1,12,0:0:0:0:
224,160,272335,1,0,0:0:0:0:
224,160,272420,1,0,0:0:0:0:
288,160,272504,1,8,0:0:0:0:
288,160,272672,1,8,0:0:0:0:
224,160,272841,1,0,0:0:0:0:
288,160,273009,1,8,0:0:0:0:
288,160,273094,1,8,0:0:0:0:
288,160,273178,1,8,0:0:0:0:
288,160,273347,1,8,0:0:0:0:
224,160,273515,1,0,0:0:0:0:
224,160,273684,1,0,0:0:0:0:
224,160,273768,1,0,0:0:0:0:
288,160,273852,1,8,0:0:0:0:
224,160,274021,1,0,0:0:0:0:
224,160,274105,1,0,0:0:0:0:
288,160,274189,1,8,0:0:0:0:
288,160,274273,1,8,0:0:0:0:
224,160,274358,1,0,0:0:0:0:
288,160,274526,1,8,0:0:0:0:
224,224,274863,1,4,0:0:0:0:
224,160,275032,1,0,0:0:0:0:
288,160,275200,1,8,0:0:0:0:
224,160,275369,1,0,0:0:0:0:
224,160,275538,1,0,0:0:0:0:
288,224,275875,1,12,0:0:0:0:
224,160,276043,1,0,0:0:0:0:
224,160,276212,1,0,0:0:0:0:
288,160,276380,1,8,0:0:0:0:
288,160,276549,1,8,0:0:0:0:
224,160,276717,1,0,0:0:0:0:
224,160,276802,1,0,0:0:0:0:
288,160,276886,1,8,0:0:0:0:
288,160,276970,1,8,0:0:0:0:
224,160,277054,1,0,0:0:0:0:
288,160,277223,1,8,0:0:0:0:
224,160,277307,1,0,0:0:0:0:
288,160,277391,1,8,0:0:0:0:
224,160,277560,1,0,0:0:0:0:
224,160,277644,1,0,0:0:0:0:
224,160,277729,1,0,0:0:0:0:
224,160,277813,1,0,0:0:0:0:
288,160,277897,1,8,0:0:0:0:
288,160,277981,1,8,0:0:0:0:
288,160,278066,1,8,0:0:0:0:
288,160,278150,1,8,0:0:0:0:
224,160,278234,1,0,0:0:0:0:
224,160,278403,1,0,0:0:0:0:
224,160,278487,1,0,0:0:0:0:
288,160,278571,1,8,0:0:0:0:
224,224,278740,1,4,0:0:0:0:
224,224,279414,1,4,0:0:0:0:
224,224,280088,1,4,0:0:0:0:
224,160,280931,5,0,0:0:0:0:
288,160,281268,1,8,0:0:0:0:
288,224,281605,5,12,0:0:0:0:
224,160,281773,1,0,0:0:0:0:
288,160,281942,1,8,0:0:0:0:
224,224,282111,1,4,0:0:0:0:
224,160,282279,1,0,0:0:0:0:
224,160,282448,1,0,0:0:0:0:
288,224,282616,1,12,0:0:0:0:
224,160,282785,1,0,0:0:0:0:
288,160,282953,1,8,0:0:0:0:
224,224,283122,1,4,0:0:0:0:
288,160,283290,1,8,0:0:0:0:
288,160,283459,1,8,0:0:0:0:
288,160,283627,1,8,0:0:0:0:
224,160,283712,1,0,0:0:0:0:
224,160,283796,1,0,0:0:0:0:
224,160,283880,1,0,0:0:0:0:
288,160,283964,1,8,0:0:0:0:
224,160,284133,1,0,0:0:0:0:
288,224,284302,1,12,0:0:0:0:
224,160,284470,1,0,0:0:0:0:
288,224,284639,1,12,0:0:0:0:
224,160,284807,1,0,0:0:0:0:
288,224,284976,1,12,0:0:0:0:
224,160,285144,1,0,0:0:0:0:
288,224,285313,1,12,0:0:0:0:
288,224,285481,1,12,0:0:0:0:
288,224,285818,1,12,0:0:0:0:
288,160,285987,1,8,0:0:0:0:
288,160,286155,1,8,0:0:0:0:
224,160,286324,1,0,0:0:0:0:
224,160,286408,1,0,0:0:0:0:
224,160,286493,1,0,0:0:0:0:
224,160,286577,1,0,0:0:0:0:
288,160,286661,1,8,0:0:0:0:
224,160,286830,1,0,0:0:0:0:
288,224,286998,1,12,0:0:0:0:
224,160,287167,1,0,0:0:0:0:
288,160,287335,1,8,0:0:0:0:
224,224,287504,1,4,0:0:0:0:
224,160,287672,1,0,0:0:0:0:
224,160,287841,1,0,0:0:0:0:
288,224,288009,1,12,0:0:0:0:
224,160,288178,1,0,0:0:0:0:
288,160,288347,1,8,0:0:0:0:
224,224,288515,1,4,0:0:0:0:
288,160,288684,1,8,0:0:0:0:
288,160,288852,1,8,0:0:0:0:
288,160,289021,1,8,0:0:0:0:
224,160,289105,1,0,0:0:0:0:
224,160,289189,1,0,0:0:0:0:
224,160,289273,1,0,0:0:0:0:
288,160,289358,1,8,0:0:0:0:
224,160,289526,1,0,0:0:0:0:
288,160,289695,1,8,0:0:0:0:
288,160,289779,1,8,0:0:0:0:
224,160,289863,1,0,0:0:0:0:
288,160,290032,1,8,0:0:0:0:
224,160,290116,1,0,0:0:0:0:
224,160,290200,1,0,0:0:0:0:
288,160,290369,1,8,0:0:0:0:
288,160,290453,1,8,0:0:0:0:
224,160,290538,1,0,0:0:0:0:
288,160,290706,1,8,0:0:0:0:
288,160,290875,1,8,0:0:0:0:
224,160,291043,1,0,0:0:0:0:
224,160,291212,1,0,0:0:0:0:
224,160,291296,1,0,0:0:0:0:
288,160,291380,1,8,0:0:0:0:
224,160,291549,1,0,0:0:0:0:
288,160,291717,1,8,0:0:0:0:
224,160,291802,1,0,0:0:0:0:
224,160,291886,1,0,0:0:0:0:
224,160,291970,1,0,0:0:0:0:
288,160,292054,1,8,0:0:0:0:
288,224,292391,1,12,0:0:0:0:
224,160,292560,1,0,0:0:0:0:
288,160,292729,1,8,0:0:0:0:
224,224,292897,1,4,0:0:0:0:
224,160,293066,1,0,0:0:0:0:
224,160,293234,1,0,0:0:0:0:
288,224,293403,1,12,0:0:0:0:
224,160,293571,1,0,0:0:0:0:
288,160,293740,1,8,0:0:0:0:
224,224,293908,1,4,0:0:0:0:
288,160,294077,1,8,0:0:0:0:
288,160,294245,1,8,0:0:0:0:
288,160,294414,1,8,0:0:0:0:
224,160,294498,1,0,0:0:0:0:
224,160,294582,1,0,0:0:0:0:
224,160,294667,1,0,0:0:0:0:
288,160,294751,1,8,0:0:0:0:
224,160,294920,1,0,0:0:0:0:
288,224,295088,1,12,0:0:0:0:
224,160,295257,1,0,0:0:0:0:
288,224,295425,1,12,0:0:0:0:
288,224,295762,1,12,0:0:0:0:
288,224,295931,1,12,0:0:0:0:
288,224,296099,1,12,0:0:0:0:
288,224,296268,1,12,0:0:0:0:
288,224,296605,1,12,0:0:0:0:
288,224,296773,1,12,0:0:0:0:
224,160,296942,1,0,0:0:0:0:
288,160,297111,1,8,0:0:0:0:
288,160,297195,1,8,0:0:0:0:
224,160,297279,1,0,0:0:0:0:
224,160,297363,1,0,0:0:0:0:
288,160,297448,1,8,0:0:0:0:
288,160,297616,1,8,0:0:0:0:
224,224,297785,1,4,0:0:0:0:
224,160,297953,1,0,0:0:0:0:
288,160,298122,1,8,0:0:0:0:
224,224,298290,1,4,0:0:0:0:
224,160,298459,1,0,0:0:0:0:
288,224,298796,1,12,0:0:0:0:
224,160,298964,1,0,0:0:0:0:
224,160,299133,1,0,0:0:0:0:
288,224,299302,1,12,0:0:0:0:
288,160,299470,1,8,0:0:0:0:
288,160,299807,1,8,0:0:0:0:
288,160,299891,1,8,0:0:0:0:
224,160,299976,1,0,0:0:0:0:
288,160,300144,1,8,0:0:0:0:
224,160,300313,1,0,0:0:0:0:
224,224,300481,1,4,0:0:0:0:
224,160,300650,1,0,0:0:0:0:
224,160,300734,1,0,0:0:0:0:
288,160,300818,1,8,0:0:0:0:
288,160,300987,1,8,0:0:0:0:
224,160,301155,1,0,0:0:0:0:
224,160,301324,1,0,0:0:0:0:
288,160,301493,1,8,0:0:0:0:
224,224,301661,1,4,0:0:0:0:
288,160,302504,5,8,0:0:0:0:
224,160,302841,1,0,0:0:0:0:
288,160,303009,1,8,0:0:0:0:
288,160,306212,5,8,0:0:0:0:
288,160,306549,1,8,0:0:0:0:
288,160,306886,1,8,0:0:0:0:
224,160,307223,1,0,0:0:0:0:
288,160,307560,1,8,0:0:0:0:
288,160,307729,1,8,0:0:0:0:
224,160,308234,1,0,0:0:0:0:
224,160,308403,1,0,0:0:0:0:
288,224,310594,1,12,0:0:0:0:
288,224,310931,1,12,0:0:0:0:
288,224,311099,1,12,0:0:0:0:
224,224,311268,1,4,0:0:0:0:
224,160,311436,1,0,0:0:0:0:
224,160,311521,1,0,0:0:0:0:
288,160,311605,1,8,0:0:0:0:
224,160,311773,1,0,0:0:0:0:
288,160,311858,1,8,0:0:0:0:
224,160,311942,1,0,0:0:0:0:
224,160,312111,1,0,0:0:0:0:
288,160,312279,1,8,0:0:0:0:
224,160,312448,1,0,0:0:0:0:
224,160,312616,1,0,0:0:0:0:
224,160,312785,1,0,0:0:0:0:
224,160,312869,1,0,0:0:0:0:
288,160,312953,1,8,0:0:0:0:
224,160,313122,1,0,0:0:0:0:
224,160,313206,1,0,0:0:0:0:
224,160,313290,1,0,0:0:0:0:
288,160,313459,1,8,0:0:0:0:
288,160,313627,1,8,0:0:0:0:
224,160,313964,1,0,0:0:0:0:
224,160,314133,1,0,0:0:0:0:
224,160,314217,1,0,0:0:0:0:
288,160,314302,1,8,0:0:0:0:
288,160,314470,1,8,0:0:0:0:
288,160,314554,1,8,0:0:0:0:
288,160,314639,1,8,0:0:0:0:
224,160,314807,1,0,0:0:0:0:
288,160,314976,1,8,0:0:0:0:
224,160,315144,1,0,0:0:0:0:
224,160,315313,1,0,0:0:0:0:
224,160,315397,1,0,0:0:0:0:
224,160,315481,1,0,0:0:0:0:
224,160,315566,1,0,0:0:0:0:
288,160,315650,1,8,0:0:0:0:
288,160,315818,1,8,0:0:0:0:
288,160,315903,1,8,0:0:0:0:
288,160,315987,1,8,0:0:0:0:
224,160,316155,1,0,0:0:0:0:
288,160,316324,1,8,0:0:0:0:
224,224,316661,1,4,0:0:0:0:
224,160,316830,1,0,0:0:0:0:
224,160,316914,1,0,0:0:0:0:
288,160,316998,1,8,0:0:0:0:
288,160,317167,1,8,0:0:0:0:
224,160,317251,1,0,0:0:0:0:
288,160,317335,1,8,0:0:0:0:
224,160,317504,1,0,0:0:0:0:
288,160,317672,1,8,0:0:0:0:
288,160,317841,1,8,0:0:0:0:
224,160,318009,1,0,0:0:0:0:
224,160,318178,1,0,0:0:0:0:
224,160,318262,1,0,0:0:0:0:
288,160,318347,1,8,0:0:0:0:
224,160,318515,1,0,0:0:0:0:
288,160,318599,1,8,0:0:0:0:
224,160,318684,1,0,0:0:0:0:
288,160,318852,1,8,0:0:0:0:
288,160,319021,1,8,0:0:0:0:
288,160,319105,1,8,0:0:0:0:
224,160,319189,1,0,0:0:0:0:
224,160,319273,1,0,0:0:0:0:
288,160,319358,1,8,0:0:0:0:
224,160,319526,1,0,0:0:0:0:
224,160,319611,1,0,0:0:0:0:
288,160,319695,1,8,0:0:0:0:
224,160,319863,1,0,0:0:0:0:
224,160,319948,1,0,0:0:0:0:
224,160,320032,1,0,0:0:0:0:
224,160,320200,1,0,0:0:0:0:
288,160,320369,1,8,0:0:0:0:
288,160,320538,1,8,0:0:0:0:
224,160,320706,1,0,0:0:0:0:
224,160,320875,1,0,0:0:0:0:
224,160,320959,1,0,0:0:0:0:
288,160,321043,1,8,0:0:0:0:
288,160,321212,1,8,0:0:0:0:
288,160,321296,1,8,0:0:0:0:
288,160,321380,1,8,0:0:0:0:
224,160,321549,1,0,0:0:0:0:
288,160,321717,1,8,0:0:0:0:
288,224,322054,1,12,0:0:0:0:
224,160,322223,1,0,0:0:0:0:
224,160,322307,1,0,0:0:0:0:
288,160,322391,1,8,0:0:0:0:
224,160,322560,1,0,0:0:0:0:
224,160,322644,1,0,0:0:0:0:
224,160,322729,1,0,0:0:0:0:
224,160,322897,1,0,0:0:0:0:
288,160,323066,1,8,0:0:0:0:
288,160,323234,1,8,0:0:0:0:
288,160,323318,1,8,0:0:0:0:
224,160,323403,1,0,0:0:0:0:
224,160,323571,1,0,0:0:0:0:
224,160,323655,1,0,0:0:0:0:
288,160,323740,1,8,0:0:0:0:
224,160,323908,1,0,0:0:0:0:
224,160,323993,1,0,0:0:0:0:
224,160,324077,1,0,0:0:0:0:
288,160,324245,1,8,0:0:0:0:
288,160,324414,1,8,0:0:0:0:
224,160,324751,1,0,0:0:0:0:
224,160,324920,1,0,0:0:0:0:
224,160,325004,1,0,0:0:0:0:
288,160,325088,1,8,0:0:0:0:
288,160,325257,1,8,0:0:0:0:
288,160,325341,1,8,0:0:0:0:
224,160,325425,1,0,0:0:0:0:
224,160,325594,1,0,0:0:0:0:
288,160,325762,1,8,0:0:0:0:
224,160,325931,1,0,0:0:0:0:
224,160,326015,1,0,0:0:0:0:
224,160,326099,1,0,0:0:0:0:
224,160,326268,1,0,0:0:0:0:
224,160,326352,1,0,0:0:0:0:
288,160,326436,1,8,0:0:0:0:
288,160,326605,1,8,0:0:0:0:
288,160,326689,1,8,0:0:0:0:
224,160,326773,1,0,0:0:0:0:
288,160,326942,1,8,0:0:0:0:
288,160,327111,1,8,0:0:0:0:
224,224,327448,1,4,0:0:0:0:
224,160,327616,1,0,0:0:0:0:
224,160,327700,1,0,0:0:0:0:
288,160,327785,1,8,0:0:0:0:
288,160,327953,1,8,0:0:0:0:
288,160,328038,1,8,0:0:0:0:
224,160,328122,1,0,0:0:0:0:
224,160,328290,1,0,0:0:0:0:
288,160,328459,1,8,0:0:0:0:
288,160,328627,1,8,0:0:0:0:
288,160,328712,1,8,0:0:0:0:
224,160,328796,1,0,0:0:0:0:
224,160,328964,1,0,0:0:0:0:
224,160,329049,1,0,0:0:0:0:
288,160,329133,1,8,0:0:0:0:
224,160,329302,1,0,0:0:0:0:
224,160,329386,1,0,0:0:0:0:
224,160,329470,1,0,0:0:0:0:
224,160,329639,1,0,0:0:0:0:
224,160,329723,1,0,0:0:0:0:
288,160,329807,1,8,0:0:0:0:
288,160,329891,1,8,0:0:0:0:
224,160,329976,1,0,0:0:0:0:
224,160,330144,1,0,0:0:0:0:
224,160,330313,1,0,0:0:0:0:
224,160,330397,1,0,0:0:0:0:
288,160,330481,1,8,0:0:0:0:
288,160,330650,1,8,0:0:0:0:
288,160,330734,1,8,0:0:0:0:
224,160,330818,1,0,0:0:0:0:
224,160,330987,1,0,0:0:0:0:
288,160,331155,1,8,0:0:0:0:
224,160,331324,1,0,0:0:0:0:
224,160,331408,1,0,0:0:0:0:
224,160,331493,1,0,0:0:0:0:
224,160,331661,1,0,0:0:0:0:
224,160,331745,1,0,0:0:0:0:
288,160,331830,1,8,0:0:0:0:
288,160,331998,1,8,0:0:0:0:
288,160,332082,1,8,0:0:0:0:
224,160,332167,1,0,0:0:0:0:
224,160,332251,1,0,0:0:0:0:
288,160,332335,1,8,0:0:0:0:
288,160,332504,1,8,0:0:0:0:
224,160,332672,1,0,0:0:0:0:
224,160,332841,5,0,0:0:0:0:
288,160,333178,1,8,0:0:0:0:
288,160,333515,1,8,0:0:0:0:
224,160,334021,1,0,0:0:0:0:
288,160,334358,1,8,0:0:0:0:
288,160,334695,1,8,0:0:0:0:
224,160,335538,1,0,0:0:0:0:
288,160,335875,1,8,0:0:0:0:
288,160,336212,1,8,0:0:0:0:
224,160,336717,1,0,0:0:0:0:
288,160,337054,1,8,0:0:0:0:
288,160,337391,1,8,0:0:0:0:
224,160,338234,1,0,0:0:0:0:
288,160,338571,1,8,0:0:0:0:
288,160,338908,1,8,0:0:0:0:
224,160,339414,1,0,0:0:0:0:
288,160,339751,1,8,0:0:0:0:
288,160,340088,1,8,0:0:0:0:
224,160,340931,1,0,0:0:0:0:
288,160,341268,1,8,0:0:0:0:
288,160,341605,1,8,0:0:0:0:
224,160,342111,1,0,0:0:0:0:
288,160,342448,1,8,0:0:0:0:
288,160,342785,1,8,0:0:0:0:
32,32,343206,2,0,L|192:32,1,140
256,192,343796,12,0,346324,0:0:0:0:
