osu file format v14

[General]
AudioFilename: audio.mp3
AudioLeadIn: 0
PreviewTime: -1
Countdown: 0
SampleSet: Soft
StackLeniency: 0.7
Mode: 3
LetterboxInBreaks: 0
SpecialStyle: 0
WidescreenStoryboard: 0

[Editor]
DistanceSpacing: 0.8
BeatDivisor: 8
GridSize: 4
TimelineZoom: 2.6

[Metadata]
Title:Amadare no Uta
TitleUnicode:雨だれの歌
Artist:Chito (Inori Minase) & Yuuri (Yurika Kubo)
ArtistUnicode:チト(水瀬いのり)、ユーリ(久保ユリカ)
Creator:Shoko84
Version:Heavy Storm
Source:Shoujo Shuumatsu Ryokou
Tags:shoujo shuumatsu ryokou ending ep5 shoko84
BeatmapID:1735494
BeatmapSetID:828334

[Difficulty]
HPDrainRate:6
CircleSize:4
OverallDifficulty:8
ApproachRate:5
SliderMultiplier:1.4
SliderTickRate:1

[Events]
//Background and Video events
//Break Periods
//Storyboard Layer 0 (Background)
//Storyboard Layer 1 (Fail)
//Storyboard Layer 2 (Pass)
//Storyboard Layer 3 (Foreground)
//Storyboard Sound Samples

[TimingPoints]
215,517.241379310345,4,2,0,100,1,0
733,-100,4,2,0,30,0,0
4267,-100,4,2,0,40,0,0
8491,-100,4,2,0,55,0,0
17220,-83.3333333333333,4,2,0,55,0,0
17349,-100,4,2,0,55,0,0
18260,-83.3333333333333,4,2,0,55,0,0
18383,-100,4,2,0,55,0,0
19289,-83.3333333333333,4,2,0,55,0,0
19418,-100,4,2,0,55,0,0
20323,-83.3333333333333,4,2,0,55,0,0
20452,-100,4,2,0,55,0,0
21358,-83.3333333333333,4,2,0,55,0,0
21487,-100,4,2,0,55,0,0
22392,-83.3333333333333,4,2,0,55,0,0
22521,-100,4,2,0,55,0,0
23426,-83.3333333333333,4,2,0,55,0,0
23556,-100,4,2,0,55,0,0
25495,-83.3333333333333,4,2,0,55,0,0
25625,-100,4,2,0,55,0,0
27047,-83.3333333333333,4,2,0,55,0,0
27176,-100,4,2,0,55,0,0
29633,-83.3333333333333,4,2,0,55,0,0
29763,-100,4,2,0,55,0,0
30668,-83.3333333333333,4,2,0,55,0,0
30797,-100,4,2,0,55,0,0
31702,-71.4285714285714,4,2,0,55,0,0
31832,-100,4,2,0,55,0,0
31961,-71.4285714285714,4,2,0,55,0,0
32090,-100,4,2,0,55,0,0
32220,-71.4285714285714,4,2,0,55,0,0
32349,-100,4,2,0,55,0,0
32478,-71.4285714285714,4,2,0,55,0,0
32608,-100,4,2,0,55,0,0
32737,-71.4285714285714,4,2,0,55,0,0
32866,-100,4,2,0,55,0,0
33253,-71.4285714285714,4,2,0,55,0,0
33383,-100,4,2,0,55,0,0
33513,-71.4285714285714,4,2,0,55,0,0
33642,-100,4,2,0,55,0,0
33771,-83.3333333333333,4,2,0,55,0,0
33901,-100,4,2,0,55,0,0
35840,-83.3333333333333,4,2,0,55,0,0
35970,-100,4,2,0,55,0,0
36358,-83.3333333333333,4,2,0,55,0,0
36487,-100,4,2,0,55,0,0
37909,-83.3333333333333,4,2,0,55,0,0
38039,-100,4,2,0,55,0,0
38168,-83.3333333333333,4,2,0,55,0,0
38297,-100,4,2,0,55,0,0
38426,-83.3333333333333,4,2,0,55,0,0
38556,-100,4,2,0,55,0,0
38685,-83.3333333333333,4,2,0,55,0,0
38814,-100,4,2,0,55,0,0
38944,-83.3333333333333,4,2,0,55,0,0
39073,-100,4,2,0,55,0,0
42047,-83.3333333333333,4,2,0,55,0,0
42176,-100,4,2,0,55,0,0
44116,-83.3333333333333,4,2,0,55,0,0
44245,-100,4,2,0,55,0,0
44375,-83.3333333333333,4,2,0,55,0,0
44504,-100,4,2,0,55,0,0
44633,-83.3333333333333,4,2,0,55,0,0
44763,-100,4,2,0,55,0,0
48254,-71.4285714285714,4,2,0,55,0,0
48383,-100,4,2,0,55,0,0
48513,-71.4285714285714,4,2,0,55,0,0
48642,-100,4,2,0,55,0,0
48771,-71.4285714285714,4,2,0,55,0,0
48901,-100,4,2,0,55,0,0
49030,-71.4285714285714,4,2,0,55,0,0
49159,-100,4,2,0,55,0,0
49289,-71.4285714285714,4,2,0,55,0,0
49418,-100,4,2,0,55,0,0
49806,-71.4285714285714,4,2,0,55,0,0
49935,-100,4,2,0,55,0,0
50064,-71.4285714285714,4,2,0,55,0,0
50194,-100,4,2,0,55,0,0
50323,-71.4285714285714,4,2,0,55,0,0
50452,-100,4,2,0,55,0,0
52392,-71.4285714285714,4,2,0,55,0,0
52521,-100,4,2,0,55,0,0
52651,-71.4285714285714,4,2,0,55,0,0
52780,-100,4,2,0,55,0,0
53426,-71.4285714285714,4,2,0,55,0,0
53556,-100,4,2,0,55,0,0
53685,-71.4285714285714,4,2,0,55,0,0
53814,-100,4,2,0,55,0,0
56530,-71.4285714285714,4,2,0,55,0,0
56659,-100,4,2,0,55,0,0
57047,-71.4285714285714,4,2,0,55,0,0
57176,-100,4,2,0,55,0,0
57564,-71.4285714285714,4,2,0,55,0,0
57694,-100,4,2,0,55,0,0
58082,-71.4285714285714,4,2,0,55,0,0
58211,-100,4,2,0,55,0,0
58599,-71.4285714285714,4,2,0,55,0,0
58728,-100,4,2,0,55,0,0
58858,-71.4285714285714,4,2,0,55,0,0
58987,-100,4,2,0,55,0,0
59116,-71.4285714285714,4,2,0,55,0,0
59245,-100,4,2,0,55,0,0
59375,-71.4285714285714,4,2,0,55,0,0
59504,-100,4,2,0,55,0,0
59633,-71.4285714285714,4,2,0,55,0,0
59763,-100,4,2,0,55,0,0
60151,-71.4285714285714,4,2,0,55,0,0
60280,-100,4,2,0,55,0,0
60668,-71.4285714285714,4,2,0,55,0,0
60797,-100,4,2,0,55,0,0
61702,-71.4285714285714,4,2,0,55,0,0
61832,-100,4,2,0,55,0,0
61961,-71.4285714285714,4,2,0,55,0,0
62090,-100,4,2,0,55,0,0
62220,-71.4285714285714,4,2,0,55,0,0
62349,-100,4,2,0,55,0,0
64806,-71.4285714285714,4,2,0,55,0,0
64935,-100,4,2,0,55,0,0
65064,-71.4285714285714,4,2,0,55,0,0
65194,-100,4,2,0,55,0,0
65323,-71.4285714285714,4,2,0,55,0,0
65452,-100,4,2,0,55,0,0
65582,-71.4285714285714,4,2,0,55,0,0
65711,-100,4,2,0,55,0,0
65840,-71.4285714285714,4,2,0,55,0,0
65970,-100,4,2,0,55,0,0
66358,-71.4285714285714,4,2,0,55,0,0
66487,-100,4,2,0,55,0,0
66616,-71.4285714285714,4,2,0,55,0,0
66745,-100,4,2,0,55,0,0
66875,-83.3333333333333,4,2,0,55,0,0
67004,-100,4,2,0,55,0,0
67909,-83.3333333333333,4,2,0,55,0,0
68039,-100,4,2,0,55,0,0
68944,-83.3333333333333,4,2,0,55,0,0
69073,-100,4,2,0,55,0,0
69978,-83.3333333333333,4,2,0,55,0,0
70108,-100,4,2,0,55,0,0
71013,-83.3333333333333,4,2,0,55,0,0
71142,-100,4,2,0,55,0,0
72047,-83.3333333333333,4,2,0,55,0,0
72176,-100,4,2,0,55,0,0
73082,-71.4285714285714,4,2,0,55,0,0
73211,-100,4,2,0,55,0,0
73599,-71.4285714285714,4,2,0,55,0,0
73728,-100,4,2,0,55,0,0
74116,-71.4285714285714,4,2,0,55,0,0
74245,-100,4,2,0,55,0,0
74633,-71.4285714285714,4,2,0,55,0,0
74763,-100,4,2,0,55,0,0
74892,-71.4285714285714,4,2,0,55,0,0
75021,-100,4,2,0,55,0,0
75151,-71.4285714285714,4,2,0,55,0,0
75280,-100,4,2,0,55,0,0
76185,-83.3333333333333,4,2,0,55,0,0
76314,-100,4,2,0,55,0,0
77220,-71.4285714285714,4,2,0,55,0,0
77349,-100,4,2,0,55,0,0
77737,-71.4285714285714,4,2,0,55,0,0
77866,-100,4,2,0,55,0,0
78254,-71.4285714285714,4,2,0,55,0,0
78383,-100,4,2,0,55,0,0
79289,-83.3333333333333,4,2,0,55,0,0
79418,-100,4,2,0,55,0,0
80323,-83.3333333333333,4,2,0,55,0,0
80452,-100,4,2,0,55,0,0
81358,-71.4285714285714,4,2,0,55,0,0
81487,-100,4,2,0,55,0,0
81616,-71.4285714285714,4,2,0,55,0,0
81745,-100,4,2,0,55,0,0
81875,-71.4285714285714,4,2,0,55,0,0
82004,-100,4,2,0,55,0,0
82133,-71.4285714285714,4,2,0,55,0,0
82263,-100,4,2,0,55,0,0
82392,-71.4285714285714,4,2,0,55,0,0
82521,-100,4,2,0,55,0,0
82909,-71.4285714285714,4,2,0,55,0,0
83039,-100,4,2,0,55,0,0
83168,-71.4285714285714,4,2,0,55,0,0
83297,-100,4,2,0,55,0,0
83426,-71.4285714285714,4,2,0,55,0,0
83556,-100,4,2,0,55,0,0
84202,-83.3333333333333,4,2,0,55,0,0
84332,-100,4,2,0,55,0,0
85495,-83.3333333333333,4,2,0,55,0,0
85625,-100,4,2,0,55,0,0
86271,-83.3333333333333,4,2,0,55,0,0
86401,-100,4,2,0,55,0,0
87564,-83.3333333333333,4,2,0,55,0,0
87694,-100,4,2,0,55,0,0
88340,-83.3333333333333,4,2,0,55,0,0
88470,-100,4,2,0,55,0,0
89633,-83.3333333333333,4,2,0,55,0,0
89763,-100,4,2,0,55,0,0
90409,-83.3333333333333,4,2,0,55,0,0
90539,-100,4,2,0,55,0,0
91702,-83.3333333333333,4,2,0,55,0,0
91832,-100,4,2,0,55,0,0
92478,-83.3333333333333,4,2,0,55,0,0
92608,-100,4,2,0,55,0,0
93771,-83.3333333333333,4,2,0,55,0,0
93901,-100,4,2,0,55,0,0
94547,-83.3333333333333,4,2,0,55,0,0
94676,-100,4,2,0,55,0,0
95840,-83.3333333333333,4,2,0,55,0,0
95970,-100,4,2,0,55,0,0
96875,-83.3333333333333,4,2,0,55,0,0
97004,-100,4,2,0,55,0,0
97909,-71.4285714285714,4,2,0,55,0,0
98039,-100,4,2,0,55,0,0
98168,-71.4285714285714,4,2,0,55,0,0
98297,-100,4,2,0,55,0,0
98426,-71.4285714285714,4,2,0,55,0,0
98556,-100,4,2,0,55,0,0
98685,-71.4285714285714,4,2,0,55,0,0
98814,-100,4,2,0,55,0,0
98944,-71.4285714285714,4,2,0,55,0,0
99073,-100,4,2,0,55,0,0
99461,-71.4285714285714,4,2,0,55,0,0
99590,-100,4,2,0,55,0,0
99978,-83.3333333333333,4,2,0,55,0,0
100108,-100,4,2,0,55,0,0
101013,-83.3333333333333,4,2,0,55,0,0
101142,-100,4,2,0,55,0,0
102047,-83.3333333333333,4,2,0,55,0,0
102176,-100,4,2,0,55,0,0
103082,-83.3333333333333,4,2,0,55,0,0
103211,-100,4,2,0,55,0,0
104116,-83.3333333333333,4,2,0,55,0,0
104245,-100,4,2,0,55,0,0
105151,-83.3333333333333,4,2,0,55,0,0
105280,-100,4,2,0,55,0,0
106185,-83.3333333333333,4,2,0,55,0,0
106314,-100,4,2,0,55,0,0
107220,-71.4285714285714,4,2,0,55,0,0
107349,-100,4,2,0,55,0,0
107478,-71.4285714285714,4,2,0,55,0,0
107608,-100,4,2,0,55,0,0
107737,-71.4285714285714,4,2,0,55,0,0
107866,-100,4,2,0,55,0,0
108254,-83.3333333333333,4,2,0,55,0,0
108383,-100,4,2,0,55,0,0
109030,-83.3333333333333,4,2,0,55,0,0
109159,-100,4,2,0,55,0,0
109806,-83.3333333333333,4,2,0,55,0,0
109935,-100,4,2,0,55,0,0
110323,-71.4285714285714,4,2,0,55,0,0
110452,-100,4,2,0,55,0,0
110840,-71.4285714285714,4,2,0,55,0,0
110970,-100,4,2,0,55,0,0
111099,-71.4285714285714,4,2,0,55,0,0
111228,-100,4,2,0,55,0,0
111875,-83.3333333333333,4,2,0,55,0,0
112004,-100,4,2,0,55,0,0
112392,-83.3333333333333,4,2,0,55,0,0
112521,-100,4,2,0,55,0,0
113426,-83.3333333333333,4,2,0,55,0,0
113556,-100,4,2,0,55,0,0
114461,-71.4285714285714,4,2,0,55,0,0
114590,-100,4,2,0,55,0,0
114720,-71.4285714285714,4,2,0,55,0,0
114849,-100,4,2,0,55,0,0
114978,-71.4285714285714,4,2,0,55,0,0
115108,-100,4,2,0,55,0,0
115237,-71.4285714285714,4,2,0,55,0,0
115366,-100,4,2,0,55,0,0
115495,-71.4285714285714,4,2,0,55,0,0
115625,-100,4,2,0,55,0,0

[HitObjects]
64,192,733,5,0,0:0:0:0:
192,192,819,128,2,1077:0:0:0:0:
448,192,1767,1,0,0:0:0:0:
192,192,1853,128,2,2112:0:0:0:0:
192,192,2543,1,0,0:0:0:0:
320,192,2629,1,0,0:0:0:0:
448,192,3146,1,0,0:0:0:0:
64,192,3319,1,0,0:0:0:0:
320,192,3836,1,0,0:0:0:0:
192,192,4267,1,0,0:0:0:0:
448,192,4353,1,0,0:0:0:0:
320,192,4439,128,0,5043:0:0:0:0:
64,192,5388,1,0,0:0:0:0:
192,192,5388,128,2,5905:0:0:0:0:
320,192,5905,1,0,0:0:0:0:
320,192,6336,1,0,0:0:0:0:
192,192,6422,1,0,0:0:0:0:
448,192,6422,128,2,6939:0:0:0:0:
64,192,6939,1,8,0:0:0:0:
192,192,7370,1,0,0:0:0:0:
320,192,7457,128,2,7715:0:0:0:0:
64,192,7715,1,8,0:0:0:0:
64,192,7974,1,2,0:0:0:0:
192,192,8233,1,0,0:0:0:0:
64,192,8362,1,0,0:0:0:0:
448,192,8491,128,8,8750:0:0:0:0:
320,192,8491,1,8,0:0:0:0:
64,192,8620,1,0,0:0:0:0:
192,192,8750,1,0,0:0:0:0:
64,192,8879,1,0,0:0:0:0:
320,192,9008,1,0,0:0:0:0:
448,192,9008,1,0,0:0:0:0:
64,192,9138,1,0,0:0:0:0:
448,192,9267,1,0,0:0:0:0:
192,192,9396,1,2,0:0:0:0:
448,192,9526,1,8,0:0:0:0:
320,192,9526,128,8,9784:0:0:0:0:
64,192,9655,1,2,0:0:0:0:
192,192,9784,1,0,0:0:0:0:
64,192,9914,1,0,0:0:0:0:
192,192,9978,1,0,0:0:0:0:
320,192,10043,1,0,0:0:0:0:
64,192,10172,1,0,0:0:0:0:
320,192,10301,1,0,0:0:0:0:
192,192,10431,1,0,0:0:0:0:
448,192,10431,128,2,10689:0:0:0:0:
320,192,10560,1,0,0:0:0:0:
64,192,10689,1,2,0:0:0:0:
320,192,10819,1,0,0:0:0:0:
64,192,10948,1,0,0:0:0:0:
192,192,11013,1,0,0:0:0:0:
320,192,11077,1,0,0:0:0:0:
192,192,11207,1,0,0:0:0:0:
448,192,11336,1,0,0:0:0:0:
64,192,11465,1,0,0:0:0:0:
192,192,11465,128,2,11724:0:0:0:0:
448,192,11595,1,0,0:0:0:0:
320,192,11724,1,2,0:0:0:0:
64,192,11853,1,0,0:0:0:0:
320,192,11983,1,0,0:0:0:0:
192,192,12112,1,0,0:0:0:0:
448,192,12241,1,0,0:0:0:0:
192,192,12370,1,0,0:0:0:0:
64,192,12500,1,0,0:0:0:0:
320,192,12500,1,0,0:0:0:0:
448,192,12629,1,0,0:0:0:0:
320,192,12694,1,0,0:0:0:0:
64,192,12758,128,0,12888:0:0:0:0:
192,192,12758,1,0,0:0:0:0:
320,192,12888,1,0,0:0:0:0:
448,192,13017,1,0,0:0:0:0:
192,192,13146,128,0,13405:0:0:0:0:
64,192,13276,1,0,0:0:0:0:
448,192,13405,1,0,0:0:0:0:
64,192,13534,1,2,0:0:0:0:
448,192,13664,1,0,0:0:0:0:
320,192,13728,1,0,0:0:0:0:
192,192,13793,1,0,0:0:0:0:
64,192,13793,128,2,13922:0:0:0:0:
320,192,13922,1,0,0:0:0:0:
64,192,14051,1,0,0:0:0:0:
448,192,14181,1,0,0:0:0:0:
192,192,14310,1,0,0:0:0:0:
448,192,14439,1,0,0:0:0:0:
64,192,14569,1,2,0:0:0:0:
448,192,14698,1,0,0:0:0:0:
320,192,14763,1,0,0:0:0:0:
192,192,14827,1,0,0:0:0:0:
64,192,14827,128,2,14957:0:0:0:0:
320,192,14957,1,0,0:0:0:0:
64,192,15086,1,0,0:0:0:0:
320,192,15215,1,0,0:0:0:0:
448,192,15345,1,0,0:0:0:0:
192,192,15474,1,0,0:0:0:0:
64,192,15603,1,2,0:0:0:0:
320,192,15733,128,0,15991:0:0:0:0:
448,192,15862,1,2,0:0:0:0:
64,192,15991,1,0,0:0:0:0:
192,192,16120,1,0,0:0:0:0:
64,192,16250,1,8,0:0:0:0:
448,192,16250,1,8,0:0:0:0:
320,192,16250,1,8,0:0:0:0:
320,192,16767,128,0,17284:0:0:0:0:
64,192,17026,128,0,17284:0:0:0:0:
192,192,17284,128,8,18319:0:0:0:0:
448,192,17284,1,0,0:0:0:0:
64,192,17414,1,0,0:0:0:0:
320,192,17543,1,0,0:0:0:0:
64,192,17672,1,0,0:0:0:0:
320,192,17801,1,8,0:0:0:0:
448,192,17801,1,2,0:0:0:0:
64,192,17931,1,0,0:0:0:0:
448,192,18060,1,8,0:0:0:0:
320,192,18125,1,8,0:0:0:0:
64,192,18189,1,8,0:0:0:0:
448,192,18319,1,8,0:0:0:0:
320,192,18319,1,8,0:0:0:0:
64,192,18577,1,0,0:0:0:0:
192,192,18707,1,0,0:0:0:0:
448,192,18836,1,0,0:0:0:0:
320,192,18965,1,0,0:0:0:0:
64,192,19095,1,0,0:0:0:0:
448,192,19224,1,0,0:0:0:0:
320,192,19353,128,8,20388:0:0:0:0:
192,192,19353,1,0,0:0:0:0:
448,192,19483,1,0,0:0:0:0:
64,192,19612,1,0,0:0:0:0:
448,192,19741,1,0,0:0:0:0:
192,192,19870,1,2,0:0:0:0:
64,192,19870,1,8,0:0:0:0:
448,192,20000,1,0,0:0:0:0:
64,192,20129,1,8,0:0:0:0:
192,192,20194,1,8,0:0:0:0:
448,192,20258,1,8,0:0:0:0:
64,192,20388,1,8,0:0:0:0:
192,192,20388,1,8,0:0:0:0:
448,192,20646,1,0,0:0:0:0:
192,192,20776,1,0,0:0:0:0:
320,192,20905,128,0,21422:0:0:0:0:
64,192,21034,1,0,0:0:0:0:
192,192,21164,128,0,21422:0:0:0:0:
64,192,21422,128,2,22457:0:0:0:0:
448,192,21422,1,8,0:0:0:0:
192,192,21551,1,0,0:0:0:0:
320,192,21681,1,0,0:0:0:0:
448,192,21810,1,0,0:0:0:0:
192,192,21939,1,0,0:0:0:0:
320,192,21939,1,0,0:0:0:0:
448,192,22069,1,0,0:0:0:0:
192,192,22198,1,0,0:0:0:0:
448,192,22263,1,8,0:0:0:0:
320,192,22327,1,8,0:0:0:0:
448,192,22392,1,8,0:0:0:0:
320,192,22457,128,2,23233:0:0:0:0:
192,192,22457,1,8,0:0:0:0:
448,192,22586,1,8,0:0:0:0:
192,192,22715,1,0,0:0:0:0:
64,192,22845,1,0,0:0:0:0:
192,192,22974,1,0,0:0:0:0:
448,192,22974,1,0,0:0:0:0:
64,192,23103,1,0,0:0:0:0:
448,192,23233,1,0,0:0:0:0:
64,192,23362,1,0,0:0:0:0:
448,192,23491,128,8,25043:0:0:0:0:
192,192,23491,1,8,0:0:0:0:
320,192,23620,1,0,0:0:0:0:
64,192,23750,1,8,0:0:0:0:
192,192,23814,1,8,0:0:0:0:
320,192,23879,1,8,0:0:0:0:
192,192,24008,1,0,0:0:0:0:
64,192,24138,1,0,0:0:0:0:
320,192,24267,1,0,0:0:0:0:
64,192,24396,1,0,0:0:0:0:
320,192,24526,1,0,0:0:0:0:
192,192,24526,1,0,0:0:0:0:
64,192,24655,1,0,0:0:0:0:
192,192,24784,1,0,0:0:0:0:
64,192,24914,1,8,0:0:0:0:
320,192,24978,1,8,0:0:0:0:
64,192,25043,128,8,25560:0:0:0:0:
192,192,25043,1,8,0:0:0:0:
320,192,25172,1,0,0:0:0:0:
448,192,25301,1,0,0:0:0:0:
320,192,25431,1,0,0:0:0:0:
192,192,25559,1,8,0:0:0:0:
448,192,25560,128,2,27112:0:0:0:0:
320,192,25819,1,0,0:0:0:0:
192,192,25948,1,0,0:0:0:0:
320,192,26077,1,0,0:0:0:0:
64,192,26207,1,0,0:0:0:0:
192,192,26335,1,8,0:0:0:0:
320,192,26336,1,2,0:0:0:0:
64,192,26400,1,0,0:0:0:0:
192,192,26465,1,0,0:0:0:0:
320,192,26595,1,0,0:0:0:0:
64,192,26724,1,0,0:0:0:0:
320,192,26853,1,0,0:0:0:0:
192,192,26983,1,0,0:0:0:0:
192,192,27112,128,2,27370:0:0:0:0:
64,192,27112,1,8,0:0:0:0:
320,192,27241,1,0,0:0:0:0:
448,192,27370,1,0,0:0:0:0:
320,192,27500,1,0,0:0:0:0:
448,192,27629,1,8,0:0:0:0:
64,192,27629,128,2,27888:0:0:0:0:
320,192,27694,1,8,0:0:0:0:
192,192,27758,1,8,0:0:0:0:
448,192,27888,1,0,0:0:0:0:
320,192,28017,1,0,0:0:0:0:
192,192,28082,1,0,0:0:0:0:
320,192,28146,128,2,28276:0:0:0:0:
192,192,28275,1,0,0:0:0:0:
64,192,28276,128,2,28405:0:0:0:0:
448,192,28404,128,2,28921:0:0:0:0:
320,192,28405,1,8,0:0:0:0:
192,192,28470,1,8,0:0:0:0:
64,192,28534,1,8,0:0:0:0:
192,192,28664,1,0,0:0:0:0:
64,192,28793,1,0,0:0:0:0:
320,192,28921,1,0,0:0:0:0:
64,192,29181,128,2,29310:0:0:0:0:
448,192,29310,1,0,0:0:0:0:
192,192,29439,1,0,0:0:0:0:
448,192,29569,1,0,0:0:0:0:
64,192,29697,128,2,29956:0:0:0:0:
192,192,29698,1,8,0:0:0:0:
448,192,29763,1,8,0:0:0:0:
320,192,29827,1,8,0:0:0:0:
448,192,29957,1,0,0:0:0:0:
64,192,30086,1,0,0:0:0:0:
448,192,30215,128,2,30345:0:0:0:0:
192,192,30215,1,8,0:0:0:0:
320,192,30344,1,8,0:0:0:0:
192,192,30473,1,0,0:0:0:0:
64,192,30602,1,0,0:0:0:0:
320,192,30732,1,8,0:0:0:0:
448,192,30732,128,2,30990:0:0:0:0:
192,192,30796,1,8,0:0:0:0:
64,192,30861,1,8,0:0:0:0:
320,192,30990,1,0,0:0:0:0:
192,192,31120,1,0,0:0:0:0:
320,192,31249,1,8,0:0:0:0:
64,192,31250,128,2,31379:0:0:0:0:
448,192,31378,1,0,0:0:0:0:
64,192,31767,1,8,0:0:0:0:
320,192,31767,1,2,0:0:0:0:
192,192,32026,1,2,0:0:0:0:
448,192,32026,1,8,0:0:0:0:
64,192,32284,1,8,0:0:0:0:
320,192,32284,1,2,0:0:0:0:
192,192,32414,1,0,0:0:0:0:
64,192,32542,1,2,0:0:0:0:
448,192,32543,1,8,0:0:0:0:
320,192,32607,1,8,0:0:0:0:
192,192,32671,1,8,0:0:0:0:
448,192,32801,1,8,0:0:0:0:
64,192,32801,128,8,33060:0:0:0:0:
320,192,32801,1,2,0:0:0:0:
64,192,33319,5,8,0:0:0:0:
192,192,33319,1,2,0:0:0:0:
448,192,33319,1,8,0:0:0:0:
320,192,33577,1,2,0:0:0:0:
448,192,33577,1,8,0:0:0:0:
64,192,33577,1,8,0:0:0:0:
192,192,33836,1,8,0:0:0:0:
448,192,33836,128,2,34353:0:0:0:0:
320,192,33965,1,0,0:0:0:0:
64,192,34095,1,0,0:0:0:0:
192,192,34223,1,0,0:0:0:0:
320,192,34352,1,8,0:0:0:0:
64,192,34353,1,8,0:0:0:0:
192,192,34417,1,8,0:0:0:0:
64,192,34482,1,8,0:0:0:0:
320,192,34611,1,0,0:0:0:0:
448,192,34740,1,0,0:0:0:0:
192,192,34870,1,0,0:0:0:0:
64,192,34999,1,0,0:0:0:0:
320,192,35129,1,0,0:0:0:0:
448,192,35258,1,8,0:0:0:0:
320,192,35323,1,8,0:0:0:0:
64,192,35388,128,8,35776:0:0:0:0:
192,192,35388,1,8,0:0:0:0:
448,192,35517,1,0,0:0:0:0:
192,192,35646,1,0,0:0:0:0:
320,192,35776,1,0,0:0:0:0:
192,192,35905,1,8,0:0:0:0:
448,192,35905,128,2,36034:0:0:0:0:
320,192,36034,1,0,0:0:0:0:
192,192,36163,128,2,36292:0:0:0:0:
64,192,36163,1,8,0:0:0:0:
448,192,36292,1,0,0:0:0:0:
64,192,36421,1,8,0:0:0:0:
320,192,36421,128,2,36939:0:0:0:0:
192,192,36486,1,8,0:0:0:0:
448,192,36551,1,8,0:0:0:0:
192,192,36681,1,0,0:0:0:0:
64,192,36810,1,0,0:0:0:0:
192,192,36939,1,0,0:0:0:0:
448,192,37068,1,0,0:0:0:0:
64,192,37197,1,0,0:0:0:0:
448,192,37327,1,8,0:0:0:0:
320,192,37392,1,8,0:0:0:0:
64,192,37457,128,8,37974:0:0:0:0:
192,192,37457,1,8,0:0:0:0:
448,192,37457,1,0,0:0:0:0:
320,192,37586,1,0,0:0:0:0:
192,192,37715,1,0,0:0:0:0:
448,192,37845,1,0,0:0:0:0:
320,192,37974,1,2,0:0:0:0:
192,192,37974,1,2,0:0:0:0:
448,192,38103,128,0,38233:0:0:0:0:
192,192,38233,1,2,0:0:0:0:
64,192,38233,128,2,38362:0:0:0:0:
320,192,38362,1,0,0:0:0:0:
64,192,38491,1,2,0:0:0:0:
448,192,38491,1,2,0:0:0:0:
192,192,38620,1,0,0:0:0:0:
320,192,38749,1,2,0:0:0:0:
64,192,38750,128,2,38879:0:0:0:0:
192,192,38879,1,2,0:0:0:0:
448,192,38879,128,2,39008:0:0:0:0:
320,192,39008,1,0,0:0:0:0:
64,192,39137,1,0,0:0:0:0:
192,192,39266,128,10,39525:0:0:0:0:
320,192,39267,1,8,0:0:0:0:
64,192,39396,1,0,0:0:0:0:
448,192,39461,1,0,0:0:0:0:
320,192,39526,1,2,0:0:0:0:
192,192,39655,1,0,0:0:0:0:
448,192,39784,1,0,0:0:0:0:
192,192,39914,1,0,0:0:0:0:
320,192,40042,1,8,0:0:0:0:
64,192,40043,1,0,0:0:0:0:
448,192,40043,128,2,40301:0:0:0:0:
192,192,40172,1,0,0:0:0:0:
320,192,40301,128,0,40560:0:0:0:0:
192,192,40430,1,8,0:0:0:0:
448,192,40559,1,8,0:0:0:0:
64,192,40560,128,2,40819:0:0:0:0:
192,192,40689,1,0,0:0:0:0:
320,192,40818,128,8,41335:0:0:0:0:
448,192,40819,1,0,0:0:0:0:
192,192,40947,1,0,0:0:0:0:
448,192,41077,1,8,0:0:0:0:
64,192,41077,1,8,0:0:0:0:
192,192,41206,1,0,0:0:0:0:
64,192,41335,1,0,0:0:0:0:
448,192,41465,1,0,0:0:0:0:
64,192,41594,1,8,0:0:0:0:
320,192,41594,128,2,41723:0:0:0:0:
448,192,41723,1,8,0:0:0:0:
192,192,41724,128,2,41853:0:0:0:0:
64,192,41853,1,8,0:0:0:0:
320,192,42112,1,0,0:0:0:0:
64,192,42241,1,0,0:0:0:0:
320,192,42370,128,0,42629:0:0:0:0:
192,192,42500,1,0,0:0:0:0:
448,192,42629,1,2,0:0:0:0:
64,192,42629,1,8,0:0:0:0:
192,192,42693,1,8,0:0:0:0:
320,192,42758,1,8,0:0:0:0:
64,192,42887,1,0,0:0:0:0:
192,192,43016,1,0,0:0:0:0:
448,192,43146,1,0,0:0:0:0:
192,192,43276,1,0,0:0:0:0:
448,192,43405,1,8,0:0:0:0:
320,192,43470,1,8,0:0:0:0:
192,192,43534,1,8,0:0:0:0:
320,192,43664,1,2,0:0:0:0:
64,192,43664,1,8,0:0:0:0:
192,192,43793,1,0,0:0:0:0:
320,192,43922,1,0,0:0:0:0:
448,192,44051,1,0,0:0:0:0:
320,192,44180,128,2,44309:0:0:0:0:
64,192,44181,1,8,0:0:0:0:
448,192,44245,1,0,0:0:0:0:
192,192,44309,1,8,0:0:0:0:
448,192,44439,1,8,0:0:0:0:
64,192,44439,128,2,44568:0:0:0:0:
192,192,44503,1,0,0:0:0:0:
320,192,44568,1,8,0:0:0:0:
192,192,44697,128,2,44956:0:0:0:0:
448,192,44698,1,8,0:0:0:0:
64,192,44827,1,0,0:0:0:0:
320,192,44957,1,0,0:0:0:0:
64,192,45085,1,0,0:0:0:0:
448,192,45215,1,8,0:0:0:0:
192,192,45215,1,8,0:0:0:0:
320,192,45345,1,0,0:0:0:0:
192,192,45474,1,0,0:0:0:0:
320,192,45602,1,8,0:0:0:0:
448,192,45667,1,8,0:0:0:0:
64,192,45732,1,8,0:0:0:0:
192,192,45732,128,2,45990:0:0:0:0:
448,192,45861,1,0,0:0:0:0:
320,192,45990,1,0,0:0:0:0:
64,192,46250,1,8,0:0:0:0:
448,192,46250,1,8,0:0:0:0:
320,192,46379,1,0,0:0:0:0:
64,192,46508,1,0,0:0:0:0:
320,192,46638,1,0,0:0:0:0:
192,192,46767,1,8,0:0:0:0:
320,192,46832,1,8,0:0:0:0:
64,192,46896,1,8,0:0:0:0:
448,192,47026,1,0,0:0:0:0:
192,192,47155,1,0,0:0:0:0:
320,192,47284,1,8,0:0:0:0:
64,192,47284,1,8,0:0:0:0:
192,192,47414,1,0,0:0:0:0:
320,192,47543,1,0,0:0:0:0:
448,192,47672,1,8,0:0:0:0:
192,192,47737,1,8,0:0:0:0:
64,192,47801,128,8,48060:0:0:0:0:
320,192,47801,1,8,0:0:0:0:
192,192,47931,1,0,0:0:0:0:
448,192,48060,1,0,0:0:0:0:
320,192,48319,1,8,0:0:0:0:
192,192,48319,128,2,48448:0:0:0:0:
448,192,48577,128,2,48707:0:0:0:0:
320,192,48577,1,8,0:0:0:0:
192,192,48836,1,8,0:0:0:0:
64,192,48836,128,2,48965:0:0:0:0:
448,192,48965,1,0,0:0:0:0:
192,192,49095,1,8,0:0:0:0:
320,192,49095,128,2,49224:0:0:0:0:
64,192,49224,1,0,0:0:0:0:
320,192,49352,1,8,0:0:0:0:
448,192,49353,1,8,0:0:0:0:
192,192,49353,1,2,0:0:0:0:
192,192,49870,1,8,0:0:0:0:
448,192,49870,1,2,0:0:0:0:
320,192,50129,1,8,0:0:0:0:
64,192,50129,1,2,0:0:0:0:
192,192,50388,1,0,0:0:0:0:
448,192,50388,128,2,51034:0:0:0:0:
320,192,50517,1,0,0:0:0:0:
64,192,50646,1,0,0:0:0:0:
320,192,50776,1,0,0:0:0:0:
192,192,50905,1,0,0:0:0:0:
320,192,51034,1,8,0:0:0:0:
192,192,51164,1,8,0:0:0:0:
320,192,51227,1,8,0:0:0:0:
448,192,51292,1,8,0:0:0:0:
64,192,51293,128,2,51551:0:0:0:0:
320,192,51421,1,0,0:0:0:0:
448,192,51551,1,0,0:0:0:0:
320,192,51680,1,8,0:0:0:0:
192,192,51745,1,8,0:0:0:0:
64,192,51809,1,8,0:0:0:0:
448,192,51810,128,2,52069:0:0:0:0:
192,192,51939,1,0,0:0:0:0:
64,192,52068,1,0,0:0:0:0:
192,192,52198,1,0,0:0:0:0:
64,192,52457,1,8,0:0:0:0:
192,192,52457,1,2,0:0:0:0:
320,192,52586,1,2,0:0:0:0:
448,192,52586,1,8,0:0:0:0:
192,192,52715,128,8,53233:0:0:0:0:
64,192,52715,1,2,0:0:0:0:
320,192,52845,1,0,0:0:0:0:
448,192,52974,1,0,0:0:0:0:
64,192,53103,1,0,0:0:0:0:
320,192,53233,1,0,0:0:0:0:
448,192,53491,1,8,0:0:0:0:
320,192,53491,1,2,0:0:0:0:
192,192,53620,1,2,0:0:0:0:
64,192,53620,1,8,0:0:0:0:
448,192,53750,128,8,54008:0:0:0:0:
320,192,53750,1,2,0:0:0:0:
192,192,53878,1,0,0:0:0:0:
320,192,54008,1,8,0:0:0:0:
192,192,54072,1,8,0:0:0:0:
64,192,54137,1,8,0:0:0:0:
448,192,54267,1,2,0:0:0:0:
64,192,54396,1,0,0:0:0:0:
192,192,54526,1,8,0:0:0:0:
448,192,54526,128,2,55043:0:0:0:0:
320,192,54655,1,0,0:0:0:0:
64,192,54784,1,0,0:0:0:0:
320,192,54914,1,0,0:0:0:0:
192,192,55042,1,8,0:0:0:0:
64,192,55108,1,8,0:0:0:0:
320,192,55172,1,8,0:0:0:0:
448,192,55301,1,8,0:0:0:0:
192,192,55301,128,2,55819:0:0:0:0:
64,192,55431,1,0,0:0:0:0:
448,192,55560,1,0,0:0:0:0:
64,192,55689,1,0,0:0:0:0:
320,192,55819,1,0,0:0:0:0:
448,192,55948,1,8,0:0:0:0:
320,192,56012,1,8,0:0:0:0:
192,192,56077,1,8,0:0:0:0:
64,192,56077,128,2,56207:0:0:0:0:
448,192,56336,128,2,56465:0:0:0:0:
192,192,56336,1,8,0:0:0:0:
64,192,56595,128,2,56853:0:0:0:0:
192,192,56595,1,8,0:0:0:0:
320,192,56659,1,8,0:0:0:0:
448,192,56724,1,8,0:0:0:0:
320,192,56853,1,0,0:0:0:0:
448,192,56983,1,0,0:0:0:0:
320,192,57112,128,2,57370:0:0:0:0:
192,192,57112,1,8,0:0:0:0:
448,192,57176,1,8,0:0:0:0:
64,192,57241,1,8,0:0:0:0:
448,192,57370,1,0,0:0:0:0:
64,192,57500,1,0,0:0:0:0:
192,192,57629,128,2,57888:0:0:0:0:
320,192,57629,1,8,0:0:0:0:
448,192,57694,1,8,0:0:0:0:
64,192,57758,1,8,0:0:0:0:
448,192,57888,1,0,0:0:0:0:
64,192,58017,1,0,0:0:0:0:
448,192,58146,128,2,58405:0:0:0:0:
320,192,58146,1,8,0:0:0:0:
192,192,58211,1,8,0:0:0:0:
64,192,58276,1,8,0:0:0:0:
192,192,58405,1,0,0:0:0:0:
320,192,58664,1,2,0:0:0:0:
64,192,58664,1,8,0:0:0:0:
448,192,58664,1,8,0:0:0:0:
448,192,58922,1,8,0:0:0:0:
192,192,58922,1,2,0:0:0:0:
64,192,58922,1,8,0:0:0:0:
64,192,59181,1,8,0:0:0:0:
320,192,59181,1,2,0:0:0:0:
448,192,59439,128,2,59698:0:0:0:0:
192,192,59439,1,8,0:0:0:0:
320,192,59569,1,0,0:0:0:0:
192,192,59698,1,8,0:0:0:0:
64,192,59698,1,0,0:0:0:0:
448,192,59957,1,2,0:0:0:0:
192,192,59957,1,8,0:0:0:0:
64,192,60215,1,2,0:0:0:0:
320,192,60215,1,8,0:0:0:0:
192,192,60474,1,8,0:0:0:0:
448,192,60474,128,2,60733:0:0:0:0:
320,192,60603,1,0,0:0:0:0:
64,192,60733,1,0,0:0:0:0:
320,192,60862,1,0,0:0:0:0:
192,192,60991,1,2,0:0:0:0:
448,192,60991,128,0,61250:0:0:0:0:
64,192,61250,1,0,0:0:0:0:
320,192,61379,1,0,0:0:0:0:
64,192,61508,1,0,0:0:0:0:
320,192,61638,1,0,0:0:0:0:
448,192,61767,128,2,62284:0:0:0:0:
192,192,61767,1,8,0:0:0:0:
64,192,62026,1,8,0:0:0:0:
320,192,62026,128,2,62155:0:0:0:0:
192,192,62284,1,8,0:0:0:0:
64,192,62284,128,2,62414:0:0:0:0:
320,192,62414,128,0,62543:0:0:0:0:
192,192,62543,1,0,0:0:0:0:
64,192,62801,128,2,63060:0:0:0:0:
320,192,62801,1,8,0:0:0:0:
192,192,62931,1,0,0:0:0:0:
448,192,63060,1,0,0:0:0:0:
192,192,63189,1,0,0:0:0:0:
320,192,63319,1,0,0:0:0:0:
64,192,63448,1,0,0:0:0:0:
320,192,63577,128,2,63836:0:0:0:0:
192,192,63577,1,8,0:0:0:0:
448,192,63707,1,0,0:0:0:0:
64,192,63836,1,0,0:0:0:0:
448,192,63965,1,0,0:0:0:0:
192,192,64095,1,0,0:0:0:0:
320,192,64224,1,0,0:0:0:0:
64,192,64353,1,8,0:0:0:0:
448,192,64353,128,2,64612:0:0:0:0:
320,192,64483,1,0,0:0:0:0:
64,192,64612,1,0,0:0:0:0:
448,192,64741,1,0,0:0:0:0:
64,192,64870,128,2,65000:0:0:0:0:
192,192,64870,1,8,0:0:0:0:
320,192,65129,1,8,0:0:0:0:
448,192,65129,128,2,65258:0:0:0:0:
64,192,65387,1,8,0:0:0:0:
192,192,65388,128,2,65517:0:0:0:0:
320,192,65516,1,0,0:0:0:0:
64,192,65646,1,8,0:0:0:0:
448,192,65646,128,2,65776:0:0:0:0:
192,192,65776,1,0,0:0:0:0:
64,192,65904,128,2,66033:0:0:0:0:
320,192,65905,1,8,0:0:0:0:
64,192,66422,1,8,0:0:0:0:
192,192,66422,1,2,0:0:0:0:
448,192,66422,1,8,0:0:0:0:
448,192,66681,1,8,0:0:0:0:
320,192,66681,1,2,0:0:0:0:
64,192,66681,1,8,0:0:0:0:
192,192,66939,1,8,0:0:0:0:
320,192,66939,1,8,0:0:0:0:
448,192,66939,128,2,67457:0:0:0:0:
64,192,67069,1,0,0:0:0:0:
320,192,67198,1,0,0:0:0:0:
192,192,67327,1,0,0:0:0:0:
320,192,67457,1,0,0:0:0:0:
192,192,67586,1,0,0:0:0:0:
64,192,67715,128,2,67974:0:0:0:0:
320,192,67715,1,8,0:0:0:0:
448,192,67845,1,0,0:0:0:0:
192,192,67974,1,0,0:0:0:0:
448,192,68103,1,0,0:0:0:0:
320,192,68233,128,8,68491:0:0:0:0:
448,192,68362,1,0,0:0:0:0:
192,192,68491,1,0,0:0:0:0:
448,192,68620,1,0,0:0:0:0:
192,192,68750,1,0,0:0:0:0:
320,192,68879,1,0,0:0:0:0:
448,192,69008,1,8,0:0:0:0:
192,192,69008,1,8,0:0:0:0:
64,192,69008,128,2,70301:0:0:0:0:
320,192,69072,1,8,0:0:0:0:
192,192,69137,1,8,0:0:0:0:
448,192,69266,1,0,0:0:0:0:
320,192,69396,1,0,0:0:0:0:
448,192,69525,1,8,0:0:0:0:
192,192,69525,1,8,0:0:0:0:
320,192,69590,1,8,0:0:0:0:
448,192,69654,1,8,0:0:0:0:
192,192,69783,1,0,0:0:0:0:
320,192,69913,1,0,0:0:0:0:
192,192,70042,1,8,0:0:0:0:
448,192,70042,1,8,0:0:0:0:
320,192,70107,1,8,0:0:0:0:
192,192,70171,1,8,0:0:0:0:
448,192,70301,1,0,0:0:0:0:
320,192,70431,1,0,0:0:0:0:
448,192,70559,1,8,0:0:0:0:
192,192,70559,1,8,0:0:0:0:
64,192,70689,1,0,0:0:0:0:
192,192,70819,1,0,0:0:0:0:
448,192,70948,1,0,0:0:0:0:
64,192,71077,1,8,0:0:0:0:
320,192,71077,128,2,71336:0:0:0:0:
448,192,71207,1,0,0:0:0:0:
192,192,71336,1,0,0:0:0:0:
448,192,71465,1,0,0:0:0:0:
64,192,71595,1,8,0:0:0:0:
192,192,71595,1,0,0:0:0:0:
448,192,71724,1,0,0:0:0:0:
192,192,71853,1,0,0:0:0:0:
64,192,71983,1,0,0:0:0:0:
448,192,72112,1,0,0:0:0:0:
192,192,72112,128,2,72370:0:0:0:0:
64,192,72241,1,0,0:0:0:0:
320,192,72370,1,0,0:0:0:0:
64,192,72500,1,0,0:0:0:0:
320,192,72628,1,0,0:0:0:0:
448,192,72629,1,8,0:0:0:0:
64,192,72758,1,0,0:0:0:0:
192,192,72887,1,0,0:0:0:0:
320,192,73017,1,0,0:0:0:0:
192,192,73146,1,8,0:0:0:0:
448,192,73146,1,8,0:0:0:0:
64,192,73146,128,2,73405:0:0:0:0:
320,192,73210,1,0,0:0:0:0:
192,192,73275,1,0,0:0:0:0:
448,192,73405,1,0,0:0:0:0:
192,192,73534,1,0,0:0:0:0:
64,192,73664,1,8,0:0:0:0:
320,192,73664,1,8,0:0:0:0:
448,192,73664,128,2,73922:0:0:0:0:
192,192,73727,1,8,0:0:0:0:
320,192,73792,1,8,0:0:0:0:
64,192,73922,1,0,0:0:0:0:
320,192,74051,1,0,0:0:0:0:
192,192,74181,1,8,0:0:0:0:
64,192,74181,128,2,74439:0:0:0:0:
448,192,74181,1,8,0:0:0:0:
320,192,74245,1,8,0:0:0:0:
192,192,74309,1,8,0:0:0:0:
448,192,74439,1,0,0:0:0:0:
320,192,74569,1,0,0:0:0:0:
192,192,74698,1,2,0:0:0:0:
64,192,74698,1,8,0:0:0:0:
448,192,74698,1,8,0:0:0:0:
320,192,74957,1,2,0:0:0:0:
448,192,74957,1,8,0:0:0:0:
64,192,74957,1,8,0:0:0:0:
64,192,75215,128,2,75733:0:0:0:0:
320,192,75215,1,8,0:0:0:0:
192,192,75345,1,0,0:0:0:0:
448,192,75474,1,0,0:0:0:0:
320,192,75603,1,0,0:0:0:0:
192,192,75733,1,0,0:0:0:0:
320,192,75991,128,2,76508:0:0:0:0:
192,192,75991,1,8,0:0:0:0:
64,192,76120,1,0,0:0:0:0:
448,192,76250,1,0,0:0:0:0:
192,192,76379,1,0,0:0:0:0:
64,192,76508,1,0,0:0:0:0:
448,192,76638,1,0,0:0:0:0:
320,192,76767,1,0,0:0:0:0:
448,192,76832,1,0,0:0:0:0:
192,192,76896,1,0,0:0:0:0:
64,192,76961,1,0,0:0:0:0:
320,192,77026,128,0,77155:0:0:0:0:
448,192,77155,1,0,0:0:0:0:
64,192,77283,1,8,0:0:0:0:
192,192,77284,128,2,77543:0:0:0:0:
320,192,77413,1,0,0:0:0:0:
448,192,77543,1,0,0:0:0:0:
64,192,77672,1,0,0:0:0:0:
448,192,77801,1,8,0:0:0:0:
320,192,77801,128,2,78060:0:0:0:0:
64,192,77930,1,0,0:0:0:0:
192,192,78059,1,0,0:0:0:0:
448,192,78189,1,0,0:0:0:0:
64,192,78318,128,2,78835:0:0:0:0:
192,192,78319,1,8,0:0:0:0:
320,192,78383,1,8,0:0:0:0:
448,192,78448,1,8,0:0:0:0:
320,192,78577,1,0,0:0:0:0:
192,192,78706,1,0,0:0:0:0:
448,192,78835,1,0,0:0:0:0:
192,192,79095,1,8,0:0:0:0:
64,192,79095,1,8,0:0:0:0:
448,192,79224,1,0,0:0:0:0:
192,192,79353,128,2,80129:0:0:0:0:
320,192,79353,1,8,0:0:0:0:
64,192,79483,1,0,0:0:0:0:
448,192,79612,1,0,0:0:0:0:
320,192,79741,1,0,0:0:0:0:
448,192,79870,1,0,0:0:0:0:
64,192,80000,1,0,0:0:0:0:
320,192,80129,1,0,0:0:0:0:
448,192,80258,1,0,0:0:0:0:
320,192,80388,128,2,80905:0:0:0:0:
192,192,80388,1,8,0:0:0:0:
64,192,80517,1,0,0:0:0:0:
448,192,80646,1,0,0:0:0:0:
64,192,80776,1,0,0:0:0:0:
448,192,80905,1,0,0:0:0:0:
192,192,81034,1,0,0:0:0:0:
320,192,81164,1,0,0:0:0:0:
448,192,81422,128,2,81551:0:0:0:0:
320,192,81422,1,8,0:0:0:0:
64,192,81681,128,2,81810:0:0:0:0:
192,192,81681,1,8,0:0:0:0:
448,192,81939,128,2,82069:0:0:0:0:
320,192,81939,1,8,0:0:0:0:
192,192,82069,1,0,0:0:0:0:
64,192,82198,128,2,82327:0:0:0:0:
320,192,82198,1,8,0:0:0:0:
192,192,82327,1,0,0:0:0:0:
448,192,82457,128,2,82974:0:0:0:0:
320,192,82457,1,8,0:0:0:0:
64,192,82974,1,8,0:0:0:0:
192,192,82974,128,8,83233:0:0:0:0:
448,192,83233,1,8,0:0:0:0:
320,192,83233,128,8,83491:0:0:0:0:
448,192,83490,128,2,84008:0:0:0:0:
192,192,83491,1,8,0:0:0:0:
64,192,83620,1,0,0:0:0:0:
320,192,83750,1,0,0:0:0:0:
192,192,83879,1,0,0:0:0:0:
64,192,84008,1,8,0:0:0:0:
320,192,84008,1,8,0:0:0:0:
192,192,84138,1,0,0:0:0:0:
448,192,84267,128,2,85043:0:0:0:0:
320,192,84267,1,8,0:0:0:0:
64,192,84396,1,0,0:0:0:0:
320,192,84526,1,8,0:0:0:0:
192,192,84526,1,8,0:0:0:0:
64,192,84654,1,0,0:0:0:0:
192,192,84783,1,0,0:0:0:0:
320,192,84914,1,0,0:0:0:0:
192,192,85042,1,8,0:0:0:0:
64,192,85042,1,0,0:0:0:0:
320,192,85108,1,8,0:0:0:0:
448,192,85171,1,8,0:0:0:0:
192,192,85301,1,0,0:0:0:0:
448,192,85560,128,2,86077:0:0:0:0:
320,192,85560,1,8,0:0:0:0:
192,192,85689,1,0,0:0:0:0:
64,192,85819,1,0,0:0:0:0:
192,192,85948,1,0,0:0:0:0:
64,192,86077,1,8,0:0:0:0:
320,192,86077,1,8,0:0:0:0:
192,192,86206,1,0,0:0:0:0:
64,192,86335,1,8,0:0:0:0:
448,192,86336,128,2,87112:0:0:0:0:
320,192,86465,1,0,0:0:0:0:
64,192,86594,1,8,0:0:0:0:
192,192,86594,1,8,0:0:0:0:
320,192,86723,1,0,0:0:0:0:
64,192,86853,1,0,0:0:0:0:
192,192,86982,1,0,0:0:0:0:
320,192,87111,1,8,0:0:0:0:
64,192,87112,1,0,0:0:0:0:
192,192,87176,1,8,0:0:0:0:
64,192,87240,1,8,0:0:0:0:
448,192,87370,1,0,0:0:0:0:
192,192,87629,128,2,88146:0:0:0:0:
448,192,87629,1,8,0:0:0:0:
64,192,87758,1,0,0:0:0:0:
320,192,87887,1,0,0:0:0:0:
64,192,88016,1,0,0:0:0:0:
448,192,88146,1,8,0:0:0:0:
320,192,88146,1,8,0:0:0:0:
64,192,88276,1,0,0:0:0:0:
448,192,88405,1,8,0:0:0:0:
192,192,88405,128,0,89181:0:0:0:0:
64,192,88534,1,0,0:0:0:0:
448,192,88664,1,8,0:0:0:0:
320,192,88664,1,8,0:0:0:0:
64,192,88792,1,0,0:0:0:0:
448,192,88921,1,0,0:0:0:0:
320,192,89051,1,0,0:0:0:0:
64,192,89180,1,0,0:0:0:0:
448,192,89180,1,8,0:0:0:0:
320,192,89245,1,8,0:0:0:0:
192,192,89309,1,8,0:0:0:0:
64,192,89439,1,0,0:0:0:0:
64,192,89698,128,2,90215:0:0:0:0:
192,192,89698,1,8,0:0:0:0:
448,192,89827,1,0,0:0:0:0:
192,192,89957,1,0,0:0:0:0:
448,192,90086,1,0,0:0:0:0:
320,192,90215,1,8,0:0:0:0:
192,192,90215,1,8,0:0:0:0:
448,192,90345,1,0,0:0:0:0:
64,192,90474,128,2,91250:0:0:0:0:
192,192,90474,1,8,0:0:0:0:
320,192,90603,1,0,0:0:0:0:
448,192,90732,1,8,0:0:0:0:
192,192,90733,1,8,0:0:0:0:
320,192,90861,1,0,0:0:0:0:
192,192,90990,1,0,0:0:0:0:
320,192,91120,1,0,0:0:0:0:
448,192,91249,1,0,0:0:0:0:
192,192,91250,1,8,0:0:0:0:
320,192,91314,1,8,0:0:0:0:
448,192,91378,1,8,0:0:0:0:
192,192,91508,1,0,0:0:0:0:
320,192,91767,1,8,0:0:0:0:
448,192,91767,128,2,92284:0:0:0:0:
192,192,91896,1,0,0:0:0:0:
320,192,92026,1,0,0:0:0:0:
64,192,92155,1,0,0:0:0:0:
192,192,92284,1,8,0:0:0:0:
320,192,92284,1,8,0:0:0:0:
64,192,92413,1,0,0:0:0:0:
448,192,92543,128,2,93319:0:0:0:0:
320,192,92543,1,8,0:0:0:0:
64,192,92672,1,0,0:0:0:0:
192,192,92801,1,8,0:0:0:0:
320,192,92801,1,8,0:0:0:0:
64,192,92930,1,0,0:0:0:0:
320,192,93059,1,0,0:0:0:0:
192,192,93189,1,0,0:0:0:0:
320,192,93318,1,8,0:0:0:0:
64,192,93319,1,0,0:0:0:0:
192,192,93383,1,8,0:0:0:0:
64,192,93447,1,8,0:0:0:0:
320,192,93577,1,0,0:0:0:0:
448,192,93836,128,2,94353:0:0:0:0:
320,192,93836,1,8,0:0:0:0:
64,192,93965,1,0,0:0:0:0:
320,192,94095,1,0,0:0:0:0:
192,192,94224,1,0,0:0:0:0:
64,192,94353,1,8,0:0:0:0:
320,192,94353,1,8,0:0:0:0:
192,192,94482,1,0,0:0:0:0:
64,192,94611,1,8,0:0:0:0:
448,192,94612,128,2,95388:0:0:0:0:
320,192,94740,1,0,0:0:0:0:
192,192,94870,1,8,0:0:0:0:
64,192,94870,1,8,0:0:0:0:
320,192,94999,1,0,0:0:0:0:
64,192,95129,1,0,0:0:0:0:
320,192,95258,1,0,0:0:0:0:
64,192,95387,1,8,0:0:0:0:
320,192,95387,1,0,0:0:0:0:
192,192,95452,1,8,0:0:0:0:
320,192,95516,1,8,0:0:0:0:
320,192,95905,128,2,96939:0:0:0:0:
64,192,95905,1,8,0:0:0:0:
448,192,96034,1,0,0:0:0:0:
192,192,96164,1,0,0:0:0:0:
64,192,96293,1,0,0:0:0:0:
192,192,96422,1,2,0:0:0:0:
448,192,96422,1,8,0:0:0:0:
64,192,96551,1,0,0:0:0:0:
448,192,96681,1,0,0:0:0:0:
64,192,96810,1,0,0:0:0:0:
192,192,96939,128,2,97974:0:0:0:0:
448,192,96939,1,8,0:0:0:0:
320,192,97069,1,0,0:0:0:0:
64,192,97198,1,0,0:0:0:0:
320,192,97327,1,0,0:0:0:0:
448,192,97457,1,8,0:0:0:0:
64,192,97457,1,2,0:0:0:0:
320,192,97586,1,0,0:0:0:0:
448,192,97715,1,0,0:0:0:0:
64,192,97845,1,0,0:0:0:0:
448,192,97974,128,2,99008:0:0:0:0:
320,192,97974,1,0,0:0:0:0:
64,192,98103,1,8,0:0:0:0:
192,192,98233,1,8,0:0:0:0:
64,192,98362,1,8,0:0:0:0:
320,192,98491,1,8,0:0:0:0:
192,192,98491,1,2,0:0:0:0:
320,192,98620,1,0,0:0:0:0:
192,192,98750,1,8,0:0:0:0:
64,192,98750,1,2,0:0:0:0:
64,192,98879,1,0,0:0:0:0:
192,192,99008,1,8,0:0:0:0:
320,192,99008,1,2,0:0:0:0:
320,192,99526,128,8,100043:0:0:0:0:
64,192,99526,1,8,0:0:0:0:
192,192,99784,128,0,100043:0:0:0:0:
64,192,100043,128,2,101077:0:0:0:0:
448,192,100043,1,8,0:0:0:0:
320,192,100171,1,0,0:0:0:0:
448,192,100301,1,0,0:0:0:0:
192,192,100430,1,0,0:0:0:0:
448,192,100559,1,0,0:0:0:0:
320,192,100560,1,0,0:0:0:0:
192,192,100689,1,0,0:0:0:0:
320,192,100819,1,0,0:0:0:0:
448,192,100948,1,0,0:0:0:0:
192,192,101077,1,8,0:0:0:0:
320,192,101077,1,2,0:0:0:0:
448,192,101207,1,0,0:0:0:0:
192,192,101336,1,0,0:0:0:0:
448,192,101465,1,0,0:0:0:0:
320,192,101595,1,0,0:0:0:0:
192,192,101724,1,0,0:0:0:0:
320,192,101853,1,0,0:0:0:0:
64,192,102112,1,8,0:0:0:0:
320,192,102112,128,2,103146:0:0:0:0:
448,192,102240,1,0,0:0:0:0:
192,192,102370,1,0,0:0:0:0:
448,192,102499,1,0,0:0:0:0:
192,192,102629,1,0,0:0:0:0:
64,192,102629,1,0,0:0:0:0:
448,192,102758,1,0,0:0:0:0:
192,192,102888,1,0,0:0:0:0:
64,192,103017,1,0,0:0:0:0:
192,192,103146,1,2,0:0:0:0:
448,192,103146,1,8,0:0:0:0:
64,192,103276,1,0,0:0:0:0:
320,192,103405,1,0,0:0:0:0:
64,192,103534,1,0,0:0:0:0:
192,192,103664,1,0,0:0:0:0:
320,192,103793,1,0,0:0:0:0:
192,192,103922,1,0,0:0:0:0:
320,192,104181,128,2,105215:0:0:0:0:
448,192,104181,1,8,0:0:0:0:
192,192,104310,1,0,0:0:0:0:
64,192,104439,1,0,0:0:0:0:
448,192,104568,1,0,0:0:0:0:
64,192,104697,1,0,0:0:0:0:
192,192,104698,1,0,0:0:0:0:
448,192,104827,1,0,0:0:0:0:
64,192,104956,1,0,0:0:0:0:
192,192,105085,1,0,0:0:0:0:
448,192,105215,128,2,106250:0:0:0:0:
64,192,105215,1,8,0:0:0:0:
192,192,105345,1,0,0:0:0:0:
320,192,105474,1,0,0:0:0:0:
192,192,105603,1,0,0:0:0:0:
320,192,105733,1,0,0:0:0:0:
64,192,105733,1,0,0:0:0:0:
192,192,105862,1,0,0:0:0:0:
64,192,105991,1,0,0:0:0:0:
192,192,106120,1,0,0:0:0:0:
192,192,106250,128,2,107284:0:0:0:0:
320,192,106250,1,8,0:0:0:0:
448,192,106379,1,0,0:0:0:0:
64,192,106508,1,8,0:0:0:0:
320,192,106573,1,8,0:0:0:0:
448,192,106638,1,8,0:0:0:0:
64,192,106767,1,0,0:0:0:0:
320,192,106767,1,0,0:0:0:0:
448,192,106896,1,0,0:0:0:0:
320,192,107025,1,0,0:0:0:0:
64,192,107155,1,0,0:0:0:0:
320,192,107283,1,8,0:0:0:0:
448,192,107284,128,0,107543:0:0:0:0:
64,192,107348,1,8,0:0:0:0:
192,192,107413,1,8,0:0:0:0:
320,192,107542,1,0,0:0:0:0:
192,192,107671,1,0,0:0:0:0:
64,192,107801,128,8,108060:0:0:0:0:
320,192,107801,1,8,0:0:0:0:
448,192,107931,1,0,0:0:0:0:
320,192,108060,128,0,108319:0:0:0:0:
64,192,108318,1,8,0:0:0:0:
192,192,108319,128,2,109095:0:0:0:0:
448,192,108448,1,0,0:0:0:0:
64,192,108577,1,0,0:0:0:0:
320,192,108707,1,0,0:0:0:0:
448,192,108836,1,0,0:0:0:0:
64,192,108965,1,0,0:0:0:0:
320,192,109095,128,2,109870:0:0:0:0:
448,192,109095,1,8,0:0:0:0:
192,192,109224,1,0,0:0:0:0:
64,192,109353,1,0,0:0:0:0:
448,192,109483,1,0,0:0:0:0:
64,192,109612,1,0,0:0:0:0:
192,192,109741,1,0,0:0:0:0:
448,192,109870,128,2,110388:0:0:0:0:
64,192,109870,1,8,0:0:0:0:
192,192,110000,1,0,0:0:0:0:
64,192,110129,1,0,0:0:0:0:
320,192,110258,1,0,0:0:0:0:
192,192,110388,128,2,110646:0:0:0:0:
64,192,110388,1,8,0:0:0:0:
320,192,110517,1,0,0:0:0:0:
448,192,110646,1,0,0:0:0:0:
320,192,110776,1,0,0:0:0:0:
64,192,110905,128,2,111034:0:0:0:0:
192,192,110905,1,8,0:0:0:0:
448,192,111034,1,0,0:0:0:0:
192,192,111163,1,8,0:0:0:0:
320,192,111164,128,2,111422:0:0:0:0:
448,192,111228,1,0,0:0:0:0:
64,192,111292,1,0,0:0:0:0:
448,192,111422,1,0,0:0:0:0:
192,192,111551,1,0,0:0:0:0:
64,192,111681,1,0,0:0:0:0:
320,192,111939,1,8,0:0:0:0:
64,192,111939,1,8,0:0:0:0:
192,192,112069,1,0,0:0:0:0:
448,192,112198,1,0,0:0:0:0:
64,192,112327,1,0,0:0:0:0:
192,192,112457,128,2,113491:0:0:0:0:
320,192,112457,1,8,0:0:0:0:
448,192,112586,1,0,0:0:0:0:
64,192,112715,1,0,0:0:0:0:
320,192,112845,1,0,0:0:0:0:
64,192,112974,1,0,0:0:0:0:
448,192,112974,1,0,0:0:0:0:
320,192,113103,1,0,0:0:0:0:
448,192,113233,1,0,0:0:0:0:
64,192,113362,1,0,0:0:0:0:
448,192,113491,128,2,114526:0:0:0:0:
320,192,113491,1,8,0:0:0:0:
64,192,113620,1,0,0:0:0:0:
192,192,113750,1,0,0:0:0:0:
320,192,113879,1,0,0:0:0:0:
64,192,114008,1,0,0:0:0:0:
192,192,114008,1,0,0:0:0:0:
192,192,114138,1,0,0:0:0:0:
64,192,114267,1,0,0:0:0:0:
320,192,114396,1,0,0:0:0:0:
64,192,114526,128,2,114655:0:0:0:0:
192,192,114526,1,8,0:0:0:0:
320,192,114655,1,0,0:0:0:0:
448,192,114784,128,2,114914:0:0:0:0:
192,192,114784,1,8,0:0:0:0:
320,192,114914,1,0,0:0:0:0:
64,192,115043,128,2,115172:0:0:0:0:
192,192,115043,1,8,0:0:0:0:
320,192,115172,1,0,0:0:0:0:
448,192,115301,128,2,115431:0:0:0:0:
192,192,115301,1,8,0:0:0:0:
64,192,115431,1,0,0:0:0:0:
320,192,115560,1,8,0:0:0:0:
448,192,115560,1,2,0:0:0:0:
192,192,115560,1,2,0:0:0:0:
