osu file format v14

[General]
AudioFilename: audio.mp3
AudioLeadIn: 0
PreviewTime: 64880
Countdown: 1
SampleSet: Soft
StackLeniency: 0.7
Mode: 0
LetterboxInBreaks: 0
WidescreenStoryboard: 0

[Editor]
DistanceSpacing: 0.6
BeatDivisor: 4
GridSize: 8
TimelineZoom: 1.7

[Metadata]
Title:Amadare no Uta
TitleUnicode:雨だれの歌
Artist:Chito (Inori Minase) & Yuuri (Yurika Kubo)
ArtistUnicode:チト(水瀬いのり) & ユーリ(久保ユリカ)
Creator:Listle
Version:Sound of Terminal
Source:少女終末旅行 Shoujo Shuumatsu Ryokou
Tags:Shoujo Shuumatsu Ryoukou ED 2 Insert Song
BeatmapID:1909807
BeatmapSetID:914360

[Difficulty]
HPDrainRate:5
CircleSize:4
OverallDifficulty:7.5
ApproachRate:9
SliderMultiplier:1.6
SliderTickRate:1

[Events]
//Background and Video events
0,0,"65878682_p0.jpg",0,0
//Break Periods
//Storyboard Layer 0 (Background)
//Storyboard Layer 1 (Fail)
//Storyboard Layer 2 (Pass)
//Storyboard Layer 3 (Foreground)
//Storyboard Sound Samples

[TimingPoints]
-817,517.241379310345,4,1,0,100,1,0
88,-100,4,2,1,40,0,0
6295,-100,4,2,1,5,0,0
6424,-100,4,2,1,40,0,0
15734,-100,4,2,1,60,0,0
19872,-100,4,2,1,60,0,1
21683,-100,4,2,1,60,0,0
28148,-100,4,2,1,60,0,1
31251,-100,4,2,1,60,0,0
55045,-133.333333333333,4,2,1,60,0,0
55433,-133.333333333333,4,2,1,5,0,0
55562,-100,4,2,1,60,0,0
55950,-100,4,2,1,5,0,0
56079,-80,4,2,1,60,0,0
56467,-80,4,2,1,5,0,0
56596,-100,4,2,1,60,0,0
62415,-100,4,2,1,5,0,0
62545,-100,4,2,1,60,0,0
63320,-133.333333333333,4,2,1,60,0,0
63708,-133.333333333333,4,2,1,5,0,0
63838,-100,4,2,1,60,0,0
64226,-100,4,2,1,5,0,0
64355,-80,4,2,1,60,0,0
64743,-80,4,2,1,5,0,0
64872,-100,4,2,1,60,0,0
71596,-133.333333333333,4,2,1,60,0,0
71984,-133.333333333333,4,2,1,5,0,0
72114,-100,4,2,1,60,0,0
72501,-100,4,2,1,5,0,0
72631,-80,4,2,1,60,0,0
73019,-80,4,2,1,5,0,0
73148,-100,4,2,1,60,0,0
73665,-100,4,2,1,60,0,1
75476,-100,4,2,1,60,0,0
75734,-133.333333333333,4,2,1,60,0,0
76122,-133.333333333333,4,2,1,5,0,0
76251,-100,4,2,1,60,0,0
76639,-100,4,2,1,5,0,0
76769,-100,4,2,1,60,0,0
79872,-133.333333333333,4,2,1,60,0,0
80260,-133.333333333333,4,2,1,5,0,0
80389,-100,4,2,1,60,0,0
80777,-100,4,2,1,5,0,0
80907,-80,4,2,1,60,0,0
81295,-80,4,2,1,5,0,0
81424,-100,4,2,1,60,0,0
84010,-100,4,2,1,60,0,1
87889,-100,4,2,1,60,0,0
88148,-133.333333333333,4,2,1,60,0,0
88536,-133.333333333333,4,2,1,5,0,0
88665,-100,4,2,1,60,0,0
89053,-100,4,2,1,5,0,0
89183,-80,4,2,1,60,0,0
89570,-80,4,2,1,5,0,0
89700,-100,4,2,1,60,0,0
95389,-80,4,2,1,60,0,0
97458,-100,4,2,1,30,0,0

[HitObjects]
484,45,88,5,0,0:0:0:0:
484,45,217,6,0,B|469:22|469:22|371:22,1,120,8|0,0:0|0:0,0:0:0:0:
238,125,734,2,0,B|261:144|261:144|327:144,1,80
470,163,1251,2,0,L|470:109,1,40
394,150,1510,2,0,L|394:239,1,80
395,356,2027,1,0,0:0:0:0:
471,239,2286,5,8,0:0:0:0:
391,237,2415,2,0,B|371:237|371:237|328:299,1,80
446,356,2803,2,0,B|472:331|472:331|472:257,1,80
300,356,3320,5,0,0:0:0:0:
259,355,3450,1,0,0:0:0:0:
219,354,3579,2,0,B|205:354|205:354|189:265,1,80
177,129,4096,1,0,0:0:0:0:
318,204,4355,5,8,0:0:0:0:
278,204,4484,1,0,0:0:0:0:
237,205,4614,1,0,0:0:0:0:
197,206,4743,1,0,0:0:0:0:
157,207,4872,2,0,L|63:209,1,80
32,54,5389,5,0,0:0:0:0:
105,21,5519,2,0,P|109:81|94:116,1,80
47,249,5907,2,0,P|76:324|121:298,1,120
157,277,6424,1,8,0:0:0:0:
196,214,6553,2,0,P|230:269|229:287,1,80
150,369,6941,2,0,L|237:369,1,80
345,239,7458,5,0,0:0:0:0:
344,198,7588,1,0,0:0:0:0:
344,158,7717,1,0,0:0:0:0:
344,118,7846,1,0,0:0:0:0:
343,77,7976,2,0,B|343:51|343:51|413:51,1,80
484,170,8493,5,8,0:0:0:0:
449,242,8622,2,0,P|411:192|414:145,1,80
484,43,9010,2,0,L|484:133,1,80
493,319,9527,6,0,L|428:319,1,40
296,356,9786,2,0,L|349:356,1,40
496,361,10045,2,0,L|409:361,1,80
207,359,10562,5,8,0:0:0:0:
144,323,10691,1,0,0:0:0:0:
209,190,10950,1,0,0:0:0:0:
266,243,11079,2,0,P|218:264|179:261,1,80
55,213,11596,6,0,L|55:156,1,40
118,25,11855,2,0,L|118:82,1,40
116,225,12114,2,0,L|116:131,1,80
44,23,12631,5,8,0:0:0:0:
193,79,12889,2,0,L|193:136,1,40
191,279,13148,2,0,B|196:293|196:293|288:294,1,80
412,242,13665,2,0,B|406:227|406:227|315:227,1,80,8|0,0:0|0:0,0:0:0:0:
181,228,14053,5,0,0:0:0:0:
180,151,14183,2,0,B|179:103|179:103|224:76,1,80
356,31,14700,1,4,0:0:0:0:
196,30,15217,5,0,0:0:0:0:
52,100,15476,1,0,0:0:0:0:
185,187,15734,2,0,L|231:152,1,40,4|0,0:0|0:0,0:0:0:0:
377,79,15993,2,0,L|342:108,1,40
235,245,16251,2,0,B|247:256|247:256|318:200,1,80
267,35,16769,6,0,L|267:89,1,40
373,219,17027,2,0,L|372:167,1,40
370,38,17286,2,0,B|360:21|360:21|297:20,1,80
99,34,17803,5,8,0:0:0:0:
38,86,17933,2,0,P|68:135|111:150,1,80
144,199,18320,2,0,P|89:233|71:273,1,80
20,362,18838,6,0,L|76:362,1,40
234,317,19096,2,0,L|185:317,1,40
14,294,19355,2,0,B|30:274|30:274|93:274,1,80
323,293,19872,5,8,0:0:0:0:
384,343,20001,1,0,0:0:0:0:
448,295,20131,1,0,0:0:0:0:
442,215,20260,1,0,0:0:0:0:
365,192,20389,1,0,0:0:0:0:
210,233,20648,5,0,0:0:0:0:
63,169,20907,1,8,0:0:0:0:
25,98,21036,1,0,0:0:0:0:
77,38,21165,1,0,0:0:0:0:
151,68,21295,1,0,0:0:0:0:
158,147,21424,1,0,0:0:0:0:
80,287,21683,5,0,0:0:0:0:
214,200,21941,1,8,0:0:0:0:
158,147,22070,2,0,P|131:207|135:234,1,80
214,200,22458,2,0,B|276:193|276:193|276:170,1,80
312,14,22976,6,0,L|312:68,1,40
350,217,23234,2,0,L|350:154,1,40
391,0,23493,2,0,L|391:108,1,80
393,280,24010,5,8,0:0:0:0:
411,288,24139,1,0,0:0:0:0:
477,332,24269,1,0,0:0:0:0:
460,343,24398,1,0,0:0:0:0:
383,366,24527,2,0,L|308:313,1,80
187,225,25045,5,0,0:0:0:0:
173,210,25174,1,0,0:0:0:0:
176,130,25303,1,0,0:0:0:0:
195,136,25433,1,0,0:0:0:0:
269,165,25562,2,0,B|277:165|277:165|262:121|285:86,1,80
458,47,26079,5,8,0:0:0:0:
419,117,26208,2,0,P|360:134|336:131,1,80
297,20,26596,2,0,P|349:46|371:90,1,80
419,212,27114,5,0,0:0:0:0:
380,281,27243,1,0,0:0:0:0:
330,343,27372,2,0,L|290:310,1,40
238,359,27631,2,0,P|233:288|260:257,1,80
294,91,28148,5,8,0:0:0:0:
144,34,28407,5,0,0:0:0:0:
155,50,28536,1,0,0:0:0:0:
89,95,28665,1,0,0:0:0:0:
107,103,28795,1,0,0:0:0:0:
85,179,28924,1,0,0:0:0:0:
104,174,29053,1,0,0:0:0:0:
152,238,29183,1,8,0:0:0:0:
306,196,29441,5,0,0:0:0:0:
289,184,29570,1,0,0:0:0:0:
336,118,29700,1,0,0:0:0:0:
316,118,29829,1,0,0:0:0:0:
312,38,29958,1,0,0:0:0:0:
294,48,30088,1,0,0:0:0:0:
228,2,30217,1,8,0:0:0:0:
173,152,30476,5,0,0:0:0:0:
187,165,30605,1,0,0:0:0:0:
193,146,30734,1,0,0:0:0:0:
73,22,30993,1,0,0:0:0:0:
18,189,31251,1,4,0:0:0:0:
289,359,31769,5,0,0:0:0:0:
289,359,32027,5,0,0:0:0:0:
426,277,32286,5,8,0:0:0:0:
461,259,32415,1,0,0:0:0:0:
489,230,32545,1,0,0:0:0:0:
504,193,32674,1,0,0:0:0:0:
490,155,32803,2,0,P|472:116|424:86,1,80
343,175,33191,2,0,P|391:176|422:155,1,80
384,34,33579,2,0,P|364:96|378:127,1,80
293,110,33967,2,0,P|293:63|302:40,1,40
291,230,34355,5,8,0:0:0:0:
293,110,34614,2,0,L|229:124,1,40
227,43,34872,2,0,L|195:82,1,40
135,28,35131,2,0,L|133:82,1,40
59,96,35389,2,0,P|98:140|136:148,1,80
101,218,35777,2,0,P|65:206|38:184,1,40
30,25,36165,1,0,0:0:0:0:
187,143,36424,6,0,L|188:201,1,40,8|0,0:0|0:0,0:0:0:0:
88,309,36683,2,0,L|88:260,1,40
247,256,36941,2,0,B|318:256|318:256|318:278,1,80
239,335,37329,2,0,P|184:302|173:259,1,80
249,106,37717,2,0,L|249:200,1,80
365,74,38105,2,0,B|378:59|378:59|295:60,1,80
361,214,38493,6,0,L|362:263,3,40,8|0|0|0,0:0|0:0|0:0|0:0,0:0:0:0:
479,363,39010,2,0,L|479:303,1,40
433,171,39269,2,0,L|433:228,1,40
489,116,39527,2,0,B|488:87|488:87|417:88,1,80
195,86,40045,5,0,0:0:0:0:
195,86,40303,5,0,0:0:0:0:
37,114,40562,2,0,L|101:114,1,40,8|0,0:0|0:0,0:0:0:0:
229,161,40820,2,0,L|135:161,1,80
11,266,41338,5,0,0:0:0:0:
35,190,41467,2,0,P|86:242|88:268,1,80
99,384,41855,2,0,P|49:353|33:317,1,80
114,310,42243,2,0,P|171:337|190:376,1,80
258,368,42631,2,0,L|258:264,2,80,8|0|0,0:0|0:0|0:0,0:0:0:0:
256,207,43407,5,0,0:0:0:0:
256,127,43536,1,0,0:0:0:0:
416,124,43795,1,0,0:0:0:0:
421,203,43924,2,0,B|421:216|421:216|336:216,1,80
354,216,44441,1,0,0:0:0:0:
193,224,44700,6,0,L|132:224,1,40,8|0,0:0|0:0,0:0:0:0:
2,171,44958,2,0,L|59:170,1,40
201,149,45217,2,0,L|98:149,1,80
33,36,45734,2,0,P|115:33|130:35,1,80
271,50,46251,1,0,0:0:0:0:
349,68,46381,2,0,P|324:133|304:156,1,80
414,105,46769,2,0,P|442:43|464:20,1,80,8|0,0:0|0:0,0:0:0:0:
496,96,47157,5,0,0:0:0:0:
495,115,47286,1,0,0:0:0:0:
447,179,47415,1,0,0:0:0:0:
447,199,47545,1,0,0:0:0:0:
393,258,47674,1,0,0:0:0:0:
394,297,47803,1,4,0:0:0:0:
291,174,48320,5,0,0:0:0:0:
288,93,48579,1,0,0:0:0:0:
140,29,48838,1,8,0:0:0:0:
67,62,48967,1,0,0:0:0:0:
78,140,49096,1,0,0:0:0:0:
155,162,49226,1,0,0:0:0:0:
199,95,49355,1,0,0:0:0:0:
23,190,49614,5,0,0:0:0:0:
7,268,49743,2,0,P|68:252|95:222,1,80
154,164,50131,2,0,L|91:164,2,40
13,87,50648,1,0,0:0:0:0:
159,22,50907,2,0,L|208:22,2,40,8|0|0,0:0|0:0|0:0,0:0:0:0:
264,142,51424,5,0,0:0:0:0:
110,94,51683,1,0,0:0:0:0:
266,63,51941,2,0,L|335:62,2,40
421,188,52458,1,0,0:0:0:0:
264,142,52717,1,0,0:0:0:0:
475,28,52976,6,0,L|482:96,1,40,8|0,0:0|0:0,0:0:0:0:
421,188,53234,2,0,L|416:132,1,40
488,245,53493,1,0,0:0:0:0:
328,364,53751,5,0,0:0:0:0:
312,351,53881,1,0,0:0:0:0:
300,272,54010,1,0,0:0:0:0:
304,252,54139,1,0,0:0:0:0:
268,179,54269,1,0,0:0:0:0:
257,161,54398,1,0,0:0:0:0:
279,84,54527,2,0,P|304:31|330:18,1,80
429,231,55045,6,0,P|413:293|400:293,1,90.0000034332277,2|0,0:0|0:0,0:0:0:0:
282,298,55562,2,0,P|258:345|325:332,1,120,2|0,0:0|0:0,0:0:0:0:
340,213,56079,2,0,P|312:162|277:233,1,150,2|0,0:0|0:0,0:0:0:0:
206,270,56596,6,0,P|183:293|165:299,1,40
79,262,56855,2,0,P|96:223|114:212,1,40
163,202,57114,2,0,P|133:162|78:155,1,80,8|0,0:0|0:0,0:0:0:0:
18,348,57631,2,0,L|126:348,1,80
206,270,58019,2,0,L|110:271,1,80
125,150,58407,2,0,L|124:207,2,40
237,146,58924,5,0,0:0:0:0:
236,106,59053,1,0,0:0:0:0:
235,65,59183,1,8,0:0:0:0:
37,95,59441,1,0,0:0:0:0:
237,146,59700,1,0,0:0:0:0:
157,148,59829,2,0,B|161:107|131:60|131:60|168:64,1,120
396,82,60734,1,0,0:0:0:0:
306,161,60993,6,0,L|305:106,1,40
419,156,61251,2,0,L|419:269,1,80,8|0,0:0|0:0,0:0:0:0:
306,364,61769,1,0,0:0:0:0:
505,232,62027,1,0,0:0:0:0:
484,350,62157,2,0,B|470:332|470:332|378:333,1,80
310,269,62545,6,0,L|366:269,1,40
254,196,62803,2,0,L|186:196,1,40
115,265,63062,2,0,L|176:264,1,40
53,201,63320,2,0,B|10:201|10:201|10:269,1,90.0000034332277,2|0,0:0|0:0,0:0:0:0:
96,363,63838,2,0,B|135:379|135:379|135:263,1,120,2|0,0:0|0:0,0:0:0:0:
147,125,64355,2,0,B|148:107|148:107|34:119|34:119|34:97,1,150,2|0,0:0|0:0,0:0:0:0:
80,36,64872,6,0,L|171:28,1,80
319,34,65389,2,0,L|297:78,1,40,4|0,0:0|0:0,0:0:0:0:
415,107,65648,2,0,L|359:137,1,40
431,234,65907,2,0,L|340:193,1,80
177,360,66424,6,0,L|211:325,1,40
125,240,66683,2,0,L|193:240,1,40
135,100,66941,2,0,L|216:154,1,80
340,340,67458,6,0,L|293:340,1,40,4|0,0:0|0:0,0:0:0:0:
148,286,67717,2,0,L|201:286,1,40
340,261,67976,1,0,0:0:0:0:
103,224,68234,5,0,0:0:0:0:
22,229,68364,2,0,P|54:285|88:302,1,80
103,224,68751,2,0,P|73:171|31:153,2,80
175,366,69527,6,0,L|230:366,1,40,8|0,0:0|0:0,0:0:0:0:
375,367,69786,2,0,L|375:308,1,40
375,166,70045,1,0,0:0:0:0:
213,282,70303,1,0,0:0:0:0:
271,227,70433,2,0,P|208:202|172:216,1,80
83,313,70820,2,0,B|101:302|101:302|101:217,1,80
100,162,71208,5,0,0:0:0:0:
100,141,71338,1,0,0:0:0:0:
83,62,71467,1,0,0:0:0:0:
74,49,71596,6,0,P|80:12|117:36,1,90.0000034332277,2|0,0:0|0:0,0:0:0:0:
213,102,72114,2,0,P|221:155|274:143,1,120,2|0,0:0|0:0,0:0:0:0:
350,22,72631,2,0,P|408:34|352:79,1,150,2|0,0:0|0:0,0:0:0:0:
211,134,73148,6,0,B|222:155|222:155|316:155,1,80
478,143,73665,1,8,0:0:0:0:
446,217,73795,1,0,0:0:0:0:
367,204,73924,1,0,0:0:0:0:
360,124,74053,1,0,0:0:0:0:
428,82,74183,1,0,0:0:0:0:
492,287,74441,1,0,0:0:0:0:
309,370,74700,5,0,0:0:0:0:
247,319,74829,1,0,0:0:0:0:
275,244,74958,1,0,0:0:0:0:
354,253,75088,1,0,0:0:0:0:
375,329,75217,1,0,0:0:0:0:
176,355,75476,1,0,0:0:0:0:
101,225,75734,6,0,P|49:224|52:240,1,90.0000034332277,2|0,0:0|0:0,0:0:0:0:
31,335,76251,2,0,P|17:379|66:361,1,120,2|0,0:0|0:0,0:0:0:0:
152,278,76769,5,2,0:0:0:0:
183,253,76898,1,0,0:0:0:0:
214,228,77027,1,0,0:0:0:0:
246,203,77157,1,0,0:0:0:0:
275,175,77286,2,0,L|343:117,1,80
200,38,77803,6,0,L|235:75,1,40,8|0,0:0|0:0,0:0:0:0:
384,34,78062,2,0,L|320:34,1,40
396,111,78320,2,0,P|445:81|460:38,1,80
477,221,78838,2,0,L|477:279,1,40
475,340,79096,1,0,0:0:0:0:
305,233,79355,1,0,0:0:0:0:
305,233,79484,1,0,0:0:0:0:
488,363,79872,6,0,L|383:364,1,90.0000034332277,2|0,0:0|0:0,0:0:0:0:
301,334,80389,2,0,L|440:334,1,120,2|0,0:0|0:0,0:0:0:0:
511,265,80907,2,0,L|341:265,1,150,2|0,0:0|0:0,0:0:0:0:
260,264,81424,6,0,B|220:264|220:264|219:198,1,80
316,4,81941,2,0,L|316:62,1,40,4|0,0:0|0:0,0:0:0:0:
219,172,82200,2,0,L|219:116,1,40
376,103,82458,2,0,B|370:126|370:126|287:126,1,80
73,102,82976,5,0,0:0:0:0:
18,43,83105,2,0,P|63:26|97:29,1,80
129,155,83493,2,0,P|78:112|67:82,1,80
201,125,84010,5,8,0:0:0:0:
260,178,84139,1,0,0:0:0:0:
220,248,84269,1,0,0:0:0:0:
141,235,84398,1,0,0:0:0:0:
129,155,84527,1,0,0:0:0:0:
274,87,84786,1,0,0:0:0:0:
397,188,85045,5,0,0:0:0:0:
457,136,85174,1,0,0:0:0:0:
333,34,85433,1,0,0:0:0:0:
274,87,85562,2,0,P|329:110|356:107,1,80
209,29,86079,5,8,0:0:0:0:
207,48,86208,1,0,0:0:0:0:
126,45,86338,1,0,0:0:0:0:
132,63,86467,1,0,0:0:0:0:
68,114,86596,1,0,0:0:0:0:
199,205,86855,1,0,0:0:0:0:
323,305,87114,5,0,0:0:0:0:
306,293,87243,1,0,0:0:0:0:
235,330,87372,1,0,0:0:0:0:
227,311,87501,1,0,0:0:0:0:
147,324,87631,1,0,0:0:0:0:
199,205,87889,1,0,0:0:0:0:
253,97,88148,6,0,P|252:55|286:67,1,90.0000034332277,2|0,0:0|0:0,0:0:0:0:
411,164,88665,2,0,P|404:217|355:188,1,120,2|0,0:0|0:0,0:0:0:0:
415,4,89183,2,0,P|480:22|422:53,1,150,2|0,0:0|0:0,0:0:0:0:
411,164,89700,2,0,P|372:136|360:100,1,80
436,237,90217,5,4,0:0:0:0:
487,298,90346,1,0,0:0:0:0:
441,364,90476,1,0,0:0:0:0:
364,341,90605,1,0,0:0:0:0:
361,261,90734,1,0,0:0:0:0:
452,99,90993,1,0,0:0:0:0:
485,173,91251,5,0,0:0:0:0:
452,99,91381,2,0,P|415:143|413:189,1,80
342,121,91769,2,0,P|367:66|402:43,1,80
323,203,92286,5,8,0:0:0:0:
294,277,92415,1,0,0:0:0:0:
214,262,92545,1,0,0:0:0:0:
202,182,92674,1,0,0:0:0:0:
268,138,92803,1,0,0:0:0:0:
376,255,93062,1,0,0:0:0:0:
485,371,93320,5,0,0:0:0:0:
471,356,93450,1,0,0:0:0:0:
392,370,93579,1,0,0:0:0:0:
387,350,93708,1,0,0:0:0:0:
307,339,93838,1,0,0:0:0:0:
338,182,94096,1,0,0:0:0:0:
359,23,94355,5,8,0:0:0:0:
356,42,94484,1,0,0:0:0:0:
275,40,94614,1,0,0:0:0:0:
282,58,94743,1,0,0:0:0:0:
215,102,94872,1,0,0:0:0:0:
338,182,95131,1,0,0:0:0:0:
489,312,95389,6,0,L|438:270,1,50,8|0,0:0|0:0,0:0:0:0:
258,220,95648,2,0,L|301:255,1,50
453,376,95907,2,0,L|361:301,1,100
198,167,96424,1,8,0:0:0:0:
96,70,96941,1,8,0:0:0:0:
14,19,97458,1,4,0:0:0:0:
