osu file format v14

[General]
AudioFilename: audio.mp3
AudioLeadIn: 0
PreviewTime: 21652
Countdown: 0
SampleSet: Soft
StackLeniency: 0.7
Mode: 0
LetterboxInBreaks: 0
WidescreenStoryboard: 0

[Editor]
DistanceSpacing: 1.3
BeatDivisor: 4
GridSize: 4
TimelineZoom: 1

[Metadata]
Title:Ugoku, Ugoku
TitleUnicode:動く、動く
Artist:Chito (CV: Minase Inori), Yuuri (CV: Kubo Yurika)
ArtistUnicode:チト(CV:水瀬いのり)、ユーリ(CV:久保ユリカ)
Creator:Nozhomi
Version:Normal
Source:少女終末旅行
Tags:Shoujo Shuumatsu Ryokou Girls' Last Tour opening tv size
BeatmapID:1468244
BeatmapSetID:693918

[Difficulty]
HPDrainRate:3
CircleSize:3
OverallDifficulty:3.9
ApproachRate:4.5
SliderMultiplier:1.3
SliderTickRate:1

[Events]
//Background and Video events
0,0,"winter.jpg",0,0
//Break Periods
//Storyboard Layer 0 (Background)
//Storyboard Layer 1 (Fail)
//Storyboard Layer 2 (Pass)
//Storyboard Layer 3 (Foreground)
//Storyboard Sound Samples

[TimingPoints]
90,468.75,4,2,1,30,1,0
15090,-100,4,2,1,40,0,0
22590,-100,4,2,1,50,0,0
37590,-100,4,2,1,40,0,0
45090,-100,4,2,1,50,0,0
52590,-100,4,2,1,60,0,1
67121,-100,4,2,1,55,0,0
67590,-100,4,2,1,60,0,1
78840,-100,4,2,1,60,0,1
82121,-100,4,2,1,50,0,1
82590,-100,4,2,1,35,0,0

[Colours]
Combo1 : 192,192,192
Combo2 : 19,217,217
Combo3 : 223,215,49

[HitObjects]
36,36,90,5,2,0:0:0:0:
161,149,558,2,0,P|172:192|161:245,1,97.5,2|0,0:0|0:0,0:0:0:0:
8,312,1379,2,0,L|8:196,1,97.5,2|2,0:0|0:0,0:0:0:0:
224,340,2433,2,0,B|256:344|256:344|288:340,1,65,2|2,0:0|0:0,0:0:0:0:
289,340,3840,5,2,0:0:0:0:
426,241,4308,2,0,L|426:143,1,97.5,2|0,0:0|0:0,0:0:0:0:
289,44,5129,1,2,0:0:0:0:
168,84,5480,1,2,0:0:0:0:
334,272,6183,6,0,P|317:309|277:328,1,65,2|2,0:0|0:0,0:0:0:0:
214,322,6652,2,0,P|189:301|177:271,1,65,2|0,0:0|0:0,0:0:0:0:
192,188,7121,1,2,0:0:0:0:
92,52,7590,5,2,0:0:0:0:
244,120,8058,2,0,P|288:128|340:116,1,97.5,2|0,0:0|0:0,0:0:0:0:
494,50,8879,1,2,0:0:0:0:
372,16,9230,1,2,0:0:0:0:
188,192,9933,6,0,P|184:220|192:256,1,65,2|2,0:0|0:0,0:0:0:0:
224,332,10402,2,0,L|128:340,2,65,2|2|0,0:0|0:0|0:0,0:0:0:0:
308,320,11105,1,2,0:0:0:0:
392,308,11340,5,2,0:0:0:0:
400,140,11808,2,0,L|284:136,1,97.5,2|0,0:0|0:0,0:0:0:0:
152,216,12629,1,2,0:0:0:0:
84,108,12980,1,2,0:0:0:0:
302,232,13683,2,0,P|307:263|298:296,1,65,2|2,0:0|0:0,0:0:0:0:
212,294,14152,2,0,P|203:263|209:232,2,65,2|0|2,0:0|0:0|0:0,0:0:0:0:
256,368,14855,1,2,0:0:0:0:
172,376,15090,6,0,L|88:368,1,65,4|0,0:0|0:0,0:0:0:0:
40,319,15558,2,0,P|27:272|42:226,1,97.5,2|0,0:0|0:0,0:0:0:0:
160,104,16379,1,2,0:0:0:0:
32,108,16730,1,2,0:0:0:0:
152,228,17199,1,0,0:0:0:0:
220,276,17433,2,0,P|252:280|292:268,1,65,2|2,0:0|0:0,0:0:0:0:
324,347,17902,2,0,P|349:328|364:299,1,65,2|2,0:0|0:0,0:0:0:0:
356,216,18371,1,0,0:0:0:0:
304,148,18605,1,2,0:0:0:0:
376,104,18840,6,0,L|448:108,1,65,2|0,0:0|0:0,0:0:0:0:
468,28,19308,2,0,L|370:22,1,97.5,2|0,0:0|0:0,0:0:0:0:
256,148,20129,1,2,0:0:0:0:
180,48,20480,1,2,0:0:0:0:
332,252,21183,5,2,0:0:0:0:
184,332,21652,2,0,P|148:340|96:324,1,65,2|2,0:0|0:0,0:0:0:0:
52,284,22121,1,2,0:0:0:0:
124,132,22590,6,0,P|144:200|116:280,1,130,4|0,0:3|1:0,0:0:0:0:
12,136,23527,1,4,0:3:0:0:
72,23,23879,2,0,P|122:13|168:20,1,97.5,8|10,0:0|0:0,0:0:0:0:
232,76,24465,2,0,P|296:80|361:76,1,130,4|0,0:3|1:0,0:0:0:0:
496,180,25402,2,0,P|431:175|366:179,1,130,4|0,0:3|1:0,0:0:0:0:
256,308,26340,6,0,B|192:320|192:320|128:308,1,130,4|0,0:3|1:0,0:0:0:0:
28,172,27277,1,4,0:3:0:0:
108,76,27629,2,0,P|141:119|151:174,1,97.5,8|10,0:0|0:0,0:0:0:0:
130,243,28215,2,0,L|128:308,2,65,4|2|0,0:3|0:0|1:0,0:0:0:0:
224,100,29152,2,0,L|222:35,2,65,4|2|0,0:3|0:0|1:0,0:0:0:0:
260,176,29855,1,0,0:3:0:0:
328,228,30090,6,0,P|390:245|460:208,1,130,4|0,0:3|1:0,0:0:0:0:
512,64,31027,1,4,0:3:0:0:
384,60,31379,2,0,L|272:56,1,97.5,8|10,0:0|0:0,0:0:0:0:
224,112,31965,2,0,P|209:174|220:238,1,130,4|0,0:3|1:0,0:0:0:0:
385,337,32902,2,0,P|447:318|497:277,1,130,4|0,0:3|1:0,0:0:0:0:
497,107,33840,6,0,P|448:66|386:47,1,130,4|0,0:3|1:0,0:0:0:0:
256,160,34777,1,4,0:3:0:0:
139,212,35129,2,0,P|126:166|134:119,1,97.5,8|10,0:0|0:0,0:0:0:0:
212,80,35715,2,0,L|208:8,2,65,4|2|4,0:3|0:0|0:3,0:0:0:0:
356,168,36652,2,0,L|357:240,2,65,4|2|0,0:3|0:0|0:0,0:0:0:0:
480,48,37590,6,0,L|484:256,1,195,4|0,0:3|0:0,0:0:0:0:
344,148,38761,2,0,P|281:132|219:148,1,130,2|0,0:0|0:0,0:0:0:0:
176,220,39465,2,0,P|90:196|151:147,1,195,4|0,0:3|0:0,0:0:0:0:
256,264,40636,2,0,L|256:329,2,65,2|0|0,0:0|0:0|0:0,0:0:0:0:
316,203,41340,6,0,P|343:113|296:30,1,195,4|0,0:3|0:0,0:0:0:0:
200,168,42511,2,0,L|204:252,1,65,2|0,0:0|0:0,0:0:0:0:
320,356,43215,2,0,P|414:355|479:286,1,195,4|0,0:3|0:0,0:0:0:0:
488,116,44386,2,0,L|492:40,2,65,2|0|2,0:0|1:0|0:0,0:0:0:0:
427,176,45090,6,0,P|367:195|304:179,1,130,4|0,0:3|1:0,0:0:0:0:
160,92,46027,2,0,P|207:134|224:196,1,130,0|0,1:0|1:0,0:0:0:0:
221,366,46965,2,0,P|234:303|279:257,1,130,0|0,1:0|1:0,0:0:0:0:
427,176,47902,2,0,L|427:30,1,130,0|0,1:0|1:0,0:0:0:0:
260,68,48840,6,0,P|233:85|214:111,1,65,0|0,1:0|1:0,0:0:0:0:
176,188,49308,2,0,P|170:219|176:251,1,65,0|0,1:0|1:0,0:0:0:0:
204,332,49777,2,0,P|222:357|248:376,1,65,0|0,1:0|1:0,0:0:0:0:
336,376,50246,2,0,P|362:357|381:330,1,65,0|0,1:0|1:0,0:0:0:0:
412,252,50715,6,0,B|405:49|405:49|359:82,1,260,0|0,1:0|0:0,0:0:0:0:
284,124,51886,2,0,P|256:124|220:116,2,65,2|2|2,0:0|0:0|0:0,0:0:0:0:
287,39,52590,6,0,P|227:17|165:32,1,130,4|8,2:3|0:0,0:0:0:0:
80,180,53527,1,4,0:3:0:0:
192,304,53996,2,0,P|220:268|224:224,1,65,8|2,0:0|0:0,0:0:0:0:
280,184,54465,2,0,P|312:236|396:280,1,130,4|8,0:3|0:0,0:0:0:0:
452,280,55168,1,2,0:0:0:0:
488,116,55636,1,8,0:0:0:0:
408,88,55871,2,0,L|408:23,1,65,8|0,0:0|0:0,0:0:0:0:
324,36,56340,5,4,0:3:0:0:
324,36,56574,2,0,P|310:96|350:169,1,130,10|8,0:0|0:0,0:0:0:0:
368,236,57277,1,4,0:3:0:0:
368,236,57511,2,0,P|323:193|239:192,1,130,10|8,0:0|0:0,0:0:0:0:
184,224,58215,2,0,P|119:227|54:222,1,130,4|8,0:3|0:0,0:0:0:0:
192,320,59152,2,0,P|256:314|321:318,1,130,4|8,0:3|0:0,0:0:0:0:
400,352,59855,1,2,0:0:0:0:
396,268,60090,6,0,P|424:220|508:200,1,130,4|8,0:3|0:0,0:0:0:0:
484,368,61027,1,4,0:3:0:0:
322,318,61496,2,0,P|309:281|318:229,1,65,8|2,0:0|0:0,0:0:0:0:
360,188,61965,2,0,P|372:136|348:56,1,130,4|8,0:3|0:0,0:0:0:0:
284,16,62668,1,2,0:0:0:0:
127,79,63136,1,8,0:0:0:0:
160,156,63371,2,0,L|164:236,1,65,8|0,0:0|0:0,0:0:0:0:
128,300,63840,5,4,0:3:0:0:
128,300,64074,2,0,P|52:272|32:204,1,130,10|8,0:0|0:0,0:0:0:0:
32,148,64777,1,4,0:3:0:0:
32,148,65011,2,0,P|65:94|127:79,1,130,10|8,0:0|0:0,0:0:0:0:
200,120,65715,6,0,P|244:128|297:119,2,97.5,0|0|0,1:0|1:0|1:0,0:0:0:0:
196,36,66652,1,0,1:0:0:0:
144,196,67121,1,4,0:3:0:0:
295,119,67590,6,0,P|348:112|420:168,1,130,4|8,2:3|0:0,0:0:0:0:
484,304,68527,1,4,0:3:0:0:
320,344,68996,2,0,L|228:336,1,65,8|2,0:0|0:0,0:0:0:0:
176,304,69465,2,0,P|112:316|32:312,1,130,4|8,0:3|0:0,0:0:0:0:
16,236,70168,1,2,0:0:0:0:
12,68,70636,1,8,0:0:0:0:
88,104,70871,2,0,P|119:111|151:111,1,65,8|0,0:0|0:0,0:0:0:0:
236,112,71340,5,4,0:3:0:0:
236,112,71574,2,0,B|252:172|252:172|236:240,1,130,10|8,0:0|0:0,0:0:0:0:
156,240,72277,1,4,0:3:0:0:
156,240,72511,2,0,B|140:173|140:173|156:113,1,130,10|8,0:0|0:0,0:0:0:0:
194,37,73215,2,0,L|338:41,1,130,4|8,0:3|0:0,0:0:0:0:
480,104,74152,2,0,P|460:155|371:198,1,130,4|8,0:3|0:0,0:0:0:0:
320,164,74855,1,2,0:0:0:0:
255,220,75090,6,0,P|244:283|255:347,1,130,4|8,0:3|0:0,0:0:0:0:
412,284,76027,1,4,0:3:0:0:
255,220,76496,2,0,L|176:224,1,65,8|2,0:0|0:0,0:0:0:0:
112,196,76965,2,0,P|88:136|116:64,1,130,4|8,0:3|0:0,0:0:0:0:
160,8,77668,1,2,0:0:0:0:
272,136,78136,1,8,0:0:0:0:
255,220,78371,2,0,P|252:248|260:292,1,65,8|0,0:0|0:0,0:0:0:0:
324,336,78840,6,0,P|404:312|432:256,1,130,4|2,0:3|0:0,0:0:0:0:
427,108,79777,2,0,P|386:59|324:48,1,130,4|2,0:3|0:0,0:0:0:0:
184,144,80715,6,0,L|80:140,2,97.5,0|0|0,1:0|1:0|1:0,0:0:0:0:
256,100,81652,1,0,1:0:0:0:
316,260,82121,1,2,0:0:0:0:
348,96,82590,5,4,0:3:0:0:
232,220,83058,2,0,L|236:324,1,97.5,2|0,0:0|0:0,0:0:0:0:
72,272,83879,1,0,1:0:0:0:
124,156,84230,1,0,1:0:0:0:
352,268,84933,2,0,P|383:276|414:267,1,65,2|2,0:0|0:0,0:0:0:0:
414,267,86340,5,4,0:3:0:0:
308,136,86808,2,0,B|300:88|300:88|308:40,1,97.5,2|0,0:0|0:0,0:0:0:0:
472,88,87629,1,0,1:0:0:0:
416,204,87980,1,0,1:0:0:0:
