osu file format v14

[General]
AudioFilename: audio.mp3
AudioLeadIn: 0
PreviewTime: 21652
Countdown: 0
SampleSet: Soft
StackLeniency: 0.7
Mode: 0
LetterboxInBreaks: 0
WidescreenStoryboard: 0

[Editor]
DistanceSpacing: 1.2
BeatDivisor: 4
GridSize: 4
TimelineZoom: 1

[Metadata]
Title:Ugoku, Ugoku
TitleUnicode:動く、動く
Artist:Chito (CV: Minase Inori), Yuuri (CV: Kubo Yurika)
ArtistUnicode:チト(CV:水瀬いのり)、ユーリ(CV:久保ユリカ)
Creator:Nozhomi
Version:Hard
Source:少女終末旅行
Tags:Shoujo Shuumatsu Ryokou Girls' Last Tour opening tv size
BeatmapID:1468242
BeatmapSetID:693918

[Difficulty]
HPDrainRate:5
CircleSize:4
OverallDifficulty:6
ApproachRate:7
SliderMultiplier:1.5
SliderTickRate:1

[Events]
//Background and Video events
0,0,"winter.jpg",0,0
//Break Periods
//Storyboard Layer 0 (Background)
//Storyboard Layer 1 (Fail)
//Storyboard Layer 2 (Pass)
//Storyboard Layer 3 (Foreground)
//Storyboard Sound Samples

[TimingPoints]
90,468.75,4,2,1,30,1,0
15090,-100,4,2,1,40,0,0
22590,-100,4,2,1,50,0,0
37590,-125,4,2,1,40,0,0
45090,-100,4,2,1,50,0,0
52590,-83.3333333333333,4,2,1,60,0,1
67121,-83.3333333333333,4,2,1,55,0,0
67590,-83.3333333333333,4,2,1,60,0,1
78840,-100,4,2,1,60,0,1
82121,-100,4,2,1,50,0,1
82590,-100,4,2,1,35,0,0

[Colours]
Combo1 : 192,192,192
Combo2 : 19,217,217
Combo3 : 223,215,49

[HitObjects]
156,104,90,5,2,0:0:0:0:
92,240,558,2,0,L|96:288,3,37.5,2|0|2|0,0:0|0:0|0:0|0:0,0:0:0:0:
244,268,1379,2,0,P|246:230|234:195,1,75,2|0,0:0|0:0,0:0:0:0:
208,160,1730,1,2,0:0:0:0:
352,340,2433,2,0,P|349:302|361:267,1,75,2|2,0:0|0:0,0:0:0:0:
362,268,3840,5,2,0:0:0:0:
452,148,4308,2,0,L|489:146,3,37.5,2|0|2|0,0:0|0:0|0:0|0:0,0:0:0:0:
356,80,5129,2,0,L|256:84,1,75,2|0,0:0|0:0,0:0:0:0:
248,52,5480,1,2,0:0:0:0:
168,264,6183,2,0,L|268:260,1,75,2|2,0:0|0:0,0:0:0:0:
224,188,6652,2,0,L|186:189,3,37.5,2|0|0|0,0:0|0:0|0:0|0:0,0:0:0:0:
148,164,7121,2,0,P|133:98|162:43,1,112.5,2|0,0:0|0:0,0:0:0:0:
188,36,7590,5,2,0:0:0:0:
332,64,8058,2,0,L|384:60,3,37.5,2|0|2|0,0:0|0:0|0:0|0:0,0:0:0:0:
308,200,8879,2,0,P|296:226|291:287,1,75,2|0,0:0|0:0,0:0:0:0:
308,312,9230,1,2,0:0:0:0:
84,352,9933,2,0,P|79:314|65:280,1,75,2|2,0:0|0:0,0:0:0:0:
14,206,10402,1,2,0:0:0:0:
66,134,10636,1,2,0:0:0:0:
118,206,10871,1,0,0:0:0:0:
170,134,11105,1,2,0:0:0:0:
222,206,11340,5,2,0:0:0:0:
328,60,11808,2,0,L|328:4,3,37.5,2|0|2|0,0:0|0:0|0:0|0:0,0:0:0:0:
404,152,12629,2,0,P|412:188|404:224,1,75,2|0,0:0|0:0,0:0:0:0:
392,268,12980,1,2,0:0:0:0:
180,332,13683,6,0,L|96:328,1,75,2|2,0:0|0:0,0:0:0:0:
88,256,14152,2,0,L|162:259,1,75,2|0,0:0|0:0,0:0:0:0:
252,268,14621,1,2,0:0:0:0:
216,186,14855,1,2,0:0:0:0:
256,103,15090,6,0,P|265:68|256:32,1,75,4|0,0:0|0:0,0:0:0:0:
168,48,15558,2,0,L|168:88,3,37.5,2|0|2|0,0:0|0:0|0:0|0:0,0:0:0:0:
88,248,16379,2,0,P|80:196|104:156,1,75,2|0,0:0|0:0,0:0:0:0:
120,144,16730,1,2,0:0:0:0:
256,260,17199,5,0,0:0:0:0:
324,319,17433,2,0,L|324:356,2,37.5,2|0|2,0:0|0:0|0:0,0:0:0:0:
392,260,17902,1,2,0:0:0:0:
416,172,18136,1,2,0:0:0:0:
352,108,18371,1,0,0:0:0:0:
272,148,18605,1,2,0:0:0:0:
192,188,18840,6,0,P|156:196|102:188,1,75,2|0,0:0|0:0,0:0:0:0:
52,132,19308,2,0,L|40:80,3,37.5,2|0|2|0,0:0|0:0|0:0|0:0,0:0:0:0:
96,268,20129,2,0,P|88:316|48:352,1,75,2|0,0:0|0:0,0:0:0:0:
32,356,20480,1,2,0:0:0:0:
232,172,21183,6,0,L|328:176,1,75,2|0,0:0|0:0,0:0:0:0:
372,236,21652,1,2,0:0:0:0:
372,236,21886,1,2,0:0:0:0:
284,252,22121,2,0,L|188:248,1,75,2|0,0:0|0:0,0:0:0:0:
120,244,22590,5,4,0:3:0:0:
48,188,22824,1,2,0:0:0:0:
19,103,23058,2,0,P|17:66|33:33,1,75,0|2,1:0|0:0,0:0:0:0:
108,84,23527,2,0,P|172:100|244:92,1,112.5,4|8,0:3|0:0,0:0:0:0:
260,84,23996,1,0,0:0:0:0:
356,24,24230,1,10,0:0:0:0:
380,136,24465,5,4,0:3:0:0:
324,207,24699,2,0,P|320:226|320:245,2,37.5,2|0|0,0:0|0:0|1:0,0:0:0:0:
380,136,25168,1,2,0:0:0:0:
456,184,25402,2,0,P|462:220|454:256,1,75,4|0,0:3|0:0,0:0:0:0:
382,310,25871,1,0,1:0:0:0:
320,245,26105,1,2,0:0:0:0:
256,340,26340,5,4,0:3:0:0:
168,332,26574,2,0,P|144:344|104:348,2,37.5,2|0|0,0:0|0:0|1:0,0:0:0:0:
220,256,27043,1,2,0:0:0:0:
180,176,27277,2,0,P|168:136|196:64,1,112.5,4|8,0:3|0:0,0:0:0:0:
228,44,27746,1,0,1:0:0:0:
304,128,27980,1,10,0:0:0:0:
368,36,28215,5,4,0:3:0:0:
304,128,28449,1,2,0:0:0:0:
356,228,28683,2,0,P|367:263|356:332,1,75,0|0,1:0|0:0,0:0:0:0:
260,340,29152,5,4,0:3:0:0:
196,248,29386,1,2,0:0:0:0:
248,148,29620,2,0,P|259:112|248:44,1,75,0|0,1:0|0:3,0:0:0:0:
164,12,30090,5,4,0:3:0:0:
78,39,30324,2,0,L|18:23,2,37.5,2|0|0,0:0|0:0|1:0,0:0:0:0:
136,108,30793,1,2,0:0:0:0:
80,179,31027,2,0,P|61:231|68:291,1,112.5,4|8,0:3|0:0,0:0:0:0:
98,319,31496,1,0,0:0:0:0:
190,251,31730,1,10,0:0:0:0:
256,344,31965,5,4,0:3:0:0:
312,274,32199,2,0,L|305:205,2,37.5,2|0|0,0:0|0:0|1:0,0:0:0:0:
381,331,32668,1,2,0:0:0:0:
458,285,32902,1,4,0:3:0:0:
481,198,33136,2,0,P|481:158|451:114,1,75,0|0,0:0|1:0,0:0:0:0:
397,67,33605,1,2,0:0:0:0:
322,151,33840,5,4,0:3:0:0:
256,89,34074,2,0,L|256:51,2,37.5,2|0|0,0:0|0:0|1:0,0:0:0:0:
190,151,34543,1,2,0:0:0:0:
114,102,34777,2,0,P|100:152|122:211,1,112.5,4|8,0:3|0:0,0:0:0:0:
153,236,35246,1,0,0:0:0:0:
259,199,35480,1,10,0:0:0:0:
238,309,35715,5,4,0:3:0:0:
153,236,35949,1,2,0:0:0:0:
80,150,36183,2,0,L|88:58,1,75,4|0,0:3|0:0,0:0:0:0:
180,12,36652,5,4,0:3:0:0:
265,85,36886,1,2,0:0:0:0:
338,171,37120,2,0,L|330:263,1,75,0|2,0:0|0:0,0:0:0:0:
428,296,37590,6,0,P|462:218|431:119,1,180,4|0,0:3|0:0,0:0:0:0:
384,72,38527,1,4,0:3:0:0:
316,108,38761,2,0,P|288:120|240:120,1,60,2|0,0:0|0:0,0:0:0:0:
184,96,39230,1,0,0:0:0:0:
116,180,39465,6,0,L|120:368,1,180,4|0,0:3|0:0,0:0:0:0:
48,332,40402,1,4,0:3:0:0:
44,256,40636,2,0,L|42:196,1,60,2|0,0:0|0:0,0:0:0:0:
64,120,41105,1,0,0:0:0:0:
188,168,41340,5,4,0:3:0:0:
260,200,41574,2,0,P|312:216|404:200,1,120,2|0,0:0|0:0,0:0:0:0:
444,168,42277,1,4,0:3:0:0:
372,136,42511,1,2,0:0:0:0:
377,211,42745,2,0,L|381:285,1,60,0|0,0:0|0:0,0:0:0:0:
260,200,43215,6,0,P|180:176|80:224,1,180,4|0,0:3|0:0,0:0:0:0:
48,272,44152,1,4,0:3:0:0:
100,332,44386,2,0,P|124:300|126:268,1,60,2|0,0:0|1:0,0:0:0:0:
94,210,44855,1,2,0:0:0:0:
44,100,45090,6,0,P|36:64|48:20,1,75,4|2,0:3|0:0,0:0:0:0:
142,64,45558,2,0,P|161:32|201:10,1,75,0|2,1:0|0:0,0:0:0:0:
228,96,46027,1,0,1:0:0:0:
300,180,46261,1,2,0:0:0:0:
212,252,46496,2,0,P|205:283|222:338,1,75,0|2,1:0|0:0,0:0:0:0:
256,340,46847,1,0,0:0:0:0:
298,324,46965,6,0,P|307:288|300:252,1,75,0|2,1:0|0:0,0:0:0:0:
228,164,47433,2,0,L|104:168,1,75,0|2,1:0|0:0,0:0:0:0:
40,168,47902,1,0,1:0:0:0:
96,72,48136,2,0,L|220:68,1,75,2|0,0:0|1:0,0:0:0:0:
284,68,48605,1,2,0:0:0:0:
360,152,48840,5,0,1:0:0:0:
312,252,49074,1,0,1:0:0:0:
244,160,49308,1,0,1:0:0:0:
196,264,49543,1,0,1:0:0:0:
136,168,49777,1,0,1:0:0:0:
176,64,50011,1,0,1:0:0:0:
244,160,50246,1,0,1:0:0:0:
312,252,50480,1,0,1:0:0:0:
360,152,50715,6,0,L|412:148,3,37.5,0|0|0|0,1:0|1:0|1:0|1:0,0:0:0:0:
444,180,51183,2,0,L|496:176,3,37.5,2|0|0|0,0:0|0:0|0:0|0:0,0:0:0:0:
288,96,51886,5,2,0:0:0:0:
204,128,52121,1,2,0:0:0:0:
196,40,52355,1,2,0:0:0:0:
212,212,52590,6,0,L|214:301,1,89.9999972534181,4|0,2:3|0:0,0:0:0:0:
132,184,53058,2,0,L|134:273,1,89.9999972534181,8|0,0:0|0:0,0:0:0:0:
52,156,53527,2,0,L|54:245,1,89.9999972534181,4|0,0:3|0:0,0:0:0:0:
52,356,53996,1,8,0:0:0:0:
136,288,54230,1,2,0:0:0:0:
212,212,54465,6,0,P|213:167|195:126,1,89.9999972534181,4|0,0:3|0:0,0:0:0:0:
98,67,54933,2,0,P|55:53|11:61,1,89.9999972534181,8|0,0:0|0:0,0:0:0:0:
48,168,55402,1,4,0:3:0:0:
177,60,55636,1,8,0:0:0:0:
177,60,55871,2,0,L|297:64,1,89.9999972534181,8|0,0:0|0:0,0:0:0:0:
368,152,56340,5,4,0:3:0:0:
500,149,56574,1,2,0:0:0:0:
500,148,56691,2,0,B|437:164|437:164|365:151,1,134.999995880127,8|8,0:0|0:0,0:0:0:0:
283,220,57277,1,4,0:3:0:0:
353,332,57511,1,2,0:0:0:0:
353,332,57629,2,0,B|307:285|307:285|283:221,1,134.999995880127,8|8,0:0|0:0,0:0:0:0:
313,62,58215,6,0,P|285:98|217:122,1,89.9999972534181,4|0,0:3|0:0,0:0:0:0:
282,220,58683,2,0,P|236:225|171:194,1,89.9999972534181,8|0,0:0|0:0,0:0:0:0:
137,120,59152,1,4,0:3:0:0:
94,250,59386,1,8,0:0:0:0:
94,250,59621,1,8,0:0:0:0:
195,212,59855,1,2,0:0:0:0:
40,160,60090,6,0,P|32:120|48:64,1,89.9999972534181,4|0,0:3|0:0,0:0:0:0:
137,120,60558,2,0,P|159:86|210:57,1,89.9999972534181,8|0,0:0|0:0,0:0:0:0:
235,163,61027,2,0,P|275:155|331:171,1,89.9999972534181,4|0,0:3|0:0,0:0:0:0:
400,240,61496,1,8,0:0:0:0:
296,272,61730,1,2,0:0:0:0:
322,166,61965,6,0,L|318:46,1,89.9999972534181,4|0,0:3|0:0,0:0:0:0:
420,44,62433,2,0,L|422:133,1,89.9999972534181,8|0,0:0|0:0,0:0:0:0:
400,240,62902,1,4,0:3:0:0:
248,200,63136,1,8,0:0:0:0:
247,199,63371,2,0,P|203:192|158:192,1,89.9999972534181,8|0,0:0|0:0,0:0:0:0:
312,252,63840,5,4,0:3:0:0:
293,132,64074,1,2,0:0:0:0:
293,131,64191,2,0,P|327:188|311:252,1,134.999995880127,8|8,0:0|0:0,0:0:0:0:
388,131,64777,1,4,0:3:0:0:
289,48,65011,1,2,0:0:0:0:
289,48,65128,2,0,P|352:80|396:156,1,134.999995880127,8|8,0:0|0:0,0:0:0:0:
212,40,65715,6,0,L|76:44,2,134.999995880127,0|0|0,1:0|1:0|1:0,0:0:0:0:
216,148,66652,1,0,1:0:0:0:
116,184,66886,1,2,0:0:0:0:
23,136,67121,2,0,P|13:176|21:227,1,89.9999972534181,4|0,0:3|0:0,0:0:0:0:
172,324,67590,6,0,P|124:304|76:308,1,89.9999972534181,4|0,2:3|0:0,0:0:0:0:
220,252,68058,2,0,P|268:232|316:236,1,89.9999972534181,8|0,0:0|0:0,0:0:0:0:
168,188,68527,2,0,P|120:168|72:172,1,89.9999972534181,4|0,0:3|0:0,0:0:0:0:
236,144,68996,1,8,0:0:0:0:
305,233,69230,1,2,0:0:0:0:
348,132,69465,6,0,P|356:88|340:24,1,89.9999972534181,4|0,0:3|0:0,0:0:0:0:
456,24,69933,2,0,P|448:68|456:112,1,89.9999972534181,8|0,0:0|0:0,0:0:0:0:
500,212,70402,1,4,0:3:0:0:
352,136,70636,1,8,0:0:0:0:
352,136,70871,2,0,L|231:139,1,89.9999972534181,8|0,0:0|0:0,0:0:0:0:
144,208,71340,5,4,0:3:0:0:
138,79,71574,1,2,0:0:0:0:
138,79,71691,2,0,B|160:146|160:146|144:210,1,134.999995880127,8|8,0:0|0:0,0:0:0:0:
56,344,72277,1,4,0:3:0:0:
62,215,72511,1,2,0:0:0:0:
62,215,72628,2,0,B|40:282|40:282|56:346,1,134.999995880127,8|8,0:0|0:0,0:0:0:0:
252,264,73215,6,0,P|296:260|341:264,1,89.9999972534181,4|0,0:3|0:0,0:0:0:0:
508,312,73683,2,0,P|463:308|418:312,1,89.9999972534181,8|0,0:0|0:0,0:0:0:0:
320,360,74152,1,4,0:3:0:0:
416,236,74386,1,8,0:0:0:0:
416,236,74621,1,8,0:0:0:0:
344,156,74855,1,2,0:0:0:0:
449,133,75090,6,0,P|457:87|452:27,1,89.9999972534181,4|0,0:3|0:0,0:0:0:0:
344,156,75558,2,0,P|352:110|347:50,1,89.9999972534181,8|0,0:0|0:0,0:0:0:0:
248,188,76027,2,0,P|256:142|251:82,1,89.9999972534181,4|0,0:3|0:0,0:0:0:0:
196,8,76496,1,8,0:0:0:0:
304,12,76730,1,2,0:0:0:0:
172,88,76965,6,0,P|120:96|40:88,1,89.9999972534181,4|0,0:3|0:0,0:0:0:0:
158,180,77433,2,0,P|203:180|248:188,1,89.9999972534181,8|0,0:0|0:0,0:0:0:0:
344,240,77902,1,4,0:3:0:0:
252,296,78136,1,8,0:0:0:0:
348,348,78371,2,0,L|440:344,1,89.9999972534181,8|0,0:0|0:0,0:0:0:0:
508,220,78840,6,0,P|484:156|396:100,1,150,4|2,0:3|0:0,0:0:0:0:
298,313,79777,2,0,P|363:348|437:343,1,150,4|2,0:3|0:0,0:0:0:0:
224,272,80715,6,0,L|100:276,2,112.5,0|0|0,1:0|1:0|1:0,0:0:0:0:
300,220,81652,1,0,1:0:0:0:
244,48,82121,2,0,P|235:86|244:130,1,75,2|0,0:0|0:0,0:0:0:0:
300,220,82590,5,4,0:3:0:0:
443,327,83058,2,0,P|459:337|476:346,3,37.5,2|0|2|0,0:0|0:0|0:0|0:0,0:0:0:0:
400,184,83879,2,0,L|404:104,1,75,0|0,1:0|0:0,0:0:0:0:
452,56,84230,1,0,1:0:0:0:
204,164,84933,2,0,L|112:160,1,75,2|2,0:0|0:0,0:0:0:0:
129,160,86340,5,4,0:3:0:0:
28,308,86808,2,0,L|24:352,3,37.5,2|0|2|0,0:0|0:0|0:0|0:0,0:0:0:0:
164,232,87629,2,0,L|168:308,1,75,0|0,1:0|0:0,0:0:0:0:
224,352,87980,1,0,1:0:0:0:
