osu file format v14

[General]
AudioFilename: audio.mp3
AudioLeadIn: 0
PreviewTime: 70414
Countdown: 0
SampleSet: None
StackLeniency: 0.4
Mode: 0
LetterboxInBreaks: 0
WidescreenStoryboard: 1

[Editor]
Bookmarks: 6268,21878,37488,53097,67732,70658,84317
DistanceSpacing: 1.2
BeatDivisor: 4
GridSize: 8
TimelineZoom: 2.049999

[Metadata]
Title:More One Night
TitleUnicode:More One Night
Artist:Chito (CV: Minase Inori), Yuuri (CV: Kubo Yurika)
ArtistUnicode:チト(CV:水瀬いのり)、ユーリ(CV:久保ユリカ)
Creator:how2miss
Version:Hard
Source:少女終末旅行
Tags:girls last tour shoujo shuumatsu ryokou ed ending emon(Tes.)
BeatmapID:1548329
BeatmapSetID:716476

[Difficulty]
HPDrainRate:4
CircleSize:4
OverallDifficulty:6
ApproachRate:8
SliderMultiplier:1.6
SliderTickRate:1

[Events]
//Background and Video events
0,0,"shoujo shuumatsu 1.jpg",0,0
//Break Periods
//Storyboard Layer 0 (Background)
//Storyboard Layer 1 (Fail)
//Storyboard Layer 2 (Pass)
//Storyboard Layer 3 (Foreground)
//Storyboard Sound Samples

[TimingPoints]
415,487.80487804878,4,2,0,40,1,0
415,-166.666666666667,4,2,0,40,0,0
902,-166.666666666667,4,2,0,45,0,0
1390,-166.666666666667,4,2,0,50,0,0
1878,-166.666666666667,4,2,0,55,0,0
2366,-166.666666666667,4,2,0,60,0,0
2854,-166.666666666667,4,2,0,65,0,0
3341,-166.666666666667,4,2,0,70,0,0
3829,-166.666666666667,4,2,0,75,0,0
4317,-166.666666666667,4,2,0,5,0,0
6263,-166.666666666667,4,2,0,50,0,0
14073,-111.111111111111,4,3,0,60,0,0
17975,-111.111111111111,4,3,0,50,0,0
18463,-111.111111111111,4,3,0,55,0,0
18951,-111.111111111111,4,3,0,60,0,0
19439,-111.111111111111,4,3,0,65,0,0
21390,-111.111111111111,4,2,0,60,0,0
37488,-166.666666666666,4,2,0,60,0,0
49195,-111.111111111111,4,3,0,70,0,0
52610,-83.3333333333333,4,3,0,70,0,0
53097,-83.3333333333333,4,3,0,80,0,1
67732,-83.3333333333333,4,3,0,80,0,0
70658,-83.3333333333333,4,3,0,80,0,1
84317,-83.3333333333333,4,3,0,60,0,0

[Colours]
Combo1 : 240,169,125
Combo2 : 170,190,210
Combo3 : 89,139,164
Combo4 : 236,216,183

[HitObjects]
256,192,415,12,0,4317,0:0:0:0:
0,313,6268,6,0,B|89:270|95:339|185:296,1,191.999994140625,4|0,0:0|0:0,0:0:0:0:
229,220,7610,1,0,0:0:0:0:
189,143,7975,2,0,B|155:133|132:102|132:102|116:136|83:153,1,143.999995605469,2|0,0:0|0:0,0:0:0:0:
260,5,9683,2,0,L|255:60,1,47.9999985351563,2|0,0:0|0:0,0:0:0:0:
221,99,10171,6,0,B|277:86|316:122|316:122|363:142|412:118,1,191.999994140625,2|0,0:0|0:0,0:0:0:0:
445,46,11512,1,0,0:0:0:0:
512,101,11878,2,0,B|506:168|506:168|501:176|501:176|495:244,1,143.999995605469,2|0,0:0|0:0,0:0:0:0:
511,357,13097,2,0,P|473:325|410:321,1,95.9999970703126,2|0,0:0|0:0,0:0:0:0:
263,369,14073,38,0,P|230:383|194:383,1,71.9999978027344,4|0,0:0|0:0,0:0:0:0:
126,328,14561,1,8,0:0:0:0:
59,383,14805,1,0,0:0:0:0:
1,318,15049,2,4,L|5:262,1,35.9999989013672
45,206,15414,2,0,L|40:150,1,35.9999989013672,4|8,0:0|0:0,0:0:0:0:
0,93,15780,1,0,0:0:0:0:
78,57,16024,6,0,P|111:71|147:71,1,71.9999978027344,4|0,0:0|0:0,0:0:0:0:
196,1,16512,1,8,0:0:0:0:
282,8,16756,1,0,0:0:0:0:
318,86,17000,2,4,L|314:142,1,35.9999989013672
263,191,17366,2,0,L|268:247,1,35.9999989013672,4|8,0:0|0:0,0:0:0:0:
277,313,17732,1,0,0:0:0:0:
339,372,17975,5,4,0:0:0:0:
425,365,18218,1,4,0:0:0:0:
359,292,18463,5,4,0:0:0:0:
453,284,18706,1,4,0:0:0:0:
379,212,18951,37,4,0:0:0:0:
482,203,19194,1,4,0:0:0:0:
399,132,19439,5,4,0:0:0:0:
510,122,19682,1,4,0:0:0:0:
421,46,19927,38,0,L|504:38,4,71.9999978027344
253,4,21390,22,0,P|211:9|184:27,1,71.9999978027344
100,24,21878,2,0,P|83:62|112:137,1,107.999996704102,4|0,0:0|0:0,0:0:0:0:
109,133,22366,1,2,0:0:0:0:
195,126,22610,1,0,0:0:0:0:
244,196,22854,22,0,L|239:243,1,35.9999989013672,4|8,3:0|3:0,3:0:0:0:
168,278,23219,2,0,L|171:313,1,35.9999989013672,4|8,3:0|3:0,3:0:0:0:
121,383,23585,1,0,0:0:0:0:
35,376,23829,38,0,P|9:347|-1:313,1,71.9999978027344,2|0,0:0|0:0,0:0:0:0:
33,236,24317,2,0,P|67:222|103:223,1,71.9999978027344,2|0,0:0|0:0,0:0:0:0:
168,278,24805,22,0,L|215:273,1,35.9999989013672,4|8,3:0|3:0,3:0:0:0:
269,330,25171,2,0,L|316:335,1,35.9999989013672,4|8,3:0|3:0,3:0:0:0:
372,279,25536,1,0,0:0:0:0:
442,328,25780,6,0,P|456:291|454:256,1,71.9999978027344,2|0,0:0|0:0,0:0:0:0:
397,198,26268,2,0,P|396:162|409:129,1,71.9999978027344,2|0,0:0|0:0,0:0:0:0:
463,61,26756,22,0,L|416:56,1,35.9999989013672,4|8,3:0|3:0,3:0:0:0:
351,1,27122,2,0,L|304:6,1,35.9999989013672,4|8,3:0|3:0,3:0:0:0:
221,8,27488,1,0,0:0:0:0:
135,1,27732,38,0,P|101:12|74:36,1,71.9999978027344,2|0,0:0|0:0,0:0:0:0:
72,129,28219,2,0,P|97:154|130:167,1,71.9999978027344,2|0,0:0|0:0,0:0:0:0:
222,147,28707,22,0,L|217:194,1,35.9999989013672,4|8,3:0|3:0,3:0:0:0:
158,255,29073,2,0,L|163:302,1,35.9999989013672,4|8,3:0|3:0,3:0:0:0:
239,327,29439,1,0,0:0:0:0:
309,277,29683,6,0,P|347:294|422:265,1,107.999996704102,4|0,0:0|0:0,0:0:0:0:
418,268,30171,1,2,0:0:0:0:
411,182,30414,1,0,0:0:0:0:
404,96,30658,22,0,L|357:91,1,35.9999989013672,4|8,3:0|3:0,3:0:0:0:
285,47,31024,2,0,L|238:52,1,35.9999989013672,4|8,3:0|3:0,3:0:0:0:
155,59,31390,1,0,0:0:0:0:
135,142,31634,37,2,0:0:0:0:
49,149,31878,1,0,0:0:0:0:
29,232,32122,1,2,0:0:0:0:
102,276,32366,1,0,0:0:0:0:
169,222,32610,22,0,L|216:217,1,35.9999989013672,4|8,3:0|3:0,3:0:0:0:
269,285,32975,2,0,L|316:290,1,35.9999989013672,4|8,3:0|3:0,3:0:0:0:
377,229,33341,1,0,0:0:0:0:
463,222,33585,6,0,P|480:184|451:109,1,107.999996704102,4|0,0:0|0:0,0:0:0:0:
454,113,34073,1,2,0:0:0:0:
368,106,34317,1,0,0:0:0:0:
331,28,34561,2,0,P|297:39|261:34,1,71.9999978027344,2|0,0:0|0:0,0:0:0:0:
180,4,35049,2,0,P|137:0|107:12,1,71.9999978027344,2|0,0:0|0:0,0:0:0:0:
59,79,35536,5,2,3:0:0:0:
95,226,35780,1,2,3:0:0:0:
153,86,36024,1,2,3:0:0:0:
21,167,36268,1,2,3:0:0:0:
175,178,36512,1,2,3:0:0:0:
18,273,37488,38,0,P|56:305|119:309,1,95.9999970703126,4|0,0:0|0:0,0:0:0:0:
189,239,38463,2,0,L|195:318,2,71.9999978027344,2|0|0,0:0|0:0|0:0,0:0:0:0:
153,175,39439,6,0,P|191:143|254:139,1,95.9999970703126,2|0,0:0|0:0,0:0:0:0:
333,221,40414,2,0,L|339:141,2,71.9999978027344,2|0|0,0:0|0:0|0:0,0:0:0:0:
292,281,41390,38,0,P|330:313|393:317,1,95.9999970703126,4|0,0:0|0:0,0:0:0:0:
438,208,42366,2,0,L|517:214,2,71.9999978027344,2|0|0,0:0|0:0|0:0,0:0:0:0:
368,227,43341,6,0,P|356:178|381:120,1,95.9999970703126,2|0,0:0|0:0,0:0:0:0:
458,41,44317,2,0,P|410:58|350:39,1,95.9999970703126,2|0,0:0|0:0,0:0:0:0:
257,11,45293,38,0,P|210:2|165:19,1,95.9999970703126,4|0,0:0|0:0,0:0:0:0:
73,87,46268,1,2,0:0:0:0:
81,174,46634,1,0,0:0:0:0:
153,125,47000,1,0,0:0:0:0:
163,118,47244,6,0,P|209:109|254:126,1,95.9999970703126,2|0,0:0|0:0,0:0:0:0:
347,194,48219,1,2,0:0:0:0:
339,281,48585,1,0,0:0:0:0:
267,232,48951,1,0,0:0:0:0:
257,225,49195,6,0,P|211:211|165:223,3,71.9999978027344,4|0|0|0,0:0|0:0|0:0|0:0,0:0:0:0:
128,276,50171,2,0,P|92:278|58:265,3,71.9999978027344,4|0|0|0,0:0|0:0|0:0|0:0,0:0:0:0:
20,188,51146,5,8,0:0:0:0:
0,105,51390,1,8,0:0:0:0:
73,61,51634,1,8,0:0:0:0:
140,115,51878,1,8,0:0:0:0:
106,195,52122,1,4,0:0:0:0:
261,24,52610,38,0,P|307:13|351:31,1,95.9999970703126
421,2,53097,2,0,P|388:36|382:83,1,95.9999970703126,4|8,0:0|0:0,0:0:0:0:
323,133,53585,2,0,P|336:178|373:207,1,95.9999970703126,4|8,0:0|0:0,0:0:0:0:
450,217,54073,1,4,0:0:0:0:
511,347,54439,1,4,0:0:0:0:
368,335,54805,1,8,0:0:0:0:
443,299,55049,5,4,0:0:0:0:
377,258,55293,2,0,P|331:247|287:265,1,95.9999970703126,8|4,0:0|0:0,0:0:0:0:
236,322,55780,2,0,P|192:339|146:328,1,95.9999970703126,8|4,0:0|0:0,0:0:0:0:
77,284,56268,1,2,0:0:0:0:
89,270,56390,1,2,0:0:0:0:
104,258,56511,1,2,0:0:0:0:
185,254,56756,1,0,0:0:0:0:
222,181,57000,38,0,P|221:133|192:96,1,95.9999970703126,4|8,0:0|0:0,0:0:0:0:
199,19,57488,2,0,P|157:-3|111:2,1,95.9999970703126,4|8,0:0|0:0,0:0:0:0:
63,62,57975,1,4,0:0:0:0:
2,192,58341,1,4,0:0:0:0:
145,180,58707,1,8,0:0:0:0:
70,144,58951,6,0,L|78:239,1,95.9999970703126,4|8,0:0|0:0,0:0:0:0:
55,313,59439,2,0,L|150:321,1,95.9999970703126,4|8,0:0|0:0,0:0:0:0:
223,359,59927,1,4,0:0:0:0:
219,276,60171,1,2,0:0:0:0:
238,275,60292,1,2,0:0:0:0:
257,273,60414,1,2,0:0:0:0:
295,200,60658,1,0,0:0:0:0:
250,130,60902,38,0,P|277:91|322:77,1,95.9999970703126,4|8,0:0|0:0,0:0:0:0:
361,10,61390,2,0,P|407:14|442:46,1,95.9999970703126,4|8,0:0|0:0,0:0:0:0:
451,123,61878,1,4,0:0:0:0:
369,241,62244,1,4,0:0:0:0:
512,253,62610,1,8,0:0:0:0:
444,205,62854,6,0,P|406:166|360:157,1,95.9999970703126,4|8,0:0|0:0,0:0:0:0:
299,195,63341,2,0,P|285:244|301:290,1,95.9999970703126,4|8,0:0|0:0,0:0:0:0:
361,331,63829,2,0,B|265:304|271:373|175:346,1,191.999994140625,4|8,0:0|0:0,0:0:0:0:
137,278,64561,1,4,0:0:0:0:
167,207,64805,38,0,B|116:195|96:147|96:147|84:197|37:218,1,191.999994140625,4|8,0:0|0:0,0:0:0:0:
1,150,65536,1,0,0:0:0:0:
28,78,65780,2,0,B|51:28|108:9|155:27|155:27|161:79,1,191.999994140625,4|8,0:0|0:0,0:0:0:0:
241,118,66512,1,0,0:0:0:0:
309,52,66756,5,4,0:0:0:0:
389,4,67000,1,4,0:0:0:0:
463,63,67244,1,8,0:0:0:0:
425,151,67488,1,8,0:0:0:0:
331,144,67732,1,4,0:0:0:0:
256,192,67975,12,0,69683,0:0:0:0:
334,158,70658,37,4,0:0:0:0:
449,158,70902,1,4,0:0:0:0:
392,59,71146,1,8,0:0:0:0:
343,160,71390,5,4,0:0:0:0:
469,148,71634,1,4,0:0:0:0:
397,45,71878,1,8,0:0:0:0:
352,162,72122,37,4,0:0:0:0:
487,138,72366,1,4,0:0:0:0:
399,32,72610,1,8,0:0:0:0:
362,162,72854,5,4,0:0:0:0:
506,123,73098,1,4,0:0:0:0:
401,18,73342,1,8,0:0:0:0:
257,57,73585,6,0,P|238:100|248:146,1,95.9999970703126,0|0,0:0|0:0,0:0:0:0:
257,262,74073,2,0,P|275:218|265:172,1,95.9999970703126,0|0,0:0|0:0,0:0:0:0:
174,243,74561,21,4,0:0:0:0:
59,243,74805,1,4,0:0:0:0:
116,144,75049,1,8,0:0:0:0:
165,245,75293,5,4,0:0:0:0:
39,233,75537,1,4,0:0:0:0:
111,130,75781,1,8,0:0:0:0:
156,247,76025,37,4,0:0:0:0:
21,223,76269,1,4,0:0:0:0:
109,117,76513,1,8,0:0:0:0:
146,247,76757,5,4,0:0:0:0:
2,208,77001,1,4,0:0:0:0:
107,103,77245,1,8,0:0:0:0:
251,142,77488,22,0,P|270:185|260:231,1,95.9999970703126,0|0,0:0|0:0,0:0:0:0:
251,347,77976,2,0,P|233:303|243:257,1,95.9999970703126,0|0,0:0|0:0,0:0:0:0:
334,328,78463,5,4,0:0:0:0:
449,328,78707,1,4,0:0:0:0:
392,229,78951,1,8,0:0:0:0:
343,330,79195,5,4,0:0:0:0:
469,318,79439,1,4,0:0:0:0:
397,215,79683,1,8,0:0:0:0:
352,332,79927,37,4,0:0:0:0:
487,308,80171,1,4,0:0:0:0:
399,202,80415,1,8,0:0:0:0:
362,332,80659,5,4,0:0:0:0:
506,293,80903,1,4,0:0:0:0:
401,188,81147,1,8,0:0:0:0:
256,179,81390,6,0,P|237:222|247:268,1,95.9999970703126,0|0,0:0|0:0,0:0:0:0:
256,384,81878,2,0,P|274:340|264:294,1,95.9999970703126,0|0,0:0|0:0,0:0:0:0:
103,199,82366,21,4,0:0:0:0:
161,100,82610,1,4,0:0:0:0:
218,199,82854,1,8,0:0:0:0:
112,201,83098,5,4,0:0:0:0:
166,86,83341,1,4,0:0:0:0:
238,189,83586,1,8,0:0:0:0:
121,203,83830,37,4,0:0:0:0:
168,73,84074,1,4,0:0:0:0:
256,179,84318,1,8,0:0:0:0:
306,359,84805,21,0,0:0:0:0:
452,300,85293,2,0,P|428:302|404:297,3,47.9999985351563
330,275,85780,2,0,P|281:273|253:286,3,47.9999985351563
221,322,86268,5,4,0:0:0:0:
67,332,86756,1,4,0:0:0:0:
135,194,87244,1,4,0:0:0:0:
152,282,87488,37,2,0:0:0:0:
142,283,87609,1,2,0:0:0:0:
131,283,87731,1,10,0:0:0:0:
