osu file format v14

[General]
AudioFilename: audio.mp3
AudioLeadIn: 0
PreviewTime: 70414
Countdown: 0
SampleSet: None
StackLeniency: 0.4
Mode: 0
LetterboxInBreaks: 0
WidescreenStoryboard: 1

[Editor]
Bookmarks: 6268,21878,37488,53097,67732,70658,84317
DistanceSpacing: 1.3
BeatDivisor: 4
GridSize: 8
TimelineZoom: 2.049999

[Metadata]
Title:More One Night
TitleUnicode:More One Night
Artist:Chito (CV: Minase Inori), Yuuri (CV: Kubo Yurika)
ArtistUnicode:チト(CV:水瀬いのり)、ユーリ(CV:久保ユリカ)
Creator:how2miss
Version:Easy
Source:少女終末旅行
Tags:girls last tour shoujo shuumatsu ryokou ed ending emon(Tes.)
BeatmapID:1548328
BeatmapSetID:716476

[Difficulty]
HPDrainRate:2
CircleSize:2
OverallDifficulty:2
ApproachRate:3
SliderMultiplier:1.6
SliderTickRate:1

[Events]
//Background and Video events
0,0,"shoujo shuumatsu 1.jpg",0,0
//Break Periods
//Storyboard Layer 0 (Background)
//Storyboard Layer 1 (Fail)
//Storyboard Layer 2 (Pass)
//Storyboard Layer 3 (Foreground)
//Storyboard Sound Samples

[TimingPoints]
415,487.80487804878,4,3,0,100,1,0
415,-166.666666666667,4,2,0,40,0,0
897,-166.666666666667,4,2,0,45,0,0
1385,-166.666666666667,4,2,0,50,0,0
1873,-166.666666666667,4,2,0,55,0,0
2361,-166.666666666667,4,2,0,60,0,0
2849,-166.666666666667,4,2,0,65,0,0
3336,-166.666666666667,4,2,0,70,0,0
3824,-166.666666666667,4,2,0,75,0,0
4317,-166.666666666667,4,2,0,5,0,0
6263,-166.666666666667,4,2,0,50,0,0
14073,-166.666666666667,4,3,0,60,0,0
17975,-166.666666666667,4,3,0,50,0,0
18463,-166.666666666667,4,3,0,55,0,0
18951,-166.666666666667,4,3,0,60,0,0
19439,-166.666666666667,4,3,0,65,0,0
21390,-166.666666666667,4,2,0,60,0,0
49195,-166.666666666667,4,3,0,70,0,0
53097,-166.666666666667,4,3,0,80,0,1
67732,-166.666666666667,4,3,0,80,0,0
70658,-166.666666666667,4,3,0,80,0,1
84317,-166.666666666667,4,3,0,60,0,0

[Colours]
Combo1 : 240,169,125
Combo2 : 170,190,210
Combo3 : 89,139,164
Combo4 : 236,216,183

[HitObjects]
256,192,415,12,0,4317,0:0:0:0:
193,99,6268,6,0,B|282:56|288:125|378:82,1,191.999994140625,4|0,0:0|0:0,0:0:0:0:
439,11,7610,1,0,0:0:0:0:
512,71,7975,2,0,L|498:230,1,143.999995605469,2|0,0:0|0:0,0:0:0:0:
302,369,9683,1,2,0:0:0:0:
286,245,10171,6,0,B|241:252|212:284|212:284|154:282|119:235,1,191.999994140625,2|0,0:0|0:0,0:0:0:0:
80,152,11512,1,0,0:0:0:0:
0,201,11878,2,0,L|14:360,1,143.999995605469,2|0,0:0|0:0,0:0:0:0:
133,377,13097,2,0,L|124:281,1,95.9999970703126,2|0,0:0|0:0,0:0:0:0:
113,156,14073,38,0,B|156:133|178:88|178:88|208:129|254:142,1,191.999994140625,4|8,0:0|0:0,0:0:0:0:
348,151,15414,1,8,0:0:0:0:
386,66,15780,2,0,P|435:116|425:204,1,143.999995605469,4|0,0:0|0:0,0:0:0:0:
326,251,17000,1,8,0:0:0:0:
336,374,17488,1,8,0:0:0:0:
256,192,17975,12,0,19927,0:0:0:0:
46,58,21390,5,0,0:0:0:0:
2,175,21878,2,0,P|52:224|97:230,1,95.9999970703126,4|0,0:0|0:0,0:0:0:0:
181,163,22854,2,0,L|187:242,2,71.9999978027344,4|8|4,3:0|3:0|3:0,3:0:0:0:
150,108,23829,2,0,P|200:59|245:53,1,95.9999970703126,2|0,0:0|0:0,0:0:0:0:
329,120,24805,2,0,L|335:40,2,71.9999978027344,4|8|4,3:0|3:0|3:0,3:0:0:0:
299,175,25780,38,0,P|317:242|353:270,1,95.9999970703126,2|0,0:0|0:0,0:0:0:0:
441,325,26756,2,0,L|512:318,2,71.9999978027344,4|8|4,3:0|3:0|3:0,3:0:0:0:
400,373,27732,2,0,P|353:379|309:361,1,95.9999970703126,2|0,0:0|0:0,0:0:0:0:
237,258,28707,1,4,3:0:0:0:
185,370,29195,1,8,3:0:0:0:
114,268,29683,6,0,P|108:198|132:159,1,95.9999970703126,4|0,0:0|0:0,0:0:0:0:
199,80,30658,2,0,L|127:74,2,71.9999978027344,4|8|4,3:0|3:0|3:0,3:0:0:0:
245,121,31634,2,0,P|314:126|353:102,1,95.9999970703126,2|0,0:0|0:0,0:0:0:0:
438,41,32610,2,0,L|428:152,1,95.9999970703126,2|0,0:0|0:0,0:0:0:0:
470,254,33585,38,0,P|401:259|362:235,1,95.9999970703126,4|0,0:0|0:0,0:0:0:0:
253,252,34561,2,0,P|207:237|161:246,1,95.9999970703126,2|0,0:0|0:0,0:0:0:0:
60,319,35536,1,4,3:0:0:0:
50,196,36024,1,4,3:0:0:0:
40,73,36512,1,8,3:0:0:0:
261,28,37488,6,0,B|350:70|356:1|446:44,1,191.999994140625,4|0,0:0|0:0,0:0:0:0:
388,155,38951,1,0,0:0:0:0:
470,249,39439,2,0,P|439:312|311:309,1,191.999994140625,2|0,0:0|0:0,0:0:0:0:
287,204,40902,1,0,0:0:0:0:
174,257,41390,38,0,B|126:263|97:308|97:308|54:338|-11:319,1,191.999994140625,4|0,0:0|0:0,0:0:0:0:
35,201,42854,1,0,0:0:0:0:
0,79,43341,2,0,B|47:65|77:24|77:24|99:69|142:92,1,191.999994140625,2|0,0:0|0:0,0:0:0:0:
375,2,45293,6,0,B|363:136|363:136|390:186,1,191.999994140625,4|0,0:0|0:0,0:0:0:0:
487,265,46756,1,0,0:0:0:0:
373,315,47244,2,0,B|303:321|303:321|259:348|259:348|190:354,1,191.999994140625,2|0,2:0|0:0,0:0:0:0:
68,325,48707,1,0,0:0:0:0:
58,202,49195,5,4,0:0:0:0:
230,21,50171,1,4,0:0:0:0:
300,260,51146,5,4,0:0:0:0:
180,231,51634,1,4,0:0:0:0:
265,141,52122,1,4,0:0:0:0:
59,6,53097,38,0,P|10:56|4:101,1,95.9999970703126,4|8,0:0|0:0,0:0:0:0:
75,181,54073,2,0,L|4:186,2,71.9999978027344,4|8|4,0:0|0:0|0:0,0:0:0:0:
131,154,55049,2,0,P|180:204|186:249,1,95.9999970703126,4|8,0:0|0:0,0:0:0:0:
132,338,56024,1,4,0:0:0:0:
255,328,56512,1,8,0:0:0:0:
378,318,57000,6,0,P|427:268|433:223,1,95.9999970703126,4|8,0:0|0:0,0:0:0:0:
402,123,57976,2,0,L|473:117,2,71.9999978027344,4|8|4,0:0|0:0|0:0,0:0:0:0:
362,171,58952,2,0,P|291:170|255:142,1,95.9999970703126,4|8,0:0|0:0,0:0:0:0:
200,55,59927,2,0,P|156:36|109:42,1,95.9999970703126,4|8,0:0|0:0,0:0:0:0:
44,148,60902,38,0,P|63:195|100:225,1,95.9999970703126,4|8,0:0|0:0,0:0:0:0:
222,221,61878,2,0,L|228:292,2,71.9999978027344,4|8|4,0:0|0:0|0:0,0:0:0:0:
207,160,62854,2,0,P|246:128|294:121,1,95.9999970703126,4|8,0:0|0:0,0:0:0:0:
413,143,63829,1,4,0:0:0:0:
468,255,64317,1,8,0:0:0:0:
415,368,64805,6,0,L|303:358,1,95.9999970703126,4|8,0:0|0:0,0:0:0:0:
221,282,65780,2,0,L|125:290,1,95.9999970703126,4|8,0:0|0:0,0:0:0:0:
24,361,66756,1,4,0:0:0:0:
14,238,67244,1,4,0:0:0:0:
5,115,67732,1,8,0:0:0:0:
329,76,70658,38,0,P|262:99|219:85,1,95.9999970703126,4|8,0:0|0:0,0:0:0:0:
127,38,71634,2,0,P|79:35|37:56,1,95.9999970703126,4|8,0:0|0:0,0:0:0:0:
104,162,72610,2,0,L|112:257,1,95.9999970703126,4|8,0:0|0:0,0:0:0:0:
10,327,73585,1,4,0:0:0:0:
0,204,74073,1,8,0:0:0:0:
112,257,74561,6,0,P|178:280|221:266,1,95.9999970703126,4|8,0:0|0:0,0:0:0:0:
314,219,75537,2,0,P|361:216|403:237,1,95.9999970703126,4|8,0:0|0:0,0:0:0:0:
506,308,76512,2,0,L|497:212,1,95.9999970703126,4|8,0:0|0:0,0:0:0:0:
483,88,77488,1,4,0:0:0:0:
360,78,77976,1,8,0:0:0:0:
237,68,78463,38,0,P|214:135|228:178,1,95.9999970703126,4|8,0:0|0:0,0:0:0:0:
300,252,79439,2,0,P|303:300|282:342,1,95.9999970703126,4|8,0:0|0:0,0:0:0:0:
176,275,80415,2,0,L|81:267,1,95.9999970703126,4|8,0:0|0:0,0:0:0:0:
28,155,81390,1,4,0:0:0:0:
98,53,81878,1,8,0:0:0:0:
221,63,82366,6,0,P|284:94|305:134,1,95.9999970703126,4|8,0:0|0:0,0:0:0:0:
294,238,83341,2,0,P|325:273|370:288,1,95.9999970703126,4|8,0:0|0:0,0:0:0:0:
486,241,84317,37,0,0:0:0:0:
393,8,85293,1,0,0:0:0:0:
238,206,86268,5,12,3:0:0:0:
362,223,86756,1,12,3:0:0:0:
316,107,87244,1,4,3:0:0:0:
