osu file format v14

[General]
AudioFilename: audio.ogg
AudioLeadIn: 0
PreviewTime: 204065
Countdown: 0
SampleSet: Normal
StackLeniency: 0.7
Mode: 1
LetterboxInBreaks: 0
WidescreenStoryboard: 0

[Editor]
Bookmarks: 679,23179,38179,53179,83179,90679,105679,120679,135679,165725,180725,188225,195725,204162,237914
DistanceSpacing: 2.5
BeatDivisor: 4
GridSize: 8
TimelineZoom: 2

[Metadata]
Title:Ugoku, Ugoku
TitleUnicode:動く、動く
Artist:Chito (CV: Minase Inori), Yuuri (CV: Kubo Yurika)
ArtistUnicode:チト (CV: 水瀬いのり)、ユーリ (CV: 久保ユリカ)
Creator:komasy
Version:Last Tour
Source:少女終末旅行
Tags:Anime Japanese jpop j-pop op opening Full Version ver. girls' last dab tour shōjo shūmatsu ryokō shoujo shuumatsu ryokou 毛蟹 kegani LIVE LAB.
BeatmapID:2826396
BeatmapSetID:1366582

[Difficulty]
HPDrainRate:6
CircleSize:5
OverallDifficulty:5.5
ApproachRate:10
SliderMultiplier:1.4
SliderTickRate:1

[Events]
//Background and Video events
0,0,"43416-ShoujoShuumatsuRyokou-PC.jpg",0,-35
//Break Periods
//Storyboard Layer 0 (Background)
//Storyboard Layer 1 (Fail)
//Storyboard Layer 2 (Pass)
//Storyboard Layer 3 (Foreground)
//Storyboard Layer 4 (Overlay)
//Storyboard Sound Samples

[TimingPoints]
687,468.75,4,1,0,40,1,0
687,-111.111111111111,4,1,0,40,0,0
7132,-111.111111111111,4,1,0,30,0,0
8069,-105.263157894737,4,1,0,45,0,0
14632,-105.263157894737,4,1,0,30,0,0
15569,-100,4,1,0,55,0,0
21429,-105.263157894737,4,1,0,30,0,0
22132,-111.111111111111,4,1,0,20,0,0
22366,-113.636363636364,4,1,0,20,0,0
22601,-116.279069767442,4,1,0,20,0,0
23069,-100,4,1,0,55,0,0
38069,-105.263157894737,4,1,0,40,0,0
45569,-100,4,1,0,70,0,0
49319,-95.2380952380952,4,1,0,70,0,0
51194,-90.9090909090909,4,1,0,70,0,0
52249,-100,4,1,0,20,0,0
53069,-90.9090909090909,4,1,0,80,0,0
53187,-90.9090909090909,4,1,0,80,0,1
67601,-100,4,1,0,80,0,1
67718,-100,4,1,0,80,0,0
67796,-98.3935288543943,4,1,0,80,0,0
67874,-96.8379504054121,4,1,0,80,0,0
67952,-95.3307022059524,4,1,0,80,0,0
68069,-90.9090909090909,4,1,0,80,0,0
68187,-90.9090909090909,4,1,0,80,0,1
82601,-100,4,1,0,80,0,1
83187,-111.111111111111,4,1,0,80,0,0
83304,-111.111111111111,4,1,0,40,0,0
90101,-105.263157894737,4,1,0,40,0,0
90569,-100,4,1,0,55,0,0
103812,-100,4,1,0,40,0,0
105335,-100,4,1,0,20,0,0
105804,-100,4,1,0,55,0,0
120569,-105.263157894737,4,1,0,40,0,0
128069,-100,4,1,0,70,0,0
131819,-95.2380952380952,4,1,0,70,0,0
133694,-90.9090909090909,4,1,0,70,0,0
134720,-100,4,1,0,20,0,0
134973,-100,4,1,0,60,0,0
135208,-96.8169491623882,4,1,0,60,0,0
135325,-95.3002673172498,4,1,0,60,0,0
135442,-93.8303715776545,4,1,0,60,0,0
135559,-90.9090909090909,4,1,0,80,0,0
135687,-90.9090909090909,4,1,0,80,0,1
150101,-100,4,1,0,80,0,1
150218,-100,4,1,0,80,0,0
150296,-98.3935288543943,4,1,0,80,0,0
150374,-96.8379504054121,4,1,0,80,0,0
150452,-95.3307022059524,4,1,0,80,0,0
150569,-93.1559271856011,4,1,0,80,0,0
150687,-91.0780821506086,4,1,0,80,0,1
165101,-98.0392156862745,4,1,0,80,0,1
165687,-105.263157894737,4,1,0,80,0,0
165804,-105.263157894737,4,1,0,60,0,0
173069,-100,4,1,0,80,0,0
176819,-95.2380952380952,4,1,0,80,0,0
178694,-90.9090909090909,4,1,0,80,0,0
179690,-86.9565217391304,4,1,0,80,0,0
179983,-86.9565217391304,4,1,0,70,0,0
180218,-86.9565217391304,4,1,0,60,0,0
180452,-111.111111111111,4,1,0,50,0,0
180804,-111.111111111111,4,1,0,40,0,0
188069,-105.263157894737,4,1,0,40,0,0
195569,-100,4,1,0,70,0,0
199319,-95.2380952380952,4,1,0,70,0,0
201194,-90.9090909090909,4,1,0,70,0,0
202249,-90.9090909090909,4,1,0,50,0,0
202366,-93.4579439252336,4,1,0,50,0,0
202601,-96.1538461538461,4,1,0,50,0,0
202835,-100,4,1,0,50,0,0
203069,-100,4,1,0,5,0,0
204007,-86.9565217391304,4,1,0,80,0,0
204124,468.75,4,1,0,80,1,1
204124,-86.9565217391304,4,1,0,80,0,1
218538,-100,4,1,0,80,0,1
218655,-100,4,1,0,80,0,0
218733,-98.3935288543943,4,1,0,80,0,0
218811,-96.8379504054121,4,1,0,80,0,0
218889,-95.3307022059524,4,1,0,80,0,0
219006,-86.9565217391304,4,1,0,80,0,0
219124,-86.9565217391304,4,1,0,80,0,1
230139,-90.0900900900901,4,1,0,80,0,1
230217,-91.743119266055,4,1,0,80,0,1
230295,-93.4579439252336,4,1,0,80,0,1
230374,-95.1139941219552,4,1,0,80,0,1
237405,-100,4,1,0,80,0,0
237756,-90.9090909090909,4,1,0,80,0,0
237874,-90.9090909090909,4,1,0,80,0,1
252756,-100,4,1,0,80,0,1
264006,-95.2380952380952,4,1,0,80,0,1
265881,-90.9090909090909,4,1,0,80,0,1
266877,-86.9565217391304,4,1,0,80,0,1
267375,-86.9565217391304,4,1,0,20,0,1
267756,-111.111111111111,4,1,0,40,0,1
267874,-111.111111111111,4,1,0,40,0,0
269162,-115.723328665826,4,1,0,40,0,0
269513,-117.048322229349,4,1,0,40,0,0
271623,-125.683087581003,4,1,0,40,0,0
272912,-131.616527350572,4,1,0,40,0,0
273263,-133.333333333333,4,1,0,40,0,0

[HitObjects]
160,96,687,5,0,0:0:0:0:
160,96,1976,1,0,0:0:0:0:
160,96,2327,1,0,0:0:0:0:
352,96,4437,1,0,0:0:0:0:
352,96,5726,1,8,0:0:0:0:
352,96,6077,1,8,0:0:0:0:
352,96,7249,1,8,0:0:0:0:
160,96,7366,1,0,0:0:0:0:
160,96,7483,1,0,0:0:0:0:
352,96,7601,1,8,0:0:0:0:
160,96,7718,1,0,0:0:0:0:
160,96,8187,1,0,0:0:0:0:
160,96,9476,1,0,0:0:0:0:
160,96,9827,1,0,0:0:0:0:
352,96,10999,1,8,0:0:0:0:
352,96,11233,1,8,0:0:0:0:
352,96,11468,1,8,0:0:0:0:
352,96,11702,1,8,0:0:0:0:
160,96,11937,1,0,0:0:0:0:
160,96,13226,1,0,0:0:0:0:
160,96,13577,1,0,0:0:0:0:
160,96,14749,1,0,0:0:0:0:
352,96,14983,1,8,0:0:0:0:
160,96,15218,1,0,0:0:0:0:
352,96,15296,1,8,0:0:0:0:
160,96,15452,1,0,0:0:0:0:
160,96,15687,1,0,0:0:0:0:
352,96,16155,1,8,0:0:0:0:
352,96,16272,1,8,0:0:0:0:
352,96,16507,1,8,0:0:0:0:
352,96,16858,1,8,0:0:0:0:
160,96,16976,1,0,0:0:0:0:
160,96,17327,1,0,0:0:0:0:
352,96,18030,1,8,0:0:0:0:
352,96,18147,1,8,0:0:0:0:
352,96,18265,1,8,0:0:0:0:
160,96,18499,1,0,0:0:0:0:
160,96,18733,1,0,0:0:0:0:
352,96,18968,1,8,0:0:0:0:
352,96,19202,1,8,0:0:0:0:
160,96,19437,1,0,0:0:0:0:
352,96,19905,1,8,0:0:0:0:
352,96,20022,1,8,0:0:0:0:
352,96,20257,1,8,0:0:0:0:
352,96,20726,1,8,0:0:0:0:
160,96,21077,1,0,0:0:0:0:
352,96,21780,1,8,0:0:0:0:
352,96,21839,1,8,0:0:0:0:
160,96,22249,1,8,0:0:0:0:
160,96,22483,1,8,0:0:0:0:
352,96,22718,1,8,0:0:0:0:
160,96,23187,1,0,0:0:0:0:
160,96,23421,1,0,0:0:0:0:
160,96,23538,1,0,0:0:0:0:
352,96,23655,1,8,0:0:0:0:
352,96,23772,1,8,0:0:0:0:
352,96,23890,1,8,0:0:0:0:
160,96,24124,1,0,0:0:0:0:
160,96,24358,1,0,0:0:0:0:
352,96,24476,1,8,0:0:0:0:
160,96,24593,1,0,0:0:0:0:
352,96,24827,1,8,0:0:0:0:
160,96,25062,1,0,0:0:0:0:
160,96,25296,1,0,0:0:0:0:
160,96,25413,1,0,0:0:0:0:
352,96,25530,1,8,0:0:0:0:
352,96,25765,1,8,0:0:0:0:
160,96,25999,1,0,0:0:0:0:
352,96,26233,1,8,0:0:0:0:
160,96,26351,1,0,0:0:0:0:
352,96,26468,1,8,0:0:0:0:
352,96,26585,1,8,0:0:0:0:
352,96,26819,1,8,0:0:0:0:
160,96,26937,1,0,0:0:0:0:
160,96,27171,1,0,0:0:0:0:
160,96,27288,1,0,0:0:0:0:
352,96,27405,1,8,0:0:0:0:
160,96,27522,1,0,0:0:0:0:
352,96,27640,1,8,0:0:0:0:
352,96,27757,1,8,0:0:0:0:
160,96,27874,1,0,0:0:0:0:
160,96,28108,1,0,0:0:0:0:
352,96,28226,1,8,0:0:0:0:
160,96,28343,1,0,0:0:0:0:
352,96,28577,1,8,0:0:0:0:
160,96,28812,1,0,0:0:0:0:
160,96,29046,1,0,0:0:0:0:
160,96,29163,1,0,0:0:0:0:
352,96,29280,1,8,0:0:0:0:
352,96,29515,1,8,0:0:0:0:
160,96,29749,1,0,0:0:0:0:
352,96,29866,1,8,0:0:0:0:
160,96,29983,1,0,0:0:0:0:
352,96,30101,1,8,0:0:0:0:
160,96,30218,1,0,0:0:0:0:
160,96,30452,1,0,0:0:0:0:
160,96,30687,1,0,0:0:0:0:
352,96,30921,1,8,0:0:0:0:
160,96,31038,1,0,0:0:0:0:
352,96,31155,1,8,0:0:0:0:
352,96,31272,1,8,0:0:0:0:
352,96,31390,1,8,0:0:0:0:
160,96,31624,1,0,0:0:0:0:
160,96,31858,1,0,0:0:0:0:
352,96,31976,1,8,0:0:0:0:
160,96,32093,1,0,0:0:0:0:
352,96,32327,1,8,0:0:0:0:
160,96,32562,1,0,0:0:0:0:
160,96,32796,1,0,0:0:0:0:
160,96,32913,1,0,0:0:0:0:
352,96,33030,1,8,0:0:0:0:
352,96,33147,1,8,0:0:0:0:
352,96,33265,1,8,0:0:0:0:
160,96,33499,1,0,0:0:0:0:
352,96,33733,1,8,0:0:0:0:
160,96,33851,1,0,0:0:0:0:
352,96,33968,1,8,0:0:0:0:
352,96,34085,1,8,0:0:0:0:
352,96,34319,1,8,0:0:0:0:
160,96,34437,1,0,0:0:0:0:
160,96,34671,1,0,0:0:0:0:
160,96,34788,1,0,0:0:0:0:
352,96,34905,1,8,0:0:0:0:
160,96,35022,1,0,0:0:0:0:
352,96,35140,1,8,0:0:0:0:
160,96,35374,1,0,0:0:0:0:
160,96,35608,1,0,0:0:0:0:
352,96,35726,1,8,0:0:0:0:
160,96,35843,1,0,0:0:0:0:
352,96,36077,1,8,0:0:0:0:
160,96,36312,1,0,0:0:0:0:
352,96,36546,1,8,0:0:0:0:
160,96,36780,1,0,0:0:0:0:
160,96,37249,1,0,0:0:0:0:
352,96,37483,1,8,0:0:0:0:
352,96,37718,1,8,0:0:0:0:
160,96,38187,1,0,0:0:0:0:
160,96,38890,1,0,0:0:0:0:
160,96,39124,1,0,0:0:0:0:
352,96,39593,1,8,0:0:0:0:
160,96,40062,1,0,0:0:0:0:
160,96,40765,1,0,0:0:0:0:
352,96,40999,1,8,0:0:0:0:
352,96,41468,1,8,0:0:0:0:
160,96,41937,1,0,0:0:0:0:
160,96,42171,1,0,0:0:0:0:
160,96,42640,1,0,0:0:0:0:
160,96,42874,1,0,0:0:0:0:
352,96,43343,1,8,0:0:0:0:
160,96,43812,1,0,0:0:0:0:
160,96,44515,1,0,0:0:0:0:
352,96,44749,1,8,0:0:0:0:
160,96,44983,1,0,0:0:0:0:
160,96,45101,1,0,0:0:0:0:
352,96,45218,1,8,0:0:0:0:
160,96,45687,1,0,0:0:0:0:
160,96,46155,1,0,0:0:0:0:
160,96,46624,1,0,0:0:0:0:
352,96,46858,1,8,0:0:0:0:
160,96,47093,1,0,0:0:0:0:
160,96,47327,1,0,0:0:0:0:
352,96,47562,1,8,0:0:0:0:
352,96,48030,1,8,0:0:0:0:
352,96,48499,1,8,0:0:0:0:
160,96,48733,1,0,0:0:0:0:
352,96,48968,1,8,0:0:0:0:
352,96,49202,1,8,0:0:0:0:
160,96,49437,1,0,0:0:0:0:
160,96,49671,1,0,0:0:0:0:
160,96,49788,1,0,0:0:0:0:
352,96,49905,1,8,0:0:0:0:
160,96,50140,1,0,0:0:0:0:
352,96,50374,1,8,0:0:0:0:
352,96,50608,1,8,0:0:0:0:
352,96,50726,1,8,0:0:0:0:
160,96,50843,1,0,0:0:0:0:
352,96,51077,1,8,0:0:0:0:
160,96,51312,1,0,0:0:0:0:
160,96,51429,1,0,0:0:0:0:
352,96,51546,1,8,0:0:0:0:
352,96,51663,1,8,0:0:0:0:
160,96,51780,1,0,0:0:0:0:
352,96,51839,1,0,0:0:0:0:
352,96,51897,1,8,0:0:0:0:
352,96,51956,1,8,0:0:0:0:
160,96,52015,1,0,0:0:0:0:
352,96,52073,1,0,0:0:0:0:
352,96,52132,1,8,0:0:0:0:
352,96,52190,1,8,0:0:0:0:
352,288,53187,1,12,0:0:0:0:
160,96,53538,1,0,0:0:0:0:
352,96,53655,1,8,0:0:0:0:
160,96,53890,1,0,0:0:0:0:
160,96,54007,1,0,0:0:0:0:
352,96,54124,1,8,0:0:0:0:
160,96,54358,1,0,0:0:0:0:
352,96,54593,1,8,0:0:0:0:
352,96,54827,1,8,0:0:0:0:
352,96,54944,1,8,0:0:0:0:
160,96,55062,1,0,0:0:0:0:
160,96,55296,1,0,0:0:0:0:
352,96,55530,1,8,0:0:0:0:
160,96,55765,1,0,0:0:0:0:
352,96,55882,1,8,0:0:0:0:
160,96,55999,1,0,0:0:0:0:
352,288,56233,1,12,0:0:0:0:
352,288,56468,1,12,0:0:0:0:
352,96,56702,1,8,0:0:0:0:
352,96,56780,1,8,0:0:0:0:
352,96,56858,1,8,0:0:0:0:
160,96,56937,1,0,0:0:0:0:
352,96,57171,1,8,0:0:0:0:
160,96,57288,1,0,0:0:0:0:
160,96,57522,1,0,0:0:0:0:
352,96,57640,1,8,0:0:0:0:
160,96,57874,1,0,0:0:0:0:
352,96,58108,1,8,0:0:0:0:
160,96,58226,1,0,0:0:0:0:
160,96,58460,1,0,0:0:0:0:
352,96,58577,1,8,0:0:0:0:
160,96,58812,1,0,0:0:0:0:
160,96,59046,1,0,0:0:0:0:
160,96,59163,1,0,0:0:0:0:
352,96,59280,1,8,0:0:0:0:
352,96,59515,1,8,0:0:0:0:
160,96,59749,1,0,0:0:0:0:
352,288,59983,1,12,0:0:0:0:
352,288,60218,1,12,0:0:0:0:
160,96,60452,1,0,0:0:0:0:
352,96,60687,1,8,0:0:0:0:
160,96,61038,1,0,0:0:0:0:
352,96,61155,1,8,0:0:0:0:
160,96,61390,1,0,0:0:0:0:
160,96,61507,1,0,0:0:0:0:
352,96,61624,1,8,0:0:0:0:
160,96,61858,1,0,0:0:0:0:
352,96,62093,1,8,0:0:0:0:
352,96,62327,1,8,0:0:0:0:
352,96,62444,1,8,0:0:0:0:
160,96,62562,1,0,0:0:0:0:
160,96,62796,1,0,0:0:0:0:
352,96,63030,1,8,0:0:0:0:
160,96,63265,1,0,0:0:0:0:
352,96,63382,1,8,0:0:0:0:
160,96,63499,1,0,0:0:0:0:
352,288,63733,1,12,0:0:0:0:
352,288,63968,1,12,0:0:0:0:
352,96,64202,1,8,0:0:0:0:
352,96,64280,1,8,0:0:0:0:
352,96,64358,1,8,0:0:0:0:
160,96,64437,1,0,0:0:0:0:
160,96,64671,1,0,0:0:0:0:
352,96,64788,1,8,0:0:0:0:
352,96,65022,1,8,0:0:0:0:
160,96,65140,1,0,0:0:0:0:
352,96,65374,1,8,0:0:0:0:
160,96,65608,1,0,0:0:0:0:
352,96,65726,1,8,0:0:0:0:
352,96,65960,1,8,0:0:0:0:
160,96,66077,1,0,0:0:0:0:
352,288,66312,1,12,0:0:0:0:
352,288,66663,1,12,0:0:0:0:
352,288,67015,1,12,0:0:0:0:
352,288,67249,1,12,0:0:0:0:
352,96,67718,1,8,0:0:0:0:
352,96,67796,1,8,0:0:0:0:
352,96,67874,1,8,0:0:0:0:
160,96,67952,1,0,0:0:0:0:
352,288,68187,1,12,0:0:0:0:
160,96,68538,1,0,0:0:0:0:
352,96,68655,1,8,0:0:0:0:
160,96,68890,1,0,0:0:0:0:
160,96,69007,1,0,0:0:0:0:
352,96,69124,1,8,0:0:0:0:
160,96,69358,1,0,0:0:0:0:
352,96,69593,1,8,0:0:0:0:
352,96,69827,1,8,0:0:0:0:
352,96,69944,1,8,0:0:0:0:
160,96,70062,1,0,0:0:0:0:
160,96,70296,1,0,0:0:0:0:
352,96,70530,1,8,0:0:0:0:
160,96,70765,1,0,0:0:0:0:
352,96,70882,1,8,0:0:0:0:
160,96,70999,1,0,0:0:0:0:
160,96,71116,1,0,0:0:0:0:
352,96,71233,1,8,0:0:0:0:
352,96,71468,1,8,0:0:0:0:
352,96,71702,1,8,0:0:0:0:
352,96,71780,1,8,0:0:0:0:
352,96,71858,1,8,0:0:0:0:
160,96,71937,1,0,0:0:0:0:
352,96,72171,1,8,0:0:0:0:
160,96,72288,1,0,0:0:0:0:
352,96,72405,1,8,0:0:0:0:
160,96,72640,1,0,0:0:0:0:
160,96,72874,1,0,0:0:0:0:
160,96,72991,1,0,0:0:0:0:
352,96,73108,1,8,0:0:0:0:
160,96,73226,1,0,0:0:0:0:
352,96,73343,1,8,0:0:0:0:
160,96,73577,1,0,0:0:0:0:
352,96,73812,1,8,0:0:0:0:
160,96,73929,1,0,0:0:0:0:
160,96,74046,1,0,0:0:0:0:
352,96,74280,1,8,0:0:0:0:
160,96,74515,1,0,0:0:0:0:
352,96,74632,1,8,0:0:0:0:
160,96,74749,1,0,0:0:0:0:
352,288,74983,1,12,0:0:0:0:
352,288,75218,1,12,0:0:0:0:
160,96,75452,1,0,0:0:0:0:
352,96,75687,1,8,0:0:0:0:
160,96,76038,1,0,0:0:0:0:
352,96,76155,1,8,0:0:0:0:
160,96,76390,1,0,0:0:0:0:
160,96,76507,1,0,0:0:0:0:
352,96,76624,1,8,0:0:0:0:
160,96,76858,1,0,0:0:0:0:
352,96,77093,1,8,0:0:0:0:
352,96,77327,1,8,0:0:0:0:
352,96,77444,1,8,0:0:0:0:
160,96,77562,1,0,0:0:0:0:
160,96,77796,1,0,0:0:0:0:
352,96,78030,1,8,0:0:0:0:
160,96,78265,1,0,0:0:0:0:
352,96,78382,1,8,0:0:0:0:
160,96,78499,1,0,0:0:0:0:
160,96,78616,1,0,0:0:0:0:
352,96,78733,1,8,0:0:0:0:
352,96,78968,1,8,0:0:0:0:
352,96,79202,1,8,0:0:0:0:
352,96,79280,1,8,0:0:0:0:
352,96,79358,1,8,0:0:0:0:
160,96,79437,1,0,0:0:0:0:
352,96,79905,1,8,0:0:0:0:
160,96,80140,1,0,0:0:0:0:
352,96,80374,1,8,0:0:0:0:
352,96,80608,1,8,0:0:0:0:
352,96,80726,1,8,0:0:0:0:
160,96,80843,1,0,0:0:0:0:
160,96,81077,1,0,0:0:0:0:
352,288,81312,1,12,0:0:0:0:
352,288,81663,1,12,0:0:0:0:
352,288,82015,1,12,0:0:0:0:
352,288,82249,1,12,0:0:0:0:
352,96,82718,1,8,0:0:0:0:
160,96,83187,1,0,0:0:0:0:
160,96,84476,1,0,0:0:0:0:
160,96,84827,1,0,0:0:0:0:
352,96,86937,1,0,0:0:0:0:
352,96,88226,1,8,0:0:0:0:
352,96,88577,1,8,0:0:0:0:
352,96,89046,1,8,0:0:0:0:
352,96,89163,1,8,0:0:0:0:
160,96,89280,1,0,0:0:0:0:
352,288,89749,1,12,0:0:0:0:
160,96,90218,1,0,0:0:0:0:
160,96,90687,1,0,0:0:0:0:
160,96,91155,1,0,0:0:0:0:
352,96,91272,1,8,0:0:0:0:
352,96,91507,1,8,0:0:0:0:
160,96,91624,1,0,0:0:0:0:
352,96,91976,1,8,0:0:0:0:
160,96,92093,1,0,0:0:0:0:
352,96,92327,1,8,0:0:0:0:
160,96,92562,1,0,0:0:0:0:
352,96,92796,1,8,0:0:0:0:
352,96,93030,1,8,0:0:0:0:
352,96,93499,1,8,0:0:0:0:
352,96,93851,1,8,0:0:0:0:
160,96,93968,1,0,0:0:0:0:
352,96,94202,1,8,0:0:0:0:
352,96,94319,1,8,0:0:0:0:
160,96,94437,1,0,0:0:0:0:
160,96,94905,1,0,0:0:0:0:
160,96,95022,1,0,0:0:0:0:
352,96,95257,1,8,0:0:0:0:
160,96,95374,1,0,0:0:0:0:
352,96,95726,1,8,0:0:0:0:
160,96,95843,1,0,0:0:0:0:
352,96,96077,1,8,0:0:0:0:
160,96,96312,1,0,0:0:0:0:
352,96,96546,1,8,0:0:0:0:
352,96,96780,1,8,0:0:0:0:
160,96,97015,1,0,0:0:0:0:
160,96,97132,1,0,0:0:0:0:
352,96,97249,1,8,0:0:0:0:
160,96,97601,1,0,0:0:0:0:
352,96,97718,1,8,0:0:0:0:
160,96,98187,1,0,0:0:0:0:
352,96,98655,1,8,0:0:0:0:
352,96,98772,1,8,0:0:0:0:
352,96,99007,1,8,0:0:0:0:
160,96,99124,1,0,0:0:0:0:
352,96,99476,1,8,0:0:0:0:
160,96,99593,1,0,0:0:0:0:
352,96,99827,1,8,0:0:0:0:
160,96,100062,1,0,0:0:0:0:
352,96,100296,1,8,0:0:0:0:
352,96,100530,1,8,0:0:0:0:
160,96,100647,1,0,0:0:0:0:
160,96,100765,1,0,0:0:0:0:
352,96,100999,1,8,0:0:0:0:
160,96,101233,1,0,0:0:0:0:
160,96,101351,1,0,0:0:0:0:
352,96,101468,1,8,0:0:0:0:
352,96,101702,1,8,0:0:0:0:
352,96,101819,1,8,0:0:0:0:
160,96,101937,1,0,0:0:0:0:
352,96,102405,1,8,0:0:0:0:
352,96,102522,1,8,0:0:0:0:
352,96,102757,1,8,0:0:0:0:
160,96,102874,1,0,0:0:0:0:
352,96,103226,1,8,0:0:0:0:
160,96,103343,1,0,0:0:0:0:
352,96,103577,1,8,0:0:0:0:
160,96,104046,1,0,0:0:0:0:
352,96,104163,1,8,0:0:0:0:
160,96,104280,1,0,0:0:0:0:
352,96,104397,1,8,0:0:0:0:
160,96,104515,1,0,0:0:0:0:
352,96,104632,1,8,0:0:0:0:
160,96,104749,1,0,0:0:0:0:
352,96,104983,1,8,0:0:0:0:
160,96,105218,1,0,0:0:0:0:
256,192,105452,12,0,105687,0:0:0:0:
160,96,105921,5,0,0:0:0:0:
160,96,106038,1,0,0:0:0:0:
352,96,106155,1,8,0:0:0:0:
160,96,106272,1,0,0:0:0:0:
352,96,106390,1,8,0:0:0:0:
160,96,106624,1,0,0:0:0:0:
160,96,106858,1,0,0:0:0:0:
352,96,106976,1,8,0:0:0:0:
160,96,107093,1,0,0:0:0:0:
352,96,107327,1,8,0:0:0:0:
160,96,107562,1,0,0:0:0:0:
160,96,107796,1,0,0:0:0:0:
160,96,107913,1,0,0:0:0:0:
352,96,108030,1,8,0:0:0:0:
352,96,108265,1,8,0:0:0:0:
160,96,108499,1,0,0:0:0:0:
352,96,108733,1,8,0:0:0:0:
160,96,108851,1,0,0:0:0:0:
352,96,108968,1,8,0:0:0:0:
352,96,109085,1,8,0:0:0:0:
352,96,109319,1,8,0:0:0:0:
160,96,109437,1,0,0:0:0:0:
160,96,109671,1,0,0:0:0:0:
160,96,109788,1,0,0:0:0:0:
352,96,109905,1,8,0:0:0:0:
352,96,110022,1,8,0:0:0:0:
352,96,110140,1,8,0:0:0:0:
160,96,110374,1,0,0:0:0:0:
160,96,110608,1,0,0:0:0:0:
352,96,110726,1,8,0:0:0:0:
160,96,110843,1,0,0:0:0:0:
352,96,111077,1,8,0:0:0:0:
160,96,111312,1,0,0:0:0:0:
352,96,111546,1,8,0:0:0:0:
352,96,111663,1,8,0:0:0:0:
160,96,111780,1,0,0:0:0:0:
352,96,112015,1,8,0:0:0:0:
160,96,112249,1,0,0:0:0:0:
352,96,112366,1,8,0:0:0:0:
160,96,112483,1,0,0:0:0:0:
352,96,112601,1,8,0:0:0:0:
160,96,112718,1,0,0:0:0:0:
160,96,112952,1,0,0:0:0:0:
160,96,113187,1,0,0:0:0:0:
352,96,113421,1,8,0:0:0:0:
160,96,113538,1,0,0:0:0:0:
352,96,113655,1,8,0:0:0:0:
160,96,113772,1,0,0:0:0:0:
352,96,113890,1,8,0:0:0:0:
352,96,114007,1,8,0:0:0:0:
160,96,114124,1,0,0:0:0:0:
160,96,114358,1,0,0:0:0:0:
352,96,114476,1,8,0:0:0:0:
160,96,114593,1,0,0:0:0:0:
352,96,114827,1,8,0:0:0:0:
160,96,115062,1,0,0:0:0:0:
352,96,115296,1,8,0:0:0:0:
160,96,115413,1,0,0:0:0:0:
352,96,115530,1,8,0:0:0:0:
352,96,115765,1,8,0:0:0:0:
352,96,115882,1,8,0:0:0:0:
160,96,115999,1,0,0:0:0:0:
352,96,116233,1,8,0:0:0:0:
160,96,116351,1,0,0:0:0:0:
352,96,116468,1,8,0:0:0:0:
352,96,116585,1,8,0:0:0:0:
352,96,116819,1,8,0:0:0:0:
160,96,116937,1,0,0:0:0:0:
352,96,117171,1,8,0:0:0:0:
160,96,117288,1,0,0:0:0:0:
160,96,117405,1,0,0:0:0:0:
352,96,117522,1,8,0:0:0:0:
160,96,117640,1,0,0:0:0:0:
352,96,117874,1,8,0:0:0:0:
160,96,118108,1,0,0:0:0:0:
352,96,118226,1,8,0:0:0:0:
160,96,118343,1,0,0:0:0:0:
160,96,118460,1,0,0:0:0:0:
352,96,118577,1,8,0:0:0:0:
160,96,118812,1,0,0:0:0:0:
352,96,119046,1,8,0:0:0:0:
160,96,119280,1,0,0:0:0:0:
352,96,119515,1,8,0:0:0:0:
160,96,119749,1,0,0:0:0:0:
160,96,119866,1,0,0:0:0:0:
352,96,119983,1,8,0:0:0:0:
352,96,120101,1,8,0:0:0:0:
160,96,120687,1,0,0:0:0:0:
160,96,121390,1,0,0:0:0:0:
160,96,121624,1,0,0:0:0:0:
352,96,122093,1,8,0:0:0:0:
160,96,122562,1,0,0:0:0:0:
160,96,123265,1,0,0:0:0:0:
352,96,123499,1,8,0:0:0:0:
352,96,123968,1,8,0:0:0:0:
160,96,124437,1,0,0:0:0:0:
160,96,124671,1,0,0:0:0:0:
160,96,125140,1,0,0:0:0:0:
160,96,125374,1,0,0:0:0:0:
352,96,125843,1,8,0:0:0:0:
160,96,126312,1,0,0:0:0:0:
160,96,127015,1,0,0:0:0:0:
352,96,127249,1,8,0:0:0:0:
160,96,127483,1,0,0:0:0:0:
160,96,127601,1,0,0:0:0:0:
352,96,127718,1,8,0:0:0:0:
160,96,128187,1,0,0:0:0:0:
160,96,128655,1,0,0:0:0:0:
160,96,129124,1,0,0:0:0:0:
352,96,129476,1,8,0:0:0:0:
160,96,129593,1,0,0:0:0:0:
160,96,129827,1,0,0:0:0:0:
352,96,130062,1,8,0:0:0:0:
352,96,130530,1,8,0:0:0:0:
352,96,130999,1,8,0:0:0:0:
160,96,131351,1,0,0:0:0:0:
352,96,131468,1,8,0:0:0:0:
352,96,131702,1,8,0:0:0:0:
160,96,131937,1,0,0:0:0:0:
160,96,132171,1,0,0:0:0:0:
160,96,132288,1,0,0:0:0:0:
352,96,132405,1,8,0:0:0:0:
160,96,132640,1,0,0:0:0:0:
352,96,132874,1,8,0:0:0:0:
352,96,133108,1,8,0:0:0:0:
352,96,133226,1,8,0:0:0:0:
160,96,133343,1,0,0:0:0:0:
352,96,133577,1,8,0:0:0:0:
160,96,133812,1,0,0:0:0:0:
160,96,133929,1,0,0:0:0:0:
352,96,134046,1,8,0:0:0:0:
352,96,134163,1,8,0:0:0:0:
160,96,134280,1,0,0:0:0:0:
160,96,134339,1,0,0:0:0:0:
352,96,134397,1,8,0:0:0:0:
352,96,134456,1,8,0:0:0:0:
160,96,134515,1,0,0:0:0:0:
160,96,134573,1,0,0:0:0:0:
352,96,134632,1,8,0:0:0:0:
352,96,134690,1,8,0:0:0:0:
352,96,134983,1,8,0:0:0:0:
160,96,135218,1,0,0:0:0:0:
352,96,135335,1,8,0:0:0:0:
160,96,135452,1,0,0:0:0:0:
352,288,135687,1,12,0:0:0:0:
160,96,136038,1,0,0:0:0:0:
352,96,136155,1,8,0:0:0:0:
160,96,136390,1,0,0:0:0:0:
160,96,136507,1,0,0:0:0:0:
352,96,136624,1,8,0:0:0:0:
160,96,136858,1,0,0:0:0:0:
352,96,137093,1,8,0:0:0:0:
352,96,137327,1,8,0:0:0:0:
352,96,137444,1,8,0:0:0:0:
160,96,137562,1,0,0:0:0:0:
160,96,137679,1,0,0:0:0:0:
160,96,137796,1,0,0:0:0:0:
352,96,138030,1,8,0:0:0:0:
160,96,138265,1,0,0:0:0:0:
352,96,138382,1,8,0:0:0:0:
160,96,138499,1,0,0:0:0:0:
352,288,138733,1,12,0:0:0:0:
352,288,138968,1,12,0:0:0:0:
352,96,139202,1,8,0:0:0:0:
352,96,139280,1,8,0:0:0:0:
352,96,139358,1,8,0:0:0:0:
160,96,139437,1,0,0:0:0:0:
352,96,139671,1,8,0:0:0:0:
160,96,139788,1,0,0:0:0:0:
160,96,140022,1,0,0:0:0:0:
352,96,140140,1,8,0:0:0:0:
160,96,140374,1,0,0:0:0:0:
352,96,140608,1,8,0:0:0:0:
160,96,140726,1,0,0:0:0:0:
160,96,140960,1,0,0:0:0:0:
352,96,141077,1,8,0:0:0:0:
352,96,141194,1,8,0:0:0:0:
160,96,141312,1,0,0:0:0:0:
160,96,141546,1,0,0:0:0:0:
352,96,141780,1,8,0:0:0:0:
352,96,142015,1,8,0:0:0:0:
352,96,142132,1,8,0:0:0:0:
160,96,142249,1,0,0:0:0:0:
352,288,142483,1,12,0:0:0:0:
352,288,142718,1,12,0:0:0:0:
160,96,142952,1,0,0:0:0:0:
352,96,143187,1,8,0:0:0:0:
160,96,143538,1,0,0:0:0:0:
352,96,143655,1,8,0:0:0:0:
160,96,143890,1,0,0:0:0:0:
160,96,144007,1,0,0:0:0:0:
352,96,144124,1,8,0:0:0:0:
160,96,144358,1,0,0:0:0:0:
352,96,144593,1,8,0:0:0:0:
352,96,144827,1,8,0:0:0:0:
352,96,144944,1,8,0:0:0:0:
160,96,145062,1,0,0:0:0:0:
160,96,145179,1,0,0:0:0:0:
160,96,145296,1,0,0:0:0:0:
352,96,145530,1,8,0:0:0:0:
160,96,145765,1,0,0:0:0:0:
352,96,145882,1,8,0:0:0:0:
160,96,145999,1,0,0:0:0:0:
352,288,146233,1,12,0:0:0:0:
352,288,146468,1,12,0:0:0:0:
352,96,146702,1,8,0:0:0:0:
352,96,146780,1,8,0:0:0:0:
352,96,146858,1,8,0:0:0:0:
160,96,146937,1,0,0:0:0:0:
160,96,147171,1,0,0:0:0:0:
352,96,147288,1,8,0:0:0:0:
352,96,147522,1,8,0:0:0:0:
160,96,147640,1,0,0:0:0:0:
352,96,147874,1,8,0:0:0:0:
160,96,148108,1,0,0:0:0:0:
352,96,148226,1,8,0:0:0:0:
352,96,148460,1,8,0:0:0:0:
160,96,148577,1,0,0:0:0:0:
160,96,148694,1,0,0:0:0:0:
352,288,148812,1,12,0:0:0:0:
352,288,149163,1,12,0:0:0:0:
352,288,149515,1,12,0:0:0:0:
352,288,149749,1,12,0:0:0:0:
352,96,150218,1,8,0:0:0:0:
352,96,150296,1,8,0:0:0:0:
352,96,150374,1,8,0:0:0:0:
160,96,150452,1,0,0:0:0:0:
160,96,150569,1,0,0:0:0:0:
352,288,150687,1,12,0:0:0:0:
160,96,151038,1,0,0:0:0:0:
352,96,151155,1,8,0:0:0:0:
160,96,151390,1,0,0:0:0:0:
160,96,151507,1,0,0:0:0:0:
352,96,151624,1,8,0:0:0:0:
160,96,151858,1,0,0:0:0:0:
352,96,152093,1,8,0:0:0:0:
352,96,152327,1,8,0:0:0:0:
352,96,152444,1,8,0:0:0:0:
160,96,152562,1,0,0:0:0:0:
352,96,152679,1,8,0:0:0:0:
160,96,152796,1,0,0:0:0:0:
352,96,153030,1,8,0:0:0:0:
160,96,153265,1,0,0:0:0:0:
352,96,153382,1,8,0:0:0:0:
160,96,153499,1,0,0:0:0:0:
160,96,153616,1,0,0:0:0:0:
352,96,153733,1,8,0:0:0:0:
352,96,153968,1,8,0:0:0:0:
352,96,154202,1,8,0:0:0:0:
352,96,154280,1,8,0:0:0:0:
352,96,154358,1,8,0:0:0:0:
160,96,154437,1,0,0:0:0:0:
352,96,154671,1,8,0:0:0:0:
160,96,154788,1,0,0:0:0:0:
352,96,154905,1,8,0:0:0:0:
160,96,155140,1,0,0:0:0:0:
160,96,155374,1,0,0:0:0:0:
160,96,155491,1,0,0:0:0:0:
352,96,155608,1,8,0:0:0:0:
160,96,155726,1,0,0:0:0:0:
352,96,155843,1,8,0:0:0:0:
160,96,156077,1,0,0:0:0:0:
352,96,156312,1,8,0:0:0:0:
352,96,156429,1,8,0:0:0:0:
160,96,156546,1,0,0:0:0:0:
160,96,156663,1,0,0:0:0:0:
352,96,156780,1,8,0:0:0:0:
352,96,157015,1,8,0:0:0:0:
160,96,157249,1,0,0:0:0:0:
352,288,157483,1,12,0:0:0:0:
352,288,157718,1,12,0:0:0:0:
160,96,157952,1,0,0:0:0:0:
352,96,158187,1,8,0:0:0:0:
160,96,158538,1,0,0:0:0:0:
352,96,158655,1,8,0:0:0:0:
160,96,158890,1,0,0:0:0:0:
160,96,159007,1,0,0:0:0:0:
352,96,159124,1,8,0:0:0:0:
160,96,159358,1,0,0:0:0:0:
352,96,159593,1,8,0:0:0:0:
352,96,159827,1,8,0:0:0:0:
352,96,159944,1,8,0:0:0:0:
160,96,160062,1,0,0:0:0:0:
352,96,160179,1,8,0:0:0:0:
160,96,160296,1,0,0:0:0:0:
352,96,160530,1,8,0:0:0:0:
160,96,160765,1,0,0:0:0:0:
352,96,160882,1,8,0:0:0:0:
160,96,160999,1,0,0:0:0:0:
160,96,161116,1,0,0:0:0:0:
352,96,161233,1,8,0:0:0:0:
352,96,161468,1,8,0:0:0:0:
352,96,161702,1,8,0:0:0:0:
352,96,161780,1,8,0:0:0:0:
352,96,161858,1,8,0:0:0:0:
160,96,161937,1,0,0:0:0:0:
352,96,162405,1,8,0:0:0:0:
160,96,162640,1,0,0:0:0:0:
352,96,162874,1,8,0:0:0:0:
352,96,163108,1,8,0:0:0:0:
352,96,163226,1,8,0:0:0:0:
160,96,163343,1,0,0:0:0:0:
160,96,163577,1,0,0:0:0:0:
352,288,163812,1,12,0:0:0:0:
352,288,164163,1,12,0:0:0:0:
352,288,164515,1,12,0:0:0:0:
352,288,164749,1,12,0:0:0:0:
352,288,165218,1,12,0:0:0:0:
160,288,165687,1,4,0:0:0:0:
160,96,167562,1,0,0:0:0:0:
160,96,169437,1,0,0:0:0:0:
160,96,171312,1,0,0:0:0:0:
160,96,172015,1,0,0:0:0:0:
160,96,172249,1,0,0:0:0:0:
352,96,172718,1,8,0:0:0:0:
160,96,173187,1,0,0:0:0:0:
160,96,173655,1,0,0:0:0:0:
160,96,174124,1,0,0:0:0:0:
160,96,174476,1,0,0:0:0:0:
352,96,174593,1,8,0:0:0:0:
160,96,174827,1,0,0:0:0:0:
352,96,175062,1,8,0:0:0:0:
352,96,175530,1,8,0:0:0:0:
352,96,175999,1,8,0:0:0:0:
352,96,176351,1,8,0:0:0:0:
160,96,176468,1,0,0:0:0:0:
352,96,176702,1,8,0:0:0:0:
160,96,176937,1,0,0:0:0:0:
160,96,177171,1,0,0:0:0:0:
160,96,177288,1,0,0:0:0:0:
352,96,177405,1,8,0:0:0:0:
160,96,177640,1,0,0:0:0:0:
352,96,177874,1,8,0:0:0:0:
352,96,178108,1,8,0:0:0:0:
352,96,178226,1,8,0:0:0:0:
160,96,178343,1,0,0:0:0:0:
352,96,178577,1,8,0:0:0:0:
160,96,178812,5,0,0:0:0:0:
160,96,178929,1,0,0:0:0:0:
352,96,179046,1,8,0:0:0:0:
352,96,179163,1,8,0:0:0:0:
160,96,179280,1,0,0:0:0:0:
160,96,179397,1,0,0:0:0:0:
352,96,179515,1,8,0:0:0:0:
352,96,179632,1,8,0:0:0:0:
256,192,179749,12,0,180452,0:0:0:0:
160,96,180687,5,0,0:0:0:0:
160,96,181976,5,0,0:0:0:0:
160,96,182327,1,0,0:0:0:0:
352,96,184437,1,0,0:0:0:0:
352,96,185726,1,8,0:0:0:0:
352,96,186077,1,8,0:0:0:0:
352,96,186780,1,8,0:0:0:0:
352,96,186839,1,8,0:0:0:0:
160,96,188187,1,0,0:0:0:0:
160,96,188890,1,0,0:0:0:0:
160,96,189124,1,0,0:0:0:0:
352,96,189593,1,8,0:0:0:0:
160,96,190062,1,0,0:0:0:0:
160,96,190765,1,0,0:0:0:0:
352,96,190999,1,8,0:0:0:0:
352,96,191468,1,8,0:0:0:0:
160,96,191937,1,0,0:0:0:0:
160,96,192171,1,0,0:0:0:0:
160,96,192640,1,0,0:0:0:0:
160,96,192874,1,0,0:0:0:0:
352,96,193343,1,8,0:0:0:0:
160,96,193812,1,0,0:0:0:0:
160,96,194515,1,0,0:0:0:0:
354,95,194749,1,8,0:0:0:0:
160,96,194983,1,0,0:0:0:0:
160,96,195101,1,0,0:0:0:0:
352,96,195218,1,8,0:0:0:0:
160,96,195687,1,0,0:0:0:0:
160,96,196155,1,0,0:0:0:0:
160,96,196624,1,0,0:0:0:0:
352,96,196858,1,8,0:0:0:0:
160,96,197093,1,0,0:0:0:0:
160,96,197327,1,0,0:0:0:0:
352,96,197562,1,8,0:0:0:0:
352,96,198030,1,8,0:0:0:0:
352,96,198499,1,8,0:0:0:0:
160,96,198733,1,0,0:0:0:0:
352,96,198968,1,8,0:0:0:0:
352,96,199202,1,8,0:0:0:0:
160,96,199437,1,0,0:0:0:0:
160,96,199671,1,0,0:0:0:0:
160,96,199788,1,0,0:0:0:0:
352,96,199905,1,8,0:0:0:0:
160,96,200140,1,0,0:0:0:0:
352,96,200374,1,8,0:0:0:0:
352,96,200608,1,8,0:0:0:0:
352,96,200726,1,8,0:0:0:0:
160,96,200843,1,0,0:0:0:0:
352,96,201077,1,8,0:0:0:0:
160,96,201312,1,0,0:0:0:0:
160,96,201429,1,0,0:0:0:0:
352,96,201546,1,8,0:0:0:0:
352,96,201663,1,8,0:0:0:0:
160,96,201780,1,0,0:0:0:0:
160,96,201839,1,0,0:0:0:0:
352,96,201897,1,8,0:0:0:0:
352,96,201956,1,8,0:0:0:0:
160,96,202015,1,0,0:0:0:0:
160,96,202073,1,0,0:0:0:0:
352,96,202132,1,8,0:0:0:0:
352,96,202190,1,8,0:0:0:0:
352,96,202483,1,8,0:0:0:0:
352,96,202718,1,8,0:0:0:0:
352,96,202952,1,8,0:0:0:0:
352,288,204124,1,12,0:0:0:0:
160,96,204475,1,0,0:0:0:0:
352,96,204592,1,8,0:0:0:0:
160,96,204827,1,0,0:0:0:0:
160,96,204944,1,0,0:0:0:0:
352,96,205061,1,8,0:0:0:0:
160,96,205295,1,0,0:0:0:0:
352,96,205530,1,8,0:0:0:0:
160,96,205647,1,0,0:0:0:0:
352,96,205764,1,8,0:0:0:0:
352,96,205881,1,8,0:0:0:0:
160,96,205999,1,0,0:0:0:0:
160,96,206116,1,0,0:0:0:0:
160,96,206233,1,0,0:0:0:0:
352,96,206467,1,8,0:0:0:0:
160,96,206702,1,0,0:0:0:0:
352,96,206819,1,8,0:0:0:0:
160,96,206936,1,0,0:0:0:0:
352,288,207170,1,12,0:0:0:0:
352,288,207405,1,12,0:0:0:0:
352,96,207639,1,8,0:0:0:0:
352,96,207717,1,8,0:0:0:0:
352,96,207795,1,8,0:0:0:0:
160,96,207874,1,0,0:0:0:0:
160,96,208108,1,0,0:0:0:0:
352,96,208225,1,8,0:0:0:0:
160,96,208459,1,8,0:0:0:0:
352,96,208577,1,0,0:0:0:0:
352,96,208694,1,0,0:0:0:0:
160,96,208811,1,8,0:0:0:0:
160,96,209045,1,8,0:0:0:0:
352,96,209163,1,0,0:0:0:0:
160,96,209397,1,0,0:0:0:0:
352,96,209514,1,8,0:0:0:0:
352,96,209631,1,8,0:0:0:0:
160,96,209749,1,0,0:0:0:0:
352,96,209866,1,8,0:0:0:0:
160,96,209983,1,0,0:0:0:0:
352,96,210217,1,8,0:0:0:0:
352,96,210452,1,8,0:0:0:0:
352,96,210569,1,8,0:0:0:0:
160,96,210686,1,0,0:0:0:0:
352,288,210920,1,12,0:0:0:0:
352,288,211155,1,12,0:0:0:0:
160,96,211389,1,0,0:0:0:0:
352,96,211624,1,8,0:0:0:0:
160,96,211975,1,0,0:0:0:0:
352,96,212092,1,8,0:0:0:0:
160,96,212327,1,0,0:0:0:0:
160,96,212444,1,0,0:0:0:0:
352,96,212561,1,8,0:0:0:0:
160,96,212795,1,0,0:0:0:0:
352,96,213030,1,8,0:0:0:0:
160,96,213147,1,0,0:0:0:0:
352,96,213264,1,8,0:0:0:0:
352,96,213381,1,8,0:0:0:0:
160,96,213499,1,0,0:0:0:0:
160,96,213616,1,0,0:0:0:0:
160,96,213733,1,0,0:0:0:0:
352,96,213967,1,8,0:0:0:0:
160,96,214202,1,0,0:0:0:0:
352,96,214319,1,8,0:0:0:0:
160,96,214436,1,0,0:0:0:0:
352,288,214670,1,12,0:0:0:0:
352,288,214905,1,12,0:0:0:0:
352,96,215139,1,8,0:0:0:0:
352,96,215217,1,8,0:0:0:0:
352,96,215295,1,8,0:0:0:0:
160,96,215374,1,0,0:0:0:0:
352,96,215608,1,8,0:0:0:0:
160,96,215725,1,0,0:0:0:0:
352,96,215959,1,0,0:0:0:0:
352,96,216077,1,8,0:0:0:0:
352,96,216194,1,8,0:0:0:0:
160,96,216311,1,0,0:0:0:0:
160,96,216545,1,0,0:0:0:0:
352,96,216663,1,8,0:0:0:0:
352,96,216897,1,8,0:0:0:0:
160,96,217014,1,0,0:0:0:0:
160,96,217132,1,0,0:0:0:0:
352,288,217249,1,12,0:0:0:0:
352,288,217600,1,12,0:0:0:0:
352,288,217952,1,12,0:0:0:0:
352,288,218186,1,12,0:0:0:0:
352,96,218655,1,8,0:0:0:0:
352,96,218733,1,8,0:0:0:0:
352,96,218811,1,8,0:0:0:0:
160,96,218889,1,0,0:0:0:0:
352,288,219124,1,12,0:0:0:0:
160,96,219475,1,0,0:0:0:0:
352,96,219592,1,8,0:0:0:0:
160,96,219827,1,0,0:0:0:0:
160,96,219944,1,0,0:0:0:0:
352,96,220061,1,8,0:0:0:0:
160,96,220295,1,0,0:0:0:0:
352,96,220530,1,8,0:0:0:0:
160,96,220647,1,0,0:0:0:0:
352,96,220764,1,8,0:0:0:0:
352,96,220881,1,8,0:0:0:0:
160,96,220999,1,0,0:0:0:0:
160,96,221116,1,0,0:0:0:0:
160,96,221233,1,0,0:0:0:0:
352,96,221467,1,8,0:0:0:0:
160,96,221702,1,0,0:0:0:0:
352,96,221819,1,8,0:0:0:0:
160,96,221936,1,0,0:0:0:0:
160,96,222053,1,0,0:0:0:0:
352,96,222170,1,8,0:0:0:0:
352,96,222405,1,8,0:0:0:0:
352,96,222639,1,8,0:0:0:0:
352,96,222717,1,8,0:0:0:0:
352,96,222795,1,8,0:0:0:0:
160,96,222874,1,0,0:0:0:0:
352,96,223108,1,8,0:0:0:0:
160,96,223225,1,0,0:0:0:0:
352,96,223342,1,8,0:0:0:0:
160,96,223577,1,0,0:0:0:0:
160,96,223811,1,0,0:0:0:0:
160,96,223928,1,0,0:0:0:0:
352,96,224045,1,8,0:0:0:0:
160,96,224163,1,0,0:0:0:0:
352,96,224280,1,8,0:0:0:0:
160,96,224514,1,0,0:0:0:0:
352,96,224749,1,8,0:0:0:0:
352,96,224866,1,0,0:0:0:0:
160,96,224983,1,8,0:0:0:0:
160,96,225100,1,8,0:0:0:0:
352,96,225217,1,0,0:0:0:0:
160,96,225452,1,8,0:0:0:0:
160,96,225686,1,0,0:0:0:0:
160,96,225803,1,0,0:0:0:0:
352,96,225920,1,8,0:0:0:0:
352,96,226038,1,0,0:0:0:0:
352,96,226155,1,8,0:0:0:0:
352,96,226272,1,8,0:0:0:0:
160,96,226389,1,0,0:0:0:0:
352,96,226624,1,8,0:0:0:0:
160,96,226975,1,0,0:0:0:0:
352,96,227092,1,8,0:0:0:0:
160,96,227327,1,0,0:0:0:0:
160,96,227444,1,0,0:0:0:0:
352,96,227561,1,8,0:0:0:0:
160,96,227795,1,0,0:0:0:0:
352,96,228030,1,8,0:0:0:0:
160,96,228147,1,0,0:0:0:0:
352,96,228264,1,8,0:0:0:0:
352,96,228381,1,8,0:0:0:0:
160,96,228499,1,0,0:0:0:0:
160,96,228616,1,0,0:0:0:0:
160,96,228733,1,0,0:0:0:0:
352,96,228967,1,8,0:0:0:0:
160,96,229202,1,0,0:0:0:0:
352,96,229319,1,8,0:0:0:0:
160,96,229436,1,0,0:0:0:0:
160,96,229553,1,0,0:0:0:0:
352,96,229670,1,8,0:0:0:0:
160,96,229788,1,0,0:0:0:0:
352,96,229905,1,8,0:0:0:0:
352,96,230139,1,8,0:0:0:0:
352,96,230217,1,8,0:0:0:0:
352,96,230295,1,8,0:0:0:0:
160,96,230374,1,0,0:0:0:0:
160,96,230842,1,0,0:0:0:0:
352,96,231311,1,8,0:0:0:0:
352,96,231780,1,8,0:0:0:0:
352,96,232014,1,8,0:0:0:0:
160,96,232249,1,0,0:0:0:0:
160,96,232717,1,0,0:0:0:0:
352,96,233186,1,8,0:0:0:0:
352,96,233655,1,8,0:0:0:0:
160,96,234124,1,0,0:0:0:0:
160,96,234592,1,0,0:0:0:0:
352,96,234827,1,8,0:0:0:0:
160,96,235061,1,0,0:0:0:0:
160,96,235178,1,0,0:0:0:0:
160,96,235413,1,0,0:0:0:0:
352,96,235530,1,8,0:0:0:0:
160,96,235764,1,0,0:0:0:0:
352,288,235999,1,12,0:0:0:0:
352,288,236350,1,12,0:0:0:0:
352,288,236702,1,12,0:0:0:0:
352,288,236936,1,12,0:0:0:0:
352,96,237405,1,8,0:0:0:0:
160,288,237874,1,4,0:0:0:0:
352,96,238225,1,8,0:0:0:0:
160,96,238342,1,0,0:0:0:0:
352,96,238577,1,8,0:0:0:0:
352,96,238694,1,8,0:0:0:0:
160,96,238811,1,0,0:0:0:0:
352,96,239045,1,8,0:0:0:0:
160,96,239280,1,0,0:0:0:0:
160,96,239397,1,0,0:0:0:0:
352,96,239514,1,8,0:0:0:0:
160,96,239749,1,0,0:0:0:0:
352,96,239983,1,8,0:0:0:0:
352,96,240100,1,8,0:0:0:0:
160,96,240217,1,0,0:0:0:0:
352,96,240452,1,8,0:0:0:0:
160,96,240686,1,0,0:0:0:0:
352,96,240920,1,8,0:0:0:0:
160,96,241038,1,0,0:0:0:0:
352,96,241155,1,8,0:0:0:0:
352,96,241389,1,8,0:0:0:0:
160,96,241624,1,0,0:0:0:0:
352,96,242092,1,8,0:0:0:0:
160,96,242327,1,0,0:0:0:0:
160,96,242444,1,0,0:0:0:0:
160,96,242561,1,0,0:0:0:0:
160,96,242795,1,0,0:0:0:0:
352,96,243030,1,8,0:0:0:0:
160,96,243264,1,0,0:0:0:0:
160,96,243381,1,0,0:0:0:0:
352,96,243499,1,8,0:0:0:0:
160,96,243733,1,0,0:0:0:0:
352,96,243967,1,8,0:0:0:0:
160,96,244202,1,0,0:0:0:0:
352,96,244319,1,8,0:0:0:0:
160,96,244436,1,0,0:0:0:0:
160,96,244553,1,0,0:0:0:0:
352,96,244670,1,8,0:0:0:0:
352,96,244905,1,8,0:0:0:0:
352,96,245139,1,8,0:0:0:0:
352,96,245256,1,8,0:0:0:0:
160,96,245374,1,0,0:0:0:0:
352,96,245725,1,8,0:0:0:0:
160,96,245842,1,0,0:0:0:0:
352,96,246077,1,8,0:0:0:0:
352,96,246194,1,8,0:0:0:0:
160,96,246311,1,0,0:0:0:0:
352,96,246545,1,8,0:0:0:0:
160,96,246780,1,0,0:0:0:0:
160,96,246897,1,0,0:0:0:0:
352,96,247014,1,8,0:0:0:0:
160,96,247249,1,0,0:0:0:0:
352,96,247483,1,8,0:0:0:0:
352,96,247600,1,8,0:0:0:0:
160,96,247717,1,0,0:0:0:0:
352,96,247952,1,8,0:0:0:0:
160,96,248186,1,0,0:0:0:0:
352,96,248420,1,8,0:0:0:0:
160,96,248538,1,0,0:0:0:0:
352,96,248655,1,8,0:0:0:0:
352,96,248889,1,8,0:0:0:0:
160,96,249124,1,0,0:0:0:0:
352,96,249592,1,8,0:0:0:0:
160,96,249827,1,0,0:0:0:0:
160,96,249944,1,0,0:0:0:0:
160,96,250061,1,0,0:0:0:0:
160,96,250295,1,0,0:0:0:0:
352,96,250530,1,8,0:0:0:0:
160,96,250764,1,0,0:0:0:0:
160,96,250881,1,0,0:0:0:0:
352,96,250999,1,8,0:0:0:0:
352,96,251116,1,8,0:0:0:0:
160,96,251233,1,0,0:0:0:0:
352,96,251467,1,8,0:0:0:0:
160,96,251702,1,0,0:0:0:0:
352,96,251819,1,8,0:0:0:0:
160,96,251936,1,0,0:0:0:0:
160,96,252053,1,0,0:0:0:0:
352,96,252170,1,8,0:0:0:0:
352,96,252405,1,8,0:0:0:0:
160,288,252874,1,4,0:0:0:0:
352,96,253342,1,8,0:0:0:0:
160,96,253577,1,0,0:0:0:0:
352,96,253811,1,8,0:0:0:0:
352,96,254280,1,8,0:0:0:0:
352,96,254514,1,8,0:0:0:0:
160,96,254749,1,0,0:0:0:0:
160,96,255100,1,0,0:0:0:0:
160,96,255217,1,8,0:0:0:0:
160,96,255452,1,0,0:0:0:0:
352,96,255686,1,8,0:0:0:0:
352,96,255920,1,8,0:0:0:0:
352,96,256389,1,8,0:0:0:0:
160,96,256624,1,0,0:0:0:0:
352,96,257092,1,8,0:0:0:0:
160,96,257327,1,0,0:0:0:0:
352,96,257561,1,8,0:0:0:0:
352,96,257795,1,8,0:0:0:0:
160,96,258030,1,0,0:0:0:0:
160,96,258147,1,0,0:0:0:0:
352,96,258264,1,8,0:0:0:0:
160,96,258499,1,0,0:0:0:0:
352,96,258733,1,8,0:0:0:0:
160,96,258850,1,0,0:0:0:0:
352,96,258967,1,8,0:0:0:0:
160,96,259202,1,0,0:0:0:0:
352,96,259436,1,8,0:0:0:0:
160,96,259670,1,0,0:0:0:0:
352,96,259905,1,8,0:0:0:0:
352,96,260022,1,8,0:0:0:0:
160,96,260139,1,8,0:0:0:0:
352,96,260256,1,8,0:0:0:0:
160,96,260374,1,0,0:0:0:0:
160,96,260842,1,0,0:0:0:0:
352,96,261077,1,8,0:0:0:0:
160,96,261311,1,0,0:0:0:0:
160,96,261663,1,0,0:0:0:0:
352,96,261780,1,8,0:0:0:0:
160,96,262014,1,0,0:0:0:0:
352,96,262249,1,8,0:0:0:0:
160,96,262483,1,8,0:0:0:0:
160,96,262717,1,0,0:0:0:0:
160,96,262952,1,0,0:0:0:0:
352,96,263186,1,8,0:0:0:0:
352,96,263538,1,8,0:0:0:0:
160,96,263655,1,0,0:0:0:0:
352,96,263889,1,8,0:0:0:0:
160,96,264124,1,0,0:0:0:0:
160,96,264358,1,0,0:0:0:0:
160,96,264475,1,0,0:0:0:0:
352,96,264592,1,8,0:0:0:0:
160,96,264827,1,0,0:0:0:0:
352,96,265061,1,8,0:0:0:0:
352,96,265295,1,8,0:0:0:0:
352,96,265413,1,8,0:0:0:0:
160,96,265530,1,0,0:0:0:0:
352,96,265764,1,8,0:0:0:0:
160,96,265999,1,0,0:0:0:0:
160,96,266116,1,0,0:0:0:0:
352,96,266233,1,8,0:0:0:0:
352,96,266350,1,8,0:0:0:0:
160,96,266467,1,0,0:0:0:0:
160,96,266584,1,0,0:0:0:0:
352,96,266702,1,8,0:0:0:0:
352,96,266819,1,8,0:0:0:0:
160,96,266936,1,0,0:0:0:0:
160,96,266995,1,0,0:0:0:0:
352,96,267053,1,8,0:0:0:0:
352,96,267112,1,8,0:0:0:0:
160,96,267170,1,0,0:0:0:0:
160,96,267229,1,0,0:0:0:0:
352,96,267288,1,8,0:0:0:0:
352,96,267346,1,8,0:0:0:0:
160,96,267405,1,0,0:0:0:0:
160,96,267874,1,0,0:0:0:0:
160,96,269163,1,0,0:0:0:0:
160,96,269514,1,0,0:0:0:0:
352,96,271624,1,0,0:0:0:0:
352,96,272913,1,8,0:0:0:0:
352,96,273264,1,8,0:0:0:0:
