osu file format v14

[General]
AudioFilename: audio.mp3
AudioLeadIn: 0
PreviewTime: 52095
Countdown: 0
SampleSet: Soft
StackLeniency: 0.4
Mode: 3
LetterboxInBreaks: 0
SpecialStyle: 0
WidescreenStoryboard: 0

[Editor]
DistanceSpacing: 0.1
BeatDivisor: 4
GridSize: 16
TimelineZoom: 2

[Metadata]
Title:Ugoku, Ugoku
TitleUnicode:動く、動く
Artist:Chito (CV: Minase Inori), Yuuri (CV: Kubo Yurika)
ArtistUnicode:チト(CV:水瀬いのり)、ユーリ(CV:久保ユリカ)
Creator:_Meep_
Version:NM
Source:少女終末旅行
Tags:Alisceasparku Faputa xtrem3x HakuNoKaemi ShogunMoon Girls' Last Dab Tour Shōjo Shūmatsu Ryokō Shoujo Shuumatsu Ryokou anime tv size opening loli
BeatmapID:1527584
BeatmapSetID:723551

[Difficulty]
HPDrainRate:7.5
CircleSize:4
OverallDifficulty:7.5
ApproachRate:5
SliderMultiplier:1.4
SliderTickRate:1

[Events]
//Background and Video events
0,0,"ugoku.jpg",0,0
//Break Periods
//Storyboard Layer 0 (Background)
//Storyboard Layer 1 (Fail)
//Storyboard Layer 2 (Pass)
//Storyboard Layer 3 (Foreground)
//Storyboard Sound Samples

[TimingPoints]
533,468.75,4,2,1,60,1,0
53033,-100,4,2,1,60,0,1
83033,-100,4,2,1,60,0,0

[HitObjects]
64,192,533,5,10,0:0:0:0:
192,192,533,1,10,0:0:0:0:
448,192,1001,1,2,0:0:0:0:
192,192,1118,1,8,0:0:0:0:
320,192,1353,1,2,0:0:0:0:
64,192,1822,1,8,0:0:0:0:
192,192,1822,1,8,0:0:0:0:
320,192,2173,1,10,0:0:0:0:
448,192,2173,1,10,0:0:0:0:
192,192,2876,1,8,0:0:0:0:
64,192,2993,1,2,0:0:0:0:
320,192,3111,1,8,0:0:0:0:
192,192,4283,1,10,0:0:0:0:
448,192,4283,1,10,0:0:0:0:
64,192,4751,1,2,0:0:0:0:
448,192,4868,1,8,0:0:0:0:
192,192,5103,1,2,0:0:0:0:
320,192,5572,1,8,0:0:0:0:
64,192,5572,1,8,0:0:0:0:
192,192,5923,1,10,0:0:0:0:
448,192,5923,1,10,0:0:0:0:
192,192,6626,1,8,0:0:0:0:
64,192,6743,1,2,0:0:0:0:
320,192,6861,1,8,0:0:0:0:
448,192,7095,128,2,7564:0:0:0:0:
64,192,7564,128,8,8033:0:0:0:0:
448,192,8033,1,10,0:0:0:0:
192,192,8501,1,2,0:0:0:0:
448,192,8618,1,8,0:0:0:0:
64,192,8853,1,2,0:0:0:0:
448,192,9322,1,8,0:0:0:0:
192,192,9322,1,8,0:0:0:0:
64,192,9673,1,10,0:0:0:0:
320,192,9673,1,10,0:0:0:0:
320,192,10376,1,8,0:0:0:0:
192,192,10493,1,2,0:0:0:0:
448,192,10611,1,8,0:0:0:0:
64,192,10845,1,2,0:0:0:0:
64,192,11079,1,2,0:0:0:0:
448,192,11314,1,2,0:0:0:0:
192,192,11548,1,2,0:0:0:0:
448,192,11783,1,10,0:0:0:0:
320,192,11783,1,10,0:0:0:0:
192,192,12251,1,2,0:0:0:0:
320,192,12368,1,8,0:0:0:0:
64,192,12603,1,2,0:0:0:0:
64,192,13072,1,8,0:0:0:0:
192,192,13072,1,8,0:0:0:0:
448,192,13423,1,10,0:0:0:0:
320,192,13423,1,10,0:0:0:0:
448,192,14126,1,8,0:0:0:0:
64,192,14243,1,2,0:0:0:0:
192,192,14361,1,8,0:0:0:0:
320,192,14595,128,2,14829:0:0:0:0:
64,192,14829,128,2,15064:0:0:0:0:
192,192,15064,1,2,0:0:0:0:
320,192,15181,1,2,0:0:0:0:
448,192,15298,128,2,15533:0:0:0:0:
192,192,15533,1,10,0:0:0:0:
64,192,15533,1,10,0:0:0:0:
320,192,15767,1,2,0:0:0:0:
192,192,16001,128,2,16236:0:0:0:0:
320,192,16236,1,2,0:0:0:0:
448,192,16353,1,2,0:0:0:0:
320,192,16704,1,2,0:0:0:0:
64,192,16822,128,8,17173:0:0:0:0:
320,192,17173,1,10,0:0:0:0:
320,192,17642,1,2,0:0:0:0:
192,192,17876,1,8,0:0:0:0:
64,192,17993,1,2,0:0:0:0:
320,192,18111,1,8,0:0:0:0:
448,192,18345,1,2,0:0:0:0:
320,192,18579,1,2,0:0:0:0:
192,192,18814,1,2,0:0:0:0:
320,192,19048,1,2,0:0:0:0:
448,192,19283,1,10,0:0:0:0:
64,192,19283,1,10,0:0:0:0:
192,192,19517,1,2,0:0:0:0:
448,192,19751,128,2,19986:0:0:0:0:
192,192,19986,1,2,0:0:0:0:
64,192,20103,1,2,0:0:0:0:
192,192,20454,1,2,0:0:0:0:
448,192,20572,128,8,20923:0:0:0:0:
320,192,20923,1,10,0:0:0:0:
64,192,21626,1,8,0:0:0:0:
64,192,22095,1,8,0:0:0:0:
320,192,22329,1,2,0:0:0:0:
192,192,22564,1,8,0:0:0:0:
448,192,22798,128,2,23033:0:0:0:0:
320,192,23033,1,10,0:0:0:0:
192,192,23267,128,2,23501:0:0:0:0:
448,192,23501,1,10,0:0:0:0:
320,192,23618,1,2,0:0:0:0:
192,192,23736,1,2,0:0:0:0:
64,192,23970,128,10,24673:0:0:0:0:
448,192,24204,1,2,0:0:0:0:
320,192,24322,128,8,24673:0:0:0:0:
192,192,24673,1,10,0:0:0:0:
64,192,24908,1,8,0:0:0:0:
320,192,25142,1,2,0:0:0:0:
192,192,25259,1,2,0:0:0:0:
64,192,25376,1,8,0:0:0:0:
448,192,25376,1,2,0:0:0:0:
320,192,25611,1,2,0:0:0:0:
64,192,25845,128,10,26783:0:0:0:0:
192,192,26080,1,2,0:0:0:0:
320,192,26197,1,2,0:0:0:0:
448,192,26197,128,10,26666:0:0:0:0:
320,192,26783,1,2,0:0:0:0:
192,192,26783,1,8,0:0:0:0:
448,192,27017,1,2,0:0:0:0:
64,192,27251,1,2,0:0:0:0:
320,192,27251,1,8,0:0:0:0:
448,192,27486,1,2,0:0:0:0:
320,192,27603,1,2,0:0:0:0:
192,192,27720,128,8,28423:0:0:0:0:
448,192,27954,1,2,0:0:0:0:
320,192,28072,128,8,28423:0:0:0:0:
64,192,28423,128,10,28658:0:0:0:0:
448,192,28658,1,8,0:0:0:0:
192,192,28658,1,8,0:0:0:0:
192,192,28892,1,2,0:0:0:0:
64,192,29126,1,8,0:0:0:0:
320,192,29126,1,8,0:0:0:0:
320,192,29595,1,8,0:0:0:0:
64,192,29595,1,8,0:0:0:0:
320,192,29829,1,2,0:0:0:0:
192,192,30064,1,8,0:0:0:0:
448,192,30064,1,8,0:0:0:0:
64,192,30298,1,8,0:0:0:0:
192,192,30298,1,8,0:0:0:0:
320,192,30533,1,10,0:0:0:0:
448,192,30533,1,10,0:0:0:0:
64,192,30767,128,2,31001:0:0:0:0:
192,192,31001,1,8,0:0:0:0:
320,192,31118,1,2,0:0:0:0:
448,192,31236,1,2,0:0:0:0:
64,192,31470,128,8,32173:0:0:0:0:
192,192,31704,1,2,0:0:0:0:
448,192,31822,128,8,32173:0:0:0:0:
320,192,32173,1,2,0:0:0:0:
448,192,32408,1,8,0:0:0:0:
192,192,32408,1,2,0:0:0:0:
320,192,32642,128,2,32876:0:0:0:0:
64,192,32876,1,10,0:0:0:0:
192,192,32993,1,2,0:0:0:0:
320,192,33111,1,2,0:0:0:0:
64,192,33345,128,8,34283:0:0:0:0:
448,192,33579,1,2,0:0:0:0:
320,192,33697,1,2,0:0:0:0:
192,192,33814,128,10,34283:0:0:0:0:
320,192,34283,1,8,0:0:0:0:
448,192,34283,1,10,0:0:0:0:
192,192,34517,128,2,34751:0:0:0:0:
448,192,34751,1,10,0:0:0:0:
320,192,34868,1,2,0:0:0:0:
192,192,34986,1,2,0:0:0:0:
448,192,35220,128,8,35923:0:0:0:0:
64,192,35454,1,2,0:0:0:0:
192,192,35572,128,8,35923:0:0:0:0:
320,192,35923,1,10,0:0:0:0:
64,192,35923,1,10,0:0:0:0:
320,192,36158,1,8,0:0:0:0:
192,192,36158,1,8,0:0:0:0:
320,192,36392,1,2,0:0:0:0:
64,192,36626,1,8,0:0:0:0:
448,192,36626,1,8,0:0:0:0:
64,192,37095,1,2,0:0:0:0:
448,192,37095,1,8,0:0:0:0:
64,192,37329,1,2,0:0:0:0:
320,192,37564,1,2,0:0:0:0:
192,192,37564,1,8,0:0:0:0:
448,192,38033,128,10,41783:0:0:0:0:
192,192,38033,1,8,0:0:0:0:
192,192,39204,1,2,0:0:0:0:
64,192,39673,1,2,0:0:0:0:
192,192,39908,1,10,0:0:0:0:
320,192,40611,1,8,0:0:0:0:
64,192,40611,1,2,0:0:0:0:
192,192,40845,1,8,0:0:0:0:
64,192,41079,1,8,0:0:0:0:
192,192,41314,1,2,0:0:0:0:
320,192,41548,1,8,0:0:0:0:
64,192,41783,128,10,45533:0:0:0:0:
192,192,41783,1,2,0:0:0:0:
448,192,42017,1,8,0:0:0:0:
448,192,42486,1,10,0:0:0:0:
448,192,42954,1,8,0:0:0:0:
192,192,43189,1,2,0:0:0:0:
320,192,43189,1,8,0:0:0:0:
320,192,43658,1,10,0:0:0:0:
448,192,43892,1,2,0:0:0:0:
320,192,44126,1,2,0:0:0:0:
192,192,44361,1,10,0:0:0:0:
448,192,44595,1,10,0:0:0:0:
320,192,44829,1,2,0:0:0:0:
448,192,45064,1,2,0:0:0:0:
192,192,45064,1,8,0:0:0:0:
320,192,45298,1,8,0:0:0:0:
192,192,45533,1,8,0:0:0:0:
448,192,45533,1,2,0:0:0:0:
64,192,45767,1,2,0:0:0:0:
448,192,46001,1,8,0:0:0:0:
320,192,46001,1,2,0:0:0:0:
192,192,46236,1,2,0:0:0:0:
320,192,46470,1,8,0:0:0:0:
64,192,46470,1,2,0:0:0:0:
448,192,46704,1,2,0:0:0:0:
192,192,46939,1,10,0:0:0:0:
64,192,46939,1,8,0:0:0:0:
320,192,47173,1,2,0:0:0:0:
192,192,47408,1,10,0:0:0:0:
448,192,47408,1,8,0:0:0:0:
320,192,47642,1,2,0:0:0:0:
192,192,47876,1,8,0:0:0:0:
64,192,47876,1,2,0:0:0:0:
448,192,48111,1,2,0:0:0:0:
320,192,48345,1,10,0:0:0:0:
192,192,48345,1,8,0:0:0:0:
64,192,48579,1,10,0:0:0:0:
320,192,48814,1,8,0:0:0:0:
448,192,48814,1,2,0:0:0:0:
192,192,49048,1,10,0:0:0:0:
64,192,49048,1,8,0:0:0:0:
448,192,49283,1,8,0:0:0:0:
448,192,49517,1,8,0:0:0:0:
320,192,49751,1,8,0:0:0:0:
64,192,49986,1,8,0:0:0:0:
64,192,50220,1,8,0:0:0:0:
192,192,50454,1,8,0:0:0:0:
448,192,50689,1,8,0:0:0:0:
448,192,50923,1,8,0:0:0:0:
64,192,51158,1,2,0:0:0:0:
192,192,51275,1,2,0:0:0:0:
320,192,51392,1,2,0:0:0:0:
448,192,51509,1,2,0:0:0:0:
64,192,51626,128,2,52095:0:0:0:0:
192,192,51626,1,2,0:0:0:0:
448,192,51861,128,2,52095:0:0:0:0:
320,192,52329,1,10,0:0:0:0:
192,192,52564,1,2,0:0:0:0:
64,192,52564,1,2,0:0:0:0:
320,192,52798,1,8,0:0:0:0:
64,192,53033,128,14,53501:0:0:0:0:
448,192,53033,1,8,0:0:0:0:
320,192,53501,128,14,53970:0:0:0:0:
192,192,53501,1,10,0:0:0:0:
64,192,53970,128,10,54439:0:0:0:0:
448,192,53970,1,4,0:0:0:0:
320,192,54439,1,8,0:0:0:0:
192,192,54439,1,2,0:0:0:0:
64,192,54673,1,2,0:0:0:0:
448,192,54908,1,8,0:0:0:0:
320,192,54908,1,2,0:0:0:0:
192,192,55142,1,2,0:0:0:0:
320,192,55376,1,10,0:0:0:0:
192,192,55611,1,2,0:0:0:0:
64,192,55845,1,8,0:0:0:0:
448,192,55845,1,2,0:0:0:0:
192,192,56079,128,2,56314:0:0:0:0:
320,192,56314,128,10,56548:0:0:0:0:
448,192,56548,128,8,56783:0:0:0:0:
64,192,56783,128,8,57486:0:0:0:0:
192,192,56783,1,2,0:0:0:0:
320,192,57017,1,2,0:0:0:0:
448,192,57134,128,2,57486:0:0:0:0:
320,192,57486,1,8,0:0:0:0:
192,192,57720,128,8,58423:0:0:0:0:
320,192,57954,1,2,0:0:0:0:
448,192,58072,128,2,58423:0:0:0:0:
320,192,58423,1,8,0:0:0:0:
192,192,58658,1,10,0:0:0:0:
64,192,58658,1,8,0:0:0:0:
320,192,58892,1,8,0:0:0:0:
448,192,59126,1,10,0:0:0:0:
64,192,59361,1,2,0:0:0:0:
448,192,59595,1,2,0:0:0:0:
64,192,59829,1,10,0:0:0:0:
320,192,59829,1,10,0:0:0:0:
192,192,60064,1,10,0:0:0:0:
448,192,60064,1,10,0:0:0:0:
320,192,60298,1,2,0:0:0:0:
64,192,60533,128,14,61001:0:0:0:0:
192,192,60533,1,12,0:0:0:0:
320,192,61001,128,14,61470:0:0:0:0:
448,192,61001,1,10,0:0:0:0:
64,192,61470,1,10,0:0:0:0:
192,192,61470,128,4,61939:0:0:0:0:
448,192,61939,1,8,0:0:0:0:
320,192,61939,1,2,0:0:0:0:
192,192,62173,1,2,0:0:0:0:
64,192,62408,1,8,0:0:0:0:
448,192,62408,1,2,0:0:0:0:
192,192,62642,1,2,0:0:0:0:
320,192,62876,1,10,0:0:0:0:
64,192,63111,1,8,0:0:0:0:
192,192,63345,1,10,0:0:0:0:
448,192,63579,1,10,0:0:0:0:
320,192,63579,1,10,0:0:0:0:
64,192,63814,1,10,0:0:0:0:
192,192,63814,1,10,0:0:0:0:
320,192,64048,1,2,0:0:0:0:
192,192,64165,1,2,0:0:0:0:
64,192,64283,128,2,64986:0:0:0:0:
320,192,64517,1,2,0:0:0:0:
448,192,64634,128,2,64986:0:0:0:0:
192,192,64986,1,8,0:0:0:0:
448,192,65220,128,8,65923:0:0:0:0:
192,192,65454,1,2,0:0:0:0:
64,192,65572,128,2,65923:0:0:0:0:
320,192,65923,1,8,0:0:0:0:
192,192,66158,1,10,0:0:0:0:
64,192,66158,1,2,0:0:0:0:
448,192,66509,1,10,0:0:0:0:
320,192,66509,1,2,0:0:0:0:
192,192,66861,1,10,0:0:0:0:
320,192,66861,1,2,0:0:0:0:
64,192,67095,1,10,0:0:0:0:
448,192,67095,1,10,0:0:0:0:
320,192,67329,1,8,0:0:0:0:
192,192,67564,1,2,0:0:0:0:
320,192,67798,1,8,0:0:0:0:
192,192,68033,128,10,68501:0:0:0:0:
64,192,68033,1,4,0:0:0:0:
448,192,68501,1,14,0:0:0:0:
320,192,68501,128,10,68970:0:0:0:0:
64,192,68970,1,10,0:0:0:0:
192,192,68970,128,4,69439:0:0:0:0:
448,192,69439,1,8,0:0:0:0:
320,192,69439,1,2,0:0:0:0:
64,192,69673,1,2,0:0:0:0:
320,192,69908,1,2,0:0:0:0:
448,192,69908,1,8,0:0:0:0:
192,192,70142,1,8,0:0:0:0:
448,192,70376,1,2,0:0:0:0:
320,192,70611,1,2,0:0:0:0:
192,192,70845,1,2,0:0:0:0:
448,192,70845,1,2,0:0:0:0:
64,192,71079,128,2,71314:0:0:0:0:
192,192,71314,128,10,71548:0:0:0:0:
320,192,71548,128,2,71783:0:0:0:0:
448,192,71783,128,8,72486:0:0:0:0:
192,192,72017,1,2,0:0:0:0:
64,192,72134,128,2,72486:0:0:0:0:
320,192,72486,1,8,0:0:0:0:
64,192,72720,128,8,73423:0:0:0:0:
320,192,72955,1,2,0:0:0:0:
448,192,73072,128,2,73423:0:0:0:0:
192,192,73423,1,8,0:0:0:0:
448,192,73658,1,2,0:0:0:0:
320,192,73658,1,8,0:0:0:0:
192,192,73892,1,8,0:0:0:0:
448,192,74126,1,10,0:0:0:0:
64,192,74361,1,2,0:0:0:0:
448,192,74595,1,2,0:0:0:0:
64,192,74829,1,10,0:0:0:0:
320,192,74829,1,10,0:0:0:0:
448,192,75064,1,10,0:0:0:0:
192,192,75064,1,10,0:0:0:0:
320,192,75298,1,2,0:0:0:0:
192,192,75533,128,14,76001:0:0:0:0:
448,192,75533,1,10,0:0:0:0:
64,192,76001,1,10,0:0:0:0:
320,192,76001,128,4,76470:0:0:0:0:
448,192,76470,1,14,0:0:0:0:
192,192,76470,128,10,76939:0:0:0:0:
320,192,76939,1,10,0:0:0:0:
64,192,76939,1,0,0:0:0:0:
192,192,77173,1,2,0:0:0:0:
320,192,77408,1,2,0:0:0:0:
448,192,77408,1,2,0:0:0:0:
192,192,77642,1,2,0:0:0:0:
64,192,77876,1,10,0:0:0:0:
448,192,78111,1,2,0:0:0:0:
64,192,78345,1,8,0:0:0:0:
448,192,78579,1,10,0:0:0:0:
192,192,78579,1,10,0:0:0:0:
64,192,78814,1,10,0:0:0:0:
320,192,78814,1,10,0:0:0:0:
192,192,79048,1,2,0:0:0:0:
448,192,79283,128,8,80220:0:0:0:0:
320,192,79283,1,2,0:0:0:0:
192,192,79986,1,2,0:0:0:0:
64,192,80220,128,8,80689:0:0:0:0:
448,192,80689,128,8,81158:0:0:0:0:
192,192,81158,1,10,0:0:0:0:
320,192,81158,1,10,0:0:0:0:
192,192,81509,1,10,0:0:0:0:
320,192,81509,1,10,0:0:0:0:
192,192,81861,1,10,0:0:0:0:
320,192,81861,1,2,0:0:0:0:
64,192,82095,1,10,0:0:0:0:
448,192,82095,1,10,0:0:0:0:
320,192,82564,1,8,0:0:0:0:
192,192,83033,1,10,0:0:0:0:
64,192,83033,1,10,0:0:0:0:
320,192,83501,1,2,0:0:0:0:
448,192,83618,1,8,0:0:0:0:
64,192,83853,1,2,0:0:0:0:
448,192,84322,1,8,0:0:0:0:
320,192,84322,1,8,0:0:0:0:
192,192,84673,1,10,0:0:0:0:
64,192,84673,1,10,0:0:0:0:
192,192,85376,1,8,0:0:0:0:
448,192,85493,1,2,0:0:0:0:
320,192,85611,1,8,0:0:0:0:
192,192,86783,1,10,0:0:0:0:
64,192,86783,1,10,0:0:0:0:
192,192,87251,1,2,0:0:0:0:
448,192,87368,1,8,0:0:0:0:
320,192,87603,1,2,0:0:0:0:
64,192,88072,1,8,0:0:0:0:
320,192,88072,1,8,0:0:0:0:
192,192,88423,1,10,0:0:0:0:
448,192,88423,1,10,0:0:0:0:
