osu file format v14

[General]
AudioFilename: dab.mp3
AudioLeadIn: 0
PreviewTime: 67105
Countdown: 0
SampleSet: Soft
StackLeniency: 0.7
Mode: 2
LetterboxInBreaks: 0
WidescreenStoryboard: 1

[Editor]
Bookmarks: 23051,38051,53051,68051,83051,88433
DistanceSpacing: 1.4
BeatDivisor: 4
GridSize: 8
TimelineZoom: 1

[Metadata]
Title:Ugoku, Ugoku (TV Size)
TitleUnicode:動く、動く (TV Size)
Artist:Chito (CV: Minase Inori), Yuuri (CV: Kubo Yurika)
ArtistUnicode:チト(CV:水瀬いのり)、ユーリ(CV:久保ユリカ)
Creator:wonjae
Version:Platter
Source:少女終末旅行
Tags:girls' last tour shoujo shuumatsu ryokou the end trip tv size opening op tyrell californian darknessofblue cyanine Nozhomi Paranoid Grapes
BeatmapID:1672087
BeatmapSetID:706307

[Difficulty]
HPDrainRate:5
CircleSize:3.5
OverallDifficulty:7.5
ApproachRate:7.5
SliderMultiplier:1.6
SliderTickRate:1

[Events]
//Background and Video events
0,0,"tyrellnotdab.png",0,0
//Break Periods
//Storyboard Layer 0 (Background)
//Storyboard Layer 1 (Fail)
//Storyboard Layer 2 (Pass)
//Storyboard Layer 3 (Foreground)
//Storyboard Sound Samples

[TimingPoints]
543,468.75,4,2,1,30,1,0
3355,-100,4,2,1,5,0,0
3472,-100,4,2,1,30,0,0
14605,-100,4,2,1,30,0,0
15543,-100,4,2,1,40,0,0
17066,-100,4,2,1,40,0,0
17183,-100,4,2,1,40,0,0
17418,-100,4,2,1,40,0,0
17652,-100,4,2,1,40,0,0
18355,-100,4,2,1,40,0,0
20816,-100,4,2,1,40,0,0
20933,-100,4,2,1,40,0,0
21168,-100,4,2,1,40,0,0
21636,-100,4,2,1,40,0,0
21695,-100,4,2,1,40,0,0
22105,-100,4,2,1,40,0,0
23043,-100,4,2,1,50,0,0
38043,-100,4,2,1,40,0,0
41324,-100,4,2,1,40,0,0
45543,-100,4,2,1,50,0,0
52105,-100,4,2,1,50,0,0
53043,-100,4,2,1,60,0,1
66168,-100,4,2,1,60,0,0
67574,-100,4,2,1,55,0,0
68043,-100,4,2,1,60,0,1
82574,-100,4,2,1,50,0,1
83043,-100,4,2,1,35,0,0
85855,-100,4,2,1,5,0,0
86089,-100,4,2,1,35,0,0

[Colours]
Combo1 : 21,128,234
Combo2 : 201,201,201
Combo3 : 186,147,27
Combo4 : 71,141,141

[HitObjects]
320,256,543,5,2,0:0:0:0:
160,212,1011,2,0,L|105:213,1,40,2|0,0:0|0:0,0:0:0:0:
186,236,1363,1,0,0:0:0:0:
320,256,1832,2,0,L|183:255,1,120,2|2,0:0|0:0,0:0:0:0:
430,214,2886,2,0,L|442:159,2,40,2|0|2,0:0|0:0|0:0,0:0:0:0:
324,223,4293,5,2,0:0:0:0:
164,222,4761,2,0,L|109:221,1,40,2|0,0:0|0:0,0:0:0:0:
195,231,5113,1,0,0:0:0:0:
499,227,5582,2,0,L|354:224,1,120,2|2,0:0|0:0,0:0:0:0:
173,292,6636,2,0,L|126:315,2,40,2|0|2,0:0|0:0|0:0,0:0:0:0:
382,223,7105,6,0,L|478:225,1,80,2|0,0:0|0:0,0:0:0:0:
346,132,7574,2,0,L|449:131,1,80,2|0,0:0|0:0,0:0:0:0:
207,212,8043,5,2,0:0:0:0:
338,248,8511,2,0,L|398:251,1,40,2|0,0:0|0:0,0:0:0:0:
269,244,8863,1,0,0:0:0:0:
92,207,9332,2,0,L|217:207,1,120,2|2,0:0|0:0,0:0:0:0:
432,159,10386,2,0,L|464:119,2,40,2|0|2,0:0|0:0|0:0,0:0:0:0:
210,240,10855,6,0,L|115:258,2,80,2|2|0,0:0|0:0|0:0,0:0:0:0:
100,215,11558,1,2,0:0:0:0:
329,207,11793,5,2,0:0:0:0:
177,262,12261,2,0,L|124:253,1,40,2|0,0:0|0:0,0:0:0:0:
194,255,12613,1,0,0:0:0:0:
387,205,13082,2,0,L|262:204,1,120,2|2,0:0|0:0,0:0:0:0:
119,155,14136,2,0,L|90:98,2,40,2|0|2,0:0|0:0|0:0,0:0:0:0:
354,267,14605,6,0,L|237:267,1,80,2|0,0:0|0:0,0:0:0:0:
149,183,15074,2,0,L|76:184,2,40,2|0|2,0:0|0:0|0:0,0:0:0:0:
466,232,15543,6,0,L|484:154,1,80,4|0,0:0|0:0,0:0:0:0:
369,160,16011,2,0,L|355:107,2,40,2|0|2,0:0|0:0|0:0,0:0:0:0:
418,164,16363,1,0,0:0:0:0:
227,262,16832,2,0,L|369:263,1,120,2|2,0:0|0:0,0:0:0:0:
225,210,17652,1,0,0:0:0:0:
99,189,17886,2,0,L|89:132,2,40,2|0|2,0:0|0:0|0:0,0:0:0:0:
341,138,18355,6,0,L|444:127,2,80,2|2|0,0:0|0:0|0:0,0:0:0:0:
457,125,19058,1,2,0:0:0:0:
222,250,19293,6,0,L|116:252,1,80,2|0,0:0|0:0,0:0:0:0:
37,203,19761,2,0,L|18:157,2,40,2|0|2,0:0|0:0|0:0,0:0:0:0:
86,205,20113,1,0,0:0:0:0:
427,315,20582,2,0,L|291:314,1,120,2|2,0:0|0:0,0:0:0:0:
244,262,21636,5,2,0:0:0:0:
467,215,22105,2,0,L|392:161,2,80,2|2|2,0:0|0:0|0:0,0:0:0:0:
400,235,22808,1,0,0:0:0:0:
90,245,23043,6,0,L|66:147,1,80,4|2,0:3|0:0,0:0:0:0:
201,159,23511,1,0,1:0:0:0:
70,167,23746,1,2,0:0:0:0:
316,290,23980,2,0,L|449:291,1,120,4|8,0:3|0:0,0:0:0:0:
330,255,24449,2,0,L|239:255,1,80,0|10,0:0|0:0,0:0:0:0:
152,204,24918,5,4,0:3:0:0:
252,165,25152,2,0,L|305:168,1,40,2|0,0:0|0:0,0:0:0:0:
387,103,25386,2,0,L|290:103,1,80,0|2,1:0|0:0,0:0:0:0:
182,286,25855,2,0,L|363:284,1,160,4|0,0:3|1:0,0:0:0:0:
449,229,26558,1,2,0:0:0:0:
110,230,26793,6,0,P|72:169|135:96,1,160,4|0,0:3|1:0,0:0:0:0:
228,110,27496,1,2,0:0:0:0:
444,247,27730,2,0,L|292:246,1,120,4|8,0:3|0:0,0:0:0:0:
218,292,28199,2,0,L|327:293,1,80,0|10,1:0|0:0,0:0:0:0:
94,245,28668,6,0,L|195:246,2,80,4|2|0,0:3|0:0|1:0,0:0:0:0:
256,156,29605,2,0,L|167:154,2,80,4|2|0,0:3|0:0|1:0,0:0:0:0:
117,154,30308,1,0,0:3:0:0:
473,152,30543,6,0,P|479:200|372:251,1,160,4|0,0:3|1:0,0:0:0:0:
265,299,31246,1,2,0:0:0:0:
471,207,31480,2,0,L|325:209,1,120,4|8,0:3|0:0,0:0:0:0:
246,147,31949,2,0,L|341:145,1,80,0|10,0:0|0:0,0:0:0:0:
457,90,32418,5,4,0:3:0:0:
321,109,32652,2,0,L|258:109,1,40,2|0,0:0|0:0,0:0:0:0:
202,165,32886,2,0,L|308:163,1,80,0|2,1:0|0:0,0:0:0:0:
418,210,33355,2,0,L|254:209,1,160,4|0,0:3|1:0,0:0:0:0:
119,211,34058,1,2,0:0:0:0:
436,278,34293,6,0,P|454:152|430:141,1,160,4|0,0:3|1:0,0:0:0:0:
308,146,34996,1,2,0:0:0:0:
113,305,35230,2,0,L|244:306,1,120,4|8,0:3|0:0,0:0:0:0:
128,241,35699,2,0,L|32:192,1,80,0|10,0:0|0:0,0:0:0:0:
264,211,36168,6,0,L|355:200,2,80,4|2|4,0:3|0:0|0:3,0:0:0:0:
420,219,37105,1,0,0:0:0:0:
445,210,37183,1,0,0:0:0:0:
465,194,37261,1,0,0:0:0:0:
479,171,37339,1,0,0:0:0:0:
483,145,37417,1,0,0:0:0:0:
478,119,37495,1,0,0:0:0:0:
464,96,37573,1,0,0:0:0:0:
345,38,37808,1,0,0:0:0:0:
36,240,38043,6,0,P|23:164|137:54,1,240,4|0,0:3|0:0,0:0:0:0:
241,98,39214,2,0,L|65:94,1,160,2|0,0:0|0:0,0:0:0:0:
204,183,39918,2,0,P|329:206|357:317,1,240,4|0,0:3|0:0,0:0:0:0:
238,314,40855,1,4,0:3:0:0:
360,257,41089,1,2,0:0:0:0:
357,205,41324,1,0,0:0:0:0:
233,162,41558,1,0,0:0:0:0:
447,151,41793,6,0,L|463:64,1,80,4|2,0:3|0:0,0:0:0:0:
319,68,42496,1,0,0:0:0:0:
181,178,42964,2,0,L|291:179,1,80,2|0,0:0|0:0,0:0:0:0:
42,109,43668,2,0,P|73:210|200:237,1,240,4|0,0:3|0:0,0:0:0:0:
309,122,44605,1,4,0:3:0:0:
185,195,44839,1,2,0:0:0:0:
186,135,45074,1,0,1:0:0:0:
331,122,45308,1,2,0:0:0:0:
32,102,45543,6,0,P|31:161|127:219,1,160,4|0,0:3|1:0,0:0:0:0:
194,224,46246,1,2,0:0:0:0:
278,286,46480,2,0,L|106:282,1,160,0|0,1:0|1:0,0:0:0:0:
359,340,47418,6,0,L|513:278,1,160,0|0,1:0|1:0,0:0:0:0:
410,239,48121,1,2,0:0:0:0:
313,187,48355,2,0,L|493:184,1,160,0|0,1:0|1:0,0:0:0:0:
400,123,49058,1,2,0:0:0:0:
103,287,49293,6,0,L|23:285,3,80,0|0|0|0,1:0|1:0|1:0|1:0,0:0:0:0:
247,230,50230,2,0,L|333:228,2,80,0|0|0,1:0|1:0|1:0,0:0:0:0:
334,150,50933,1,0,1:0:0:0:
22,85,51168,5,0,1:0:0:0:
10,126,51285,1,0,1:0:0:0:
17,163,51402,1,0,1:0:0:0:
33,198,51519,1,0,1:0:0:0:
63,225,51636,1,2,0:0:0:0:
99,240,51753,1,0,0:0:0:0:
141,242,51871,1,0,0:0:0:0:
192,241,51988,1,0,0:0:0:0:
344,237,52105,5,0,0:0:0:0:
48,203,53043,6,0,L|151:198,1,80,4|0,2:3|0:0,0:0:0:0:
234,260,53511,2,0,L|128:258,1,80,8|0,0:0|0:0,0:0:0:0:
470,247,53980,2,0,P|485:169|412:99,1,160,4|8,0:3|0:0,0:0:0:0:
344,140,54683,1,2,0:0:0:0:
143,215,54918,6,0,L|261:214,2,80,4|0|8,0:3|0:0|0:0,0:0:0:0:
356,292,55621,2,0,L|255:292,1,80,0|4,0:0|0:3,0:0:0:0:
158,287,56089,1,8,0:0:0:0:
372,211,56324,2,0,L|420:120,1,80,8|0,0:0|0:0,0:0:0:0:
47,197,56793,6,0,P|24:143|59:77,1,120,4|8,0:3|0:0,0:0:0:0:
131,69,57261,2,0,L|241:68,1,80,0|8,0:0|0:0,0:0:0:0:
423,252,57730,2,0,P|476:190|459:144,1,120,4|8,0:3|0:0,0:0:0:0:
363,146,58199,2,0,L|283:149,1,80,0|8,0:0|0:0,0:0:0:0:
70,278,58668,6,0,L|159:278,2,80,4|0|8,0:3|0:0|0:0,0:0:0:0:
294,211,59371,2,0,L|382:213,1,80,0|4,0:0|0:3,0:0:0:0:
271,105,59839,1,8,0:0:0:0:
90,153,60074,2,0,L|58:74,1,80,8|2,0:0|0:0,0:0:0:0:
431,192,60543,6,0,L|470:282,1,80,4|0,0:3|0:0,0:0:0:0:
330,291,61011,2,0,L|409:293,1,80,8|0,0:0|0:0,0:0:0:0:
48,267,61480,2,0,P|35:182|123:155,1,160,4|8,0:3|0:0,0:0:0:0:
210,132,62183,1,2,0:0:0:0:
441,293,62418,6,0,L|351:293,2,80,4|0|8,0:3|0:0|0:0,0:0:0:0:
227,239,63121,2,0,L|318:240,1,80,0|4,0:0|0:3,0:0:0:0:
406,238,63589,1,8,0:0:0:0:
191,185,63824,2,0,L|138:84,1,80,8|0,0:0|0:0,0:0:0:0:
485,144,64293,6,0,P|489:189|428:237,1,120,4|8,0:3|0:0,0:0:0:0:
342,297,64761,2,0,L|241:297,1,80,0|8,0:0|0:0,0:0:0:0:
32,194,65230,2,0,P|17:130|62:86,1,120,4|8,0:3|0:0,0:0:0:0:
92,91,65699,2,0,L|175:91,1,80,0|8,0:0|0:0,0:0:0:0:
470,174,66168,5,0,1:0:0:0:
485,283,66519,1,0,1:0:0:0:
236,313,66871,1,0,1:0:0:0:
373,322,67105,2,0,L|293:322,1,80,0|2,1:0|0:0,0:0:0:0:
92,271,67574,2,0,L|74:176,1,80,4|0,0:3|0:0,0:0:0:0:
384,336,68043,6,0,L|494:335,1,80,4|0,2:3|0:0,0:0:0:0:
353,268,68511,2,0,L|441:268,1,80,8|0,0:0|0:0,0:0:0:0:
117,256,68980,2,0,P|24:201|41:145,1,160,4|8,0:3|0:0,0:0:0:0:
142,159,69683,1,2,0:0:0:0:
353,279,69918,6,0,L|251:277,2,80,4|0|8,0:3|0:0|0:0,0:0:0:0:
147,314,70621,2,0,L|66:251,1,80,0|4,0:0|0:3,0:0:0:0:
22,251,71089,1,8,0:0:0:0:
193,172,71324,2,0,L|86:173,1,80,8|0,0:0|0:0,0:0:0:0:
451,147,71793,6,0,P|483:188|468:279,1,120,4|8,0:3|0:0,0:0:0:0:
378,304,72261,2,0,L|277:307,1,80,0|8,0:0|0:0,0:0:0:0:
88,288,72730,2,0,P|50:230|61:164,1,120,4|8,0:3|0:0,0:0:0:0:
157,180,73199,2,0,L|246:182,1,80,0|8,0:0|0:0,0:0:0:0:
449,319,73668,6,0,L|336:318,2,80,4|0|8,0:3|0:0|0:0,0:0:0:0:
246,236,74371,2,0,L|147:236,1,80,0|4,0:0|0:3,0:0:0:0:
248,114,74839,1,8,0:0:0:0:
471,195,75074,2,0,L|384:195,1,80,8|2,0:0|0:0,0:0:0:0:
74,317,75543,6,0,L|3:251,1,80,4|0,0:3|0:0,0:0:0:0:
151,242,76011,2,0,L|71:241,1,80,8|0,0:0|0:0,0:0:0:0:
397,291,76480,2,0,P|473:241|459:151,1,160,4|8,0:3|0:0,0:0:0:0:
341,184,77183,1,2,0:0:0:0:
122,315,77418,6,0,L|214:320,2,80,4|0|8,0:3|0:0|0:0,0:0:0:0:
337,243,78121,2,0,L|254:244,1,80,0|4,0:0|0:3,0:0:0:0:
168,241,78589,1,8,0:0:0:0:
345,232,78824,2,0,L|449:232,1,80,8|0,0:0|0:0,0:0:0:0:
82,278,79293,6,0,P|24:209|26:114,2,160,4|2|4,0:3|0:0|0:3,0:0:0:0:
318,298,80699,1,2,0:0:0:0:
27,274,81168,2,0,L|176:274,2,120,0|0|0,1:0|1:0|1:0,0:0:0:0:
255,286,82105,1,0,1:0:0:0:
52,324,82574,1,2,0:0:0:0:
390,328,83043,5,4,0:3:0:0:
250,275,83511,2,0,L|195:273,1,40,2|0,0:0|0:0,0:0:0:0:
290,277,83863,1,0,0:0:0:0:
458,235,84332,2,0,L|302:233,1,120,0|0,1:0|1:0,0:0:0:0:
159,196,85386,2,0,L|128:140,2,40,2|0|2,0:0|0:0|0:0,0:0:0:0:
285,182,86793,5,4,0:3:0:0:
432,258,87261,2,0,L|485:256,1,40,2|0,0:0|0:0,0:0:0:0:
386,260,87613,1,0,0:0:0:0:
207,324,88082,2,0,L|344:325,1,120,0|0,1:0|1:0,0:0:0:0:
