osu file format v14

[General]
AudioFilename: audio.mp3
AudioLeadIn: 0
PreviewTime: 52095
Countdown: 0
SampleSet: Normal
StackLeniency: 0.7
Mode: 1
LetterboxInBreaks: 0
WidescreenStoryboard: 0

[Editor]
DistanceSpacing: 0.2
BeatDivisor: 4
GridSize: 16
TimelineZoom: 0.3999999

[Metadata]
Title:Ugoku, Ugoku (TV Size)
TitleUnicode:動く、動く (TV Size)
Artist:Chito (CV: Minase Inori), Yuuri (CV: Kubo Yurika)
ArtistUnicode:チト(CV:水瀬いのり)、ユーリ(CV:久保ユリカ)
Creator:Faputa
Version:Futsuu
Source:少女終末旅行
Tags:OP opening Girls' Last Dab Tour Shōjo Shūmatsu Ryokō Shoujo Shuumatsu Ryokou loli
BeatmapID:1726091
BeatmapSetID:823710

[Difficulty]
HPDrainRate:7
CircleSize:2
OverallDifficulty:3
ApproachRate:10
SliderMultiplier:1.4
SliderTickRate:1

[Events]
//Background and Video events
0,0,"ugoku.jpg",0,0
//Break Periods
//Storyboard Layer 0 (Background)
//Storyboard Layer 1 (Fail)
//Storyboard Layer 2 (Pass)
//Storyboard Layer 3 (Foreground)
//Storyboard Sound Samples

[TimingPoints]
533,468.75,4,1,0,80,1,0
53033,-100,4,1,0,80,0,1
83033,-100,4,1,0,80,0,0

[HitObjects]
256,192,533,5,8,0:0:0:0:
256,192,2173,1,8,0:0:0:0:
256,192,4283,1,0,0:0:0:0:
256,192,5923,1,8,0:0:0:0:
256,192,7095,1,0,0:0:0:0:
256,192,7564,1,0,0:0:0:0:
256,192,8033,1,8,0:0:0:0:
256,192,9673,1,8,0:0:0:0:
256,192,10845,1,0,0:0:0:0:
256,192,11079,1,0,0:0:0:0:
256,192,11314,1,8,0:0:0:0:
256,192,11783,1,0,0:0:0:0:
256,192,13423,1,8,0:0:0:0:
256,192,14595,1,0,0:0:0:0:
256,192,15064,1,0,0:0:0:0:
256,192,15533,1,8,0:0:0:0:
256,192,16001,1,0,0:0:0:0:
256,192,17173,1,8,0:0:0:0:
256,192,18345,1,0,0:0:0:0:
256,192,18579,1,0,0:0:0:0:
256,192,18814,1,0,0:0:0:0:
256,192,19283,1,8,0:0:0:0:
256,192,20923,1,8,0:0:0:0:
256,192,22095,1,0,0:0:0:0:
256,192,22329,1,8,0:0:0:0:
256,192,22564,1,0,0:0:0:0:
256,192,23033,1,0,0:0:0:0:
256,192,23501,1,8,0:0:0:0:
256,192,24673,1,8,0:0:0:0:
256,192,25376,1,8,0:0:0:0:
256,192,26079,1,0,0:0:0:0:
256,192,26314,1,8,0:0:0:0:
256,192,26783,1,0,0:0:0:0:
256,192,27251,1,8,0:0:0:0:
256,192,28423,1,8,0:0:0:0:
256,192,29126,1,8,0:0:0:0:
256,192,29595,1,0,0:0:0:0:
256,192,29829,1,0,0:0:0:0:
256,192,30064,1,0,0:0:0:0:
256,192,30533,1,8,0:0:0:0:
256,192,31001,1,8,0:0:0:0:
256,192,32173,1,8,0:0:0:0:
256,192,32876,1,8,0:0:0:0:
256,192,33579,1,0,0:0:0:0:
256,192,33814,1,8,0:0:0:0:
256,192,34283,1,0,0:0:0:0:
256,192,34751,1,8,0:0:0:0:
256,192,35923,1,8,0:0:0:0:
256,192,36158,1,0,0:0:0:0:
256,192,36626,1,0,0:0:0:0:
256,192,37095,1,0,0:0:0:0:
256,192,38033,1,8,0:0:0:0:
256,192,38736,1,0,0:0:0:0:
256,192,39204,1,0,0:0:0:0:
256,192,39908,1,0,0:0:0:0:
256,192,40611,1,0,0:0:0:0:
256,192,40845,1,8,0:0:0:0:
256,192,41783,1,8,0:0:0:0:
256,192,42486,1,0,0:0:0:0:
256,192,43189,1,8,0:0:0:0:
256,192,43658,1,0,0:0:0:0:
256,192,44361,1,0,0:0:0:0:
256,192,44595,1,8,0:0:0:0:
256,192,45064,1,8,0:0:0:0:
256,192,45533,1,4,0:0:0:0:
256,192,46001,1,8,0:0:0:0:
256,192,46939,1,8,0:0:0:0:
256,192,47408,1,0,0:0:0:0:
256,192,47876,1,8,0:0:0:0:
256,192,48814,1,8,0:0:0:0:
256,192,49283,1,0,0:0:0:0:
256,192,49517,1,0,0:0:0:0:
256,192,49751,1,0,0:0:0:0:
256,192,50220,1,8,0:0:0:0:
256,192,50454,1,8,0:0:0:0:
256,192,50689,1,8,0:0:0:0:
149,217,51158,2,0,L|432:208,1,280
256,192,53033,5,12,0:0:0:0:
256,192,53501,1,0,0:0:0:0:
256,192,53970,1,8,0:0:0:0:
256,192,54439,1,8,0:0:0:0:
256,192,54908,1,0,0:0:0:0:
256,192,55376,1,8,0:0:0:0:
256,192,55611,1,8,0:0:0:0:
256,192,56079,1,8,0:0:0:0:
256,192,56314,1,8,0:0:0:0:
256,192,56783,1,0,0:0:0:0:
256,192,57720,1,8,0:0:0:0:
256,192,58658,1,0,0:0:0:0:
256,192,59126,1,8,0:0:0:0:
256,192,59361,1,0,0:0:0:0:
256,192,59829,1,8,0:0:0:0:
256,192,60064,1,8,0:0:0:0:
256,192,60533,1,0,0:0:0:0:
256,192,61001,1,8,0:0:0:0:
256,192,61470,1,0,0:0:0:0:
256,192,61939,1,8,0:0:0:0:
256,192,62408,1,0,0:0:0:0:
256,192,62876,1,8,0:0:0:0:
256,192,63111,1,8,0:0:0:0:
256,192,63579,1,8,0:0:0:0:
256,192,63814,1,8,0:0:0:0:
256,192,64283,1,0,0:0:0:0:
256,192,65220,1,8,0:0:0:0:
256,192,66158,1,12,0:0:0:0:
256,192,67095,1,12,0:0:0:0:
256,192,68033,5,12,0:0:0:0:
256,192,68501,1,0,0:0:0:0:
256,192,68970,1,8,0:0:0:0:
256,192,69439,1,8,0:0:0:0:
256,192,69908,1,0,0:0:0:0:
256,192,70376,1,8,0:0:0:0:
256,192,70611,1,8,0:0:0:0:
256,192,71079,1,8,0:0:0:0:
256,192,71314,1,8,0:0:0:0:
256,192,71783,1,0,0:0:0:0:
256,192,72720,1,8,0:0:0:0:
256,192,73658,1,0,0:0:0:0:
256,192,74126,1,8,0:0:0:0:
256,192,74361,1,0,0:0:0:0:
256,192,74829,1,8,0:0:0:0:
256,192,75064,1,8,0:0:0:0:
256,192,75533,1,8,0:0:0:0:
256,192,76001,1,8,0:0:0:0:
256,192,76470,1,8,0:0:0:0:
256,192,76939,1,0,0:0:0:0:
256,192,77408,1,0,0:0:0:0:
256,192,77876,1,8,0:0:0:0:
256,192,78111,1,8,0:0:0:0:
256,192,78579,1,8,0:0:0:0:
256,192,78814,1,8,0:0:0:0:
256,192,79283,1,0,0:0:0:0:
256,192,80220,1,8,0:0:0:0:
256,192,80689,1,0,0:0:0:0:
256,192,81158,1,12,0:0:0:0:
256,192,82095,1,12,0:0:0:0:
256,192,83033,1,0,0:0:0:0:
256,192,84673,1,8,0:0:0:0:
256,192,86783,1,0,0:0:0:0:
256,192,88423,1,8,0:0:0:0:
