osu file format v14

[General]
AudioFilename: audio.mp3
AudioLeadIn: 0
PreviewTime: 21652
Countdown: 0
SampleSet: Soft
StackLeniency: 0.5
Mode: 0
LetterboxInBreaks: 0
WidescreenStoryboard: 0

[Editor]
DistanceSpacing: 1.6
BeatDivisor: 4
GridSize: 4
TimelineZoom: 1

[Metadata]
Title:Ugoku, Ugoku
TitleUnicode:動く、動く
Artist:Chito (CV: Minase Inori), Yuuri (CV: Kubo Yurika)
ArtistUnicode:チト(CV:水瀬いのり)、ユーリ(CV:久保ユリカ)
Creator:Nozhomi
Version:Insane
Source:少女終末旅行
Tags:Shoujo Shuumatsu Ryokou Girls' Last Tour opening tv size
BeatmapID:1468243
BeatmapSetID:693918

[Difficulty]
HPDrainRate:6
CircleSize:4.2
OverallDifficulty:7.5
ApproachRate:8.5
SliderMultiplier:1.8
SliderTickRate:1

[Events]
//Background and Video events
0,0,"winter.jpg",0,0
//Break Periods
//Storyboard Layer 0 (Background)
//Storyboard Layer 1 (Fail)
//Storyboard Layer 2 (Pass)
//Storyboard Layer 3 (Foreground)
//Storyboard Sound Samples

[TimingPoints]
90,468.75,4,2,1,30,1,0
2902,-100,4,2,1,5,0,0
3019,-100,4,2,1,30,0,0
15090,-100,4,2,1,40,0,0
22590,-100,4,2,1,50,0,0
37590,-133.333333333333,4,2,1,40,0,0
45090,-100,4,2,1,50,0,0
52590,-80,4,2,1,60,0,1
67121,-80,4,2,1,55,0,0
67590,-80,4,2,1,60,0,1
78840,-100,4,2,1,60,0,1
82121,-100,4,2,1,50,0,1
82590,-100,4,2,1,35,0,0
85402,-100,4,2,1,5,0,0
85636,-100,4,2,1,35,0,0

[Colours]
Combo1 : 192,192,192
Combo2 : 19,217,217
Combo3 : 223,215,49

[HitObjects]
44,64,90,5,2,0:0:0:0:
248,136,558,2,0,P|268:138|296:132,1,45,2|0,0:0|0:0,0:0:0:0:
400,92,793,2,0,P|379:89|352:96,1,45,2|0,0:0|0:0,0:0:0:0:
284,304,1379,2,0,P|275:259|282:215,1,90,2|0,0:0|0:0,0:0:0:0:
356,94,1730,1,2,0:0:0:0:
128,176,2433,2,0,L|80:172,1,45,2|0,0:0|0:0,0:0:0:0:
192,222,2668,2,0,L|300:214,1,90,2|0,0:0|0:0,0:0:0:0:
282,215,3840,5,2,0:0:0:0:
108,88,4308,2,0,P|104:120|112:160,1,45,2|0,0:0|0:0,0:0:0:0:
184,220,4543,2,0,P|158:200|119:187,1,45,2|0,0:0|0:0,0:0:0:0:
0,260,5129,2,0,P|29:247|72:199,1,90,2|0,0:0|0:0,0:0:0:0:
108,88,5480,1,2,0:0:0:0:
256,272,6183,2,0,B|259:288|251:304|254:316,2,45,2|0|2,0:0|0:0|0:0,0:0:0:0:
256,152,6652,5,2,0:0:0:0:
220,124,6769,1,0,0:0:0:0:
235,81,6886,1,0,0:0:0:0:
280,83,7004,1,0,0:0:0:0:
293,126,7121,2,0,L|158:121,1,135,2|0,0:0|0:0,0:0:0:0:
44,116,7590,5,2,0:0:0:0:
244,196,8058,2,0,L|288:197,1,45,2|0,0:0|0:0,0:0:0:0:
396,240,8293,2,0,L|351:241,1,45,2|0,0:0|0:0,0:0:0:0:
380,20,8879,2,0,P|364:62|363:107,1,90,2|0,0:0|0:0,0:0:0:0:
396,240,9230,1,2,0:0:0:0:
148,136,9933,2,0,P|125:131|103:135,2,45,2|0|2,0:0|0:0|0:0,0:0:0:0:
242,191,10402,5,2,0:0:0:0:
148,244,10636,1,2,0:0:0:0:
148,136,10871,1,0,0:0:0:0:
278,191,11105,1,2,0:0:0:0:
129,276,11340,5,2,0:0:0:0:
296,76,11808,2,0,P|320:76|352:68,1,45,2|0,0:0|0:0,0:0:0:0:
216,76,12043,2,0,P|192:76|160:68,1,45,2|0,0:0|0:0,0:0:0:0:
376,140,12629,2,0,P|384:182|376:230,1,90,2|0,0:0|0:0,0:0:0:0:
308,344,12980,1,2,0:0:0:0:
88,260,13683,2,0,L|32:256,2,45,2|0|2,0:0|0:0|0:0,0:0:0:0:
164,204,14152,5,2,0:0:0:0:
220,296,14386,1,0,0:0:0:0:
128,344,14621,1,2,0:0:0:0:
128,344,14738,1,0,0:0:0:0:
128,344,14855,1,2,0:0:0:0:
263,208,15090,6,0,P|267:163|259:119,1,90,4|0,0:0|0:0,0:0:0:0:
176,40,15558,2,0,P|204:48|220:48,1,45,2|0,0:0|0:0,0:0:0:0:
335,40,15793,2,0,P|314:47|292:48,1,45,2|0,0:0|0:0,0:0:0:0:
104,20,16261,1,0,0:0:0:0:
104,20,16379,2,0,L|100:144,1,90,2|0,0:0|0:0,0:0:0:0:
52,216,16730,1,2,0:0:0:0:
256,100,17199,5,0,0:0:0:0:
208,240,17433,2,0,L|211:288,2,45,2|0|2,0:0|0:0|0:0,0:0:0:0:
300,164,17902,1,2,0:0:0:0:
187,122,18136,1,2,0:0:0:0:
287,244,18371,1,0,0:0:0:0:
267,76,18605,1,2,0:0:0:0:
144,192,18840,6,0,P|108:200|54:192,1,90,2|0,0:0|0:0,0:0:0:0:
208,152,19308,2,0,P|230:148|252:148,1,45,2|0,0:0|0:0,0:0:0:0:
136,108,19543,2,0,P|132:85|132:63,1,45,2|0,0:0|0:0,0:0:0:0:
216,232,20011,1,0,0:0:0:0:
216,232,20129,2,0,P|224:276|212:328,1,90,2|0,0:0|0:0,0:0:0:0:
108,368,20480,1,2,0:0:0:0:
372,252,21183,6,0,L|394:254,2,22.5,2|0|0,0:0|0:0|0:0,0:0:0:0:
216,232,21652,1,2,0:0:0:0:
309,124,21886,1,2,0:0:0:0:
372,252,22121,2,0,P|436:196|444:132,1,135,2|0,0:0|0:0,0:0:0:0:
436,40,22590,5,4,0:3:0:0:
309,124,22824,2,0,L|233:116,1,45,2|0,0:0|0:0,0:0:0:0:
113,124,23058,1,0,1:0:0:0:
113,124,23175,2,0,L|189:132,1,45,0|2,0:0|0:0,0:0:0:0:
309,124,23527,1,4,0:3:0:0:
232,288,23761,1,0,0:0:0:0:
232,288,23879,2,0,P|216:244|224:192,1,90,8|0,0:0|0:0,0:0:0:0:
263,119,24230,1,10,0:0:0:0:
100,232,24465,5,4,0:3:0:0:
239,295,24699,1,2,0:0:0:0:
239,295,24816,1,0,0:0:0:0:
239,295,24933,1,0,1:0:0:0:
336,176,25168,1,2,0:0:0:0:
460,268,25402,2,0,P|468:308|456:364,1,90,4|0,0:3|0:0,0:0:0:0:
420,192,25754,2,0,L|424:120,1,45,0|0,0:0|1:0,0:0:0:0:
500,16,26105,1,2,0:0:0:0:
328,116,26340,5,4,0:3:0:0:
180,80,26574,1,2,0:0:0:0:
180,80,26691,1,0,0:0:0:0:
180,80,26808,1,0,1:0:0:0:
228,224,27043,1,2,0:0:0:0:
228,224,27160,1,0,0:0:0:0:
228,224,27277,2,0,L|336:216,1,90,4|0,0:3|0:0,0:0:0:0:
236,308,27629,2,0,P|212:308|180:300,1,45,8|0,0:0|1:0,0:0:0:0:
48,180,27980,1,10,0:0:0:0:
256,68,28215,5,4,0:3:0:0:
318,217,28449,1,2,0:0:0:0:
444,108,28683,2,0,P|396:96|348:108,1,90,0|0,1:0|0:0,0:0:0:0:
256,316,29152,5,4,0:3:0:0:
194,167,29386,1,2,0:0:0:0:
68,276,29621,2,0,P|116:288|164:276,1,90,0|0,1:0|0:3,0:0:0:0:
256,68,30090,5,4,0:3:0:0:
104,120,30324,1,2,0:0:0:0:
104,120,30441,1,0,0:0:0:0:
104,120,30558,2,0,P|78:120|56:112,1,45,0|0,1:0|0:0,0:0:0:0:
164,164,30793,2,0,P|145:182|124:192,1,45,2|0,0:0|0:0,0:0:0:0:
176,88,31027,1,4,0:3:0:0:
129,278,31261,1,0,0:0:0:0:
129,278,31379,2,0,P|121:226|137:174,1,90,8|0,0:0|0:0,0:0:0:0:
176,88,31730,1,10,0:0:0:0:
32,200,31965,5,4,0:3:0:0:
192,312,32199,2,0,L|188:364,1,45,2|0,0:0|0:0,0:0:0:0:
268,256,32433,1,0,1:0:0:0:
268,256,32550,2,0,L|272:308,1,45,0|2,0:0|0:0,0:0:0:0:
394,194,32902,1,4,0:3:0:0:
256,120,33136,1,0,0:0:0:0:
256,120,33254,2,0,L|252:73,1,45,2|0,0:0|1:0,0:0:0:0:
404,104,33605,1,2,0:0:0:0:
220,188,33840,5,4,0:3:0:0:
64,152,34074,2,0,L|8:156,1,45,2|0,0:0|0:0,0:0:0:0:
96,80,34308,2,0,L|92:24,1,45,0|0,1:0|0:0,0:0:0:0:
137,142,34543,1,2,0:0:0:0:
84,292,34777,1,4,0:3:0:0:
212,212,35011,1,0,0:0:0:0:
212,212,35129,2,0,B|256:204|256:204|300:211,1,90,8|0,0:0|0:0,0:0:0:0:
400,240,35480,1,10,0:0:0:0:
420,80,35715,5,4,0:3:0:0:
301,211,35949,1,2,0:0:0:0:
420,80,36183,2,0,L|312:76,1,90,4|0,0:3|0:0,0:0:0:0:
168,56,36652,2,0,L|136:60,4,30,4|2|0|0|0,0:3|0:0|0:0|0:0|0:0,0:0:0:0:
259,109,37121,2,0,L|229:105,4,30,0|2|0|0|0,0:0|0:0|0:0|0:0|0:0,0:0:0:0:
330,76,37590,6,0,L|337:278,1,202.500007724762,4|0,0:3|0:0,0:0:0:0:
294,384,38527,1,4,0:3:0:0:
246,280,38761,2,0,P|206:272|166:276,1,67.5000025749208,2|0,0:0|0:0,0:0:0:0:
76,320,39230,1,0,0:0:0:0:
68,172,39465,6,0,B|65:16|65:16|103:42,1,202.500007724762,4|0,0:3|0:0,0:0:0:0:
208,112,40402,1,4,0:3:0:0:
328,72,40636,2,0,L|400:76,1,67.5000025749208,2|0,0:0|0:0,0:0:0:0:
356,204,41105,1,0,0:0:0:0:
328,72,41340,5,4,0:3:0:0:
232,180,41574,2,0,P|169:162|148:95,1,135.000005149842,2|0,0:0|0:0,0:0:0:0:
256,68,42277,1,4,0:3:0:0:
232,180,42511,1,2,0:0:0:0:
255,291,42745,2,0,P|260:325|255:358,1,67.5000025749208
360,272,43215,6,0,P|348:164|376:76,1,202.500007724762,4|0,0:3|0:0,0:0:0:0:
484,36,44152,1,4,0:3:0:0:
376,76,44386,2,0,L|329:72,2,33.7500012874604,2|0|0,0:0|0:0|1:0,0:0:0:0:
464,148,44855,1,2,0:0:0:0:
336,252,45090,6,0,P|336:296|352:372,1,90,4|2,0:3|0:0,0:0:0:0:
176,252,45441,1,0,0:0:0:0:
176,251,45558,2,0,P|175:296|168:341,1,90,0|2,1:0|0:0,0:0:0:0:
256,212,45910,1,0,0:0:0:0:
256,212,46027,1,0,1:0:0:0:
136,116,46261,1,2,0:0:0:0:
136,116,46379,1,0,0:0:0:0:
136,116,46496,2,0,L|16:112,1,90,0|2,1:0|0:0,0:0:0:0:
192,56,46847,1,0,0:0:0:0:
192,56,46965,6,0,L|312:52,1,90,0|2,1:0|0:0,0:0:0:0:
140,124,47316,1,0,0:0:0:0:
140,124,47433,2,0,L|20:120,1,90,0|2,1:0|0:0,0:0:0:0:
196,60,47785,1,0,0:0:0:0:
196,60,47902,1,0,1:0:0:0:
236,216,48136,1,2,0:0:0:0:
234,232,48254,1,0,0:0:0:0:
233,248,48371,1,0,1:0:0:0:
296,108,48605,1,2,0:0:0:0:
298,124,48723,1,0,0:0:0:0:
299,140,48840,5,0,1:0:0:0:
148,120,49074,1,0,1:0:0:0:
233,248,49308,1,0,1:0:0:0:
296,108,49543,1,0,1:0:0:0:
149,213,49777,1,0,1:0:0:0:
300,194,50011,1,0,1:0:0:0:
218,64,50246,1,0,1:0:0:0:
233,248,50480,1,0,1:0:0:0:
296,108,50715,5,0,1:0:0:0:
336,89,50832,1,0,1:0:0:0:
380,93,50949,1,0,1:0:0:0:
420,113,51066,1,0,1:0:0:0:
431,155,51183,6,0,L|433:183,7,22.5,2|0|0|0|0|0|0|0,0:0|0:0|0:0|0:0|0:0|0:0|0:0|0:0,0:0:0:0:
492,116,51886,5,2,0:0:0:0:
472,336,52121,1,2,0:0:0:0:
492,116,52355,1,2,0:0:0:0:
312,256,52590,6,0,P|256:265|200:260,1,112.5,4|0,2:3|0:0,0:0:0:0:
96,114,53058,2,0,P|131:157|155:208,1,112.5,8|0,0:0|0:0,0:0:0:0:
81,373,53527,2,0,P|100:320|132:274,1,112.5,4|0,0:3|0:0,0:0:0:0:
312,256,53996,1,8,0:0:0:0:
84,220,54230,1,2,0:0:0:0:
248,28,54465,6,0,P|242:83|223:136,1,112.5,4|0,0:3|0:0,0:0:0:0:
84,220,54933,1,8,0:0:0:0:
264,236,55168,2,0,L|396:232,1,112.5,0|4,0:0|0:3,0:0:0:0:
223,136,55636,1,8,0:0:0:0:
96,264,55871,2,0,P|84:312|104:380,1,112.5,8|0,0:0|0:0,0:0:0:0:
316,312,56340,5,4,0:3:0:0:
96,264,56574,1,2,0:0:0:0:
96,264,56691,2,0,P|88:208|100:152,1,112.5,8|0,0:0|0:0,0:0:0:0:
156,56,57043,1,8,0:0:0:0:
256,204,57277,1,4,0:3:0:0:
356,56,57511,1,2,0:0:0:0:
356,56,57628,2,0,P|412:48|428:116,1,112.5,8|0,0:0|0:0,0:0:0:0:
408,200,57980,1,8,0:0:0:0:
240,132,58215,6,0,L|243:19,1,112.5,4|0,0:3|0:0,0:0:0:0:
112,68,58683,1,8,0:0:0:0:
188,208,58918,2,0,L|191:320,1,112.5,0|4,0:0|0:3,0:0:0:0:
294,250,59386,1,8,0:0:0:0:
100,316,59621,1,8,0:0:0:0:
140,116,59855,1,2,0:0:0:0:
358,296,60090,6,0,L|478:292,1,112.5,4|0,0:3|0:0,0:0:0:0:
294,250,60558,2,0,L|181:253,1,112.5,8|0,0:0|0:0,0:0:0:0:
8,308,61027,2,0,L|128:304,1,112.5,4|0,0:3|0:0,0:0:0:0:
358,296,61496,1,8,0:0:0:0:
256,148,61730,1,2,0:0:0:0:
396,35,61965,6,0,P|450:41|481:85,1,112.5,4|0,0:3|0:0,0:0:0:0:
484,264,62433,1,8,0:0:0:0:
332,168,62668,2,0,P|309:118|331:68,1,112.5,0|4,0:0|0:3,0:0:0:0:
456,200,63136,1,8,0:0:0:0:
300,296,63371,2,0,P|248:293|188:304,1,112.5,8|0,0:0|0:0,0:0:0:0:
0,368,63840,5,4,0:3:0:0:
92,212,64074,1,2,0:0:0:0:
92,212,64191,2,0,L|80:80,1,112.5,8|0,0:0|0:0,0:0:0:0:
156,16,64543,1,8,0:0:0:0:
4,112,64777,1,4,0:3:0:0:
176,232,65011,1,2,0:0:0:0:
176,232,65129,2,0,L|164:100,1,112.5,8|0,0:0|0:0,0:0:0:0:
240,36,65480,1,8,0:0:0:0:
82,100,65715,5,0,1:0:0:0:
348,132,66066,1,0,1:0:0:0:
84,184,66418,1,0,1:0:0:0:
256,252,66652,1,0,1:0:0:0:
76,292,66886,5,2,0:0:0:0:
240,144,67121,2,0,P|252:90|240:36,1,112.5,4|0,0:3|0:0,0:0:0:0:
205,279,67590,6,0,P|256:299|307:278,1,112.5,4|0,2:3|0:0,0:0:0:0:
409,131,68058,2,0,P|366:165|358:219,1,112.5,8|0,0:0|0:0,0:0:0:0:
436,383,68527,2,0,P|427:328|384:294,1,112.5,4|0,0:3|0:0,0:0:0:0:
205,279,68996,1,8,0:0:0:0:
428,236,69230,1,2,0:0:0:0:
232,148,69465,6,0,P|211:96|222:42,1,112.5,4|0,0:3|0:0,0:0:0:0:
396,80,69933,1,8,0:0:0:0:
284,220,70168,2,0,L|165:216,1,112.5,0|4,0:0|0:3,0:0:0:0:
222,42,70636,1,8,0:0:0:0:
364,168,70871,2,0,L|500:164,1,112.5,8|0,0:0|0:0,0:0:0:0:
428,340,71340,5,4,0:3:0:0:
240,316,71574,1,2,0:0:0:0:
240,316,71691,2,0,L|104:312,1,112.5,8|0,0:0|0:0,0:0:0:0:
64,248,72043,1,8,0:0:0:0:
156,92,72277,1,4,0:3:0:0:
296,244,72511,1,2,0:0:0:0:
296,244,72628,2,0,L|160:240,1,112.5,8|0,0:0|0:0,0:0:0:0:
120,176,72980,1,8,0:0:0:0:
296,244,73215,6,0,P|355:217|376:146,1,112.5,4|0,0:3|0:0,0:0:0:0:
256,44,73683,1,8,0:0:0:0:
135,175,73918,2,0,P|162:222|214:242,1,112.5,0|4,0:0|0:3,0:0:0:0:
364,66,74386,5,8,0:0:0:0:
212,164,74621,1,8,0:0:0:0:
308,12,74855,1,2,0:0:0:0:
160,208,75090,6,0,L|168:352,1,112.5,4|0,0:3|0:0,0:0:0:0:
80,148,75558,2,0,L|86:260,1,112.5,8|0,0:0|0:0,0:0:0:0:
0,88,76027,2,0,L|8:232,1,112.5,4|0,0:3|0:0,0:0:0:0:
176,136,76496,1,8,0:0:0:0:
0,88,76730,1,2,0:0:0:0:
86,260,76965,6,0,P|94:320|80:384,1,112.5,4|0,0:3|0:0,0:0:0:0:
6,200,77433,1,8,0:0:0:0:
192,252,77668,2,0,P|248:260|303:251,1,112.5,0|4,0:0|0:3,0:0:0:0:
456,160,78136,1,8,0:0:0:0:
476,340,78371,2,0,L|363:332,1,112.5,8|0,0:0|0:0,0:0:0:0:
192,252,78840,6,0,P|188:156|200:48,1,180,4|2,0:3|0:0,0:0:0:0:
116,344,79777,2,0,P|116:232|100:140,1,180,4|2,0:3|0:0,0:0:0:0:
106,165,80715,5,0,1:0:0:0:
356,108,81066,1,0,1:0:0:0:
256,344,81418,1,0,1:0:0:0:
312,212,81652,1,0,1:0:0:0:
24,28,82121,2,0,P|68:72|168:80,1,135,2|0,0:0|0:0,0:0:0:0:
248,60,82590,5,4,0:3:0:0:
397,348,83058,2,0,L|400:304,1,45,2|0,0:0|0:0,0:0:0:0:
320,224,83293,2,0,L|317:179,1,45,2|0,0:0|0:0,0:0:0:0:
100,180,83879,2,0,P|97:224|110:267,1,90,0|0,1:0|0:0,0:0:0:0:
176,360,84230,1,0,1:0:0:0:
220,104,84933,2,0,L|216:28,1,45,2|0,0:0|0:0,0:0:0:0:
288,148,85168,2,0,L|282:237,1,90,2|0,0:0|0:0,0:0:0:0:
282,238,86340,5,4,0:3:0:0:
108,112,86808,2,0,P|78:112|36:116,1,45,2|0,0:0|0:0,0:0:0:0:
168,156,87043,2,0,P|197:155|240:152,1,45,2|0,0:0|0:0,0:0:0:0:
104,336,87629,2,0,P|92:296|104:240,1,90,0|0,1:0|0:0,0:0:0:0:
168,156,87980,1,0,1:0:0:0:
