osu file format v14

[General]
AudioFilename: audio.mp3
AudioLeadIn: 0
PreviewTime: 52184
Countdown: 0
SampleSet: Soft
StackLeniency: 0.7
Mode: 3
LetterboxInBreaks: 0
SpecialStyle: 0
WidescreenStoryboard: 0

[Editor]
DistanceSpacing: 2
BeatDivisor: 4
GridSize: 4
TimelineZoom: 2.3

[Metadata]
Title:Ugoku, Ugoku
TitleUnicode:動く、動く
Artist:Chito (CV: Minase Inori), Yuuri (CV: Kubo Yurika)
ArtistUnicode:チト(CV:水瀬いのり)、ユーリ(CV:久保ユリカ)
Creator:[ Archvii ]
Version:Normal
Source:少女終末旅行
Tags:shoujo shuumatsu ryokou girls' last tour the end girl trip opening anime fall 2017 FAMoss
BeatmapID:1657636
BeatmapSetID:789883

[Difficulty]
HPDrainRate:7.5
CircleSize:4
OverallDifficulty:7.5
ApproachRate:5
SliderMultiplier:1.4
SliderTickRate:1

[Events]
//Background and Video events
0,0,"bg2.jpg",0,0
//Break Periods
//Storyboard Layer 0 (Background)
//Storyboard Layer 1 (Fail)
//Storyboard Layer 2 (Pass)
//Storyboard Layer 3 (Foreground)
//Storyboard Sound Samples
Sample,17145,0,"A5S_s+D6S_s.wav",70
Sample,18083,0,"A5S_s.wav",70
Sample,20895,0,"D6S_s+F#6S_Gb6S_s.wav",70
Sample,38708,0,"hihat.wav",30
Sample,38942,0,"soft-hitwhistle.wav",0
Sample,40583,0,"hihat.wav",30
Sample,44333,0,"hihat.wav",30
Sample,45622,0,"hihat.wav",30
Sample,45739,0,"hihat.wav",30
Sample,45856,0,"hihat.wav",30
Sample,46090,0,"hihat.wav",30
Sample,46208,0,"hihat.wav",30
Sample,46325,0,"hihat.wav",30
Sample,46559,0,"hihat.wav",30
Sample,46676,0,"hihat.wav",30
Sample,46794,0,"hihat.wav",30
Sample,47028,0,"hihat.wav",30
Sample,47145,0,"hihat.wav",30
Sample,47262,0,"hihat.wav",30
Sample,47497,0,"hihat.wav",30
Sample,47614,0,"hihat.wav",30
Sample,47731,0,"hihat.wav",30
Sample,47965,0,"hihat.wav",30
Sample,48083,0,"hihat.wav",30
Sample,48200,0,"hihat.wav",30
Sample,48434,0,"hihat.wav",30
Sample,48551,0,"hihat.wav",30
Sample,48669,0,"hihat.wav",30
Sample,48903,0,"hihat.wav",30
Sample,49020,0,"hihat.wav",30
Sample,49137,0,"hihat.wav",30
Sample,49372,0,"hihat.wav",30
Sample,49606,0,"hihat.wav",30
Sample,49840,0,"hihat.wav",30
Sample,50075,0,"hihat.wav",30
Sample,50309,0,"hihat.wav",30
Sample,50544,0,"hihat.wav",30
Sample,50778,0,"hihat.wav",30
Sample,51012,0,"hihat.wav",30
Sample,51657,0,"soft-hitwhistle.wav",0
Sample,51774,0,"soft-hitwhistle.wav",0
Sample,51891,0,"soft-hitwhistle.wav",0
Sample,51950,0,"soft-hitwhistle.wav",0
Sample,53239,0,"hihat.wav",30
Sample,53708,0,"hihat.wav",30
Sample,54176,0,"hihat.wav",30
Sample,55817,0,"soft-hitwhistle.wav",0
Sample,56520,0,"hihat.wav",30
Sample,60739,0,"hihat.wav",30
Sample,61208,0,"hihat.wav",30
Sample,61676,0,"hihat.wav",30
Sample,63317,0,"soft-hitwhistle.wav",0
Sample,64020,0,"hihat.wav",30
Sample,68239,0,"hihat.wav",30
Sample,68708,0,"hihat.wav",30
Sample,69176,0,"hihat.wav",30
Sample,71520,0,"hihat.wav",30
Sample,75739,0,"hihat.wav",30
Sample,76208,0,"hihat.wav",30
Sample,76676,0,"hihat.wav",30
Sample,79020,0,"hihat.wav",30

[TimingPoints]
505,468.75,4,2,1,40,1,0
53005,-100,4,2,1,40,0,1
79255,-100,4,2,1,40,0,0

[HitObjects]
64,192,505,5,0,0:0:0:70:A5S_s+D6S_s.wav
448,192,505,1,0,0:0:0:0:
64,192,973,1,0,0:0:0:70:A6S_s.wav
192,192,1090,1,0,0:0:0:70:A5S_s.wav
448,192,1325,1,0,0:0:0:70:D6S_s.wav
320,192,1794,128,0,2145:0:0:0:70:A5S_s+C#6S_Db6S_s.wav
192,192,2145,128,0,2380:0:0:0:70:A5S_s+D6S_s.wav
448,192,2145,1,0,0:0:0:0:
64,192,2848,1,0,0:0:0:70:C#6S_Db6S_s.wav
320,192,2965,1,0,0:0:0:70:D6S_s.wav
192,192,3083,128,0,3317:0:0:0:70:A5S_s.wav
64,192,4255,1,0,0:0:0:70:A5S_s+D6S_s.wav
448,192,4255,1,0,0:0:0:0:
448,192,4723,1,0,0:0:0:70:A6S_s.wav
320,192,4840,1,0,0:0:0:70:A5S_s.wav
64,192,5075,1,0,0:0:0:70:D6S_s.wav
192,192,5544,128,0,5895:0:0:0:70:C#6S_Db6S_s+E6S_s.wav
64,192,5895,1,0,0:0:0:70:D6S_s+F#6S_Gb6S_s.wav
320,192,5895,128,0,6130:0:0:0:0:
448,192,6598,1,0,0:0:0:70:E6S_s.wav
320,192,6715,1,0,0:0:0:70:F#6S_Gb6S_s.wav
192,192,6833,128,0,7067:0:0:0:70:D6S_s.wav
448,192,7067,1,0,0:0:0:0:
64,192,7184,1,0,0:0:0:0:
320,192,7301,1,0,0:0:0:0:
192,192,7419,1,0,0:0:0:0:
320,192,7536,1,0,0:0:0:0:
448,192,7536,128,0,8005:0:0:0:0:
64,192,8005,1,0,0:0:0:70:A5S_s+D6S_s.wav
320,192,8005,1,0,0:0:0:0:
448,192,8473,1,0,0:0:0:70:A6S_s.wav
320,192,8590,1,0,0:0:0:70:A5S_s.wav
64,192,8825,1,0,0:0:0:70:D6S_s.wav
448,192,9294,128,0,9645:0:0:0:70:A5S_s+C#6S_Db6S_s.wav
192,192,9645,1,0,0:0:0:70:A5S_s+D6S_s.wav
320,192,9645,128,0,9880:0:0:0:0:
448,192,10348,1,0,0:0:0:70:C#6S_Db6S_s.wav
192,192,10465,1,0,0:0:0:70:D6S_s.wav
320,192,10583,128,0,10817:0:0:0:70:A5S_s.wav
64,192,10817,1,0,0:0:0:0:
320,192,11051,1,0,0:0:0:0:
64,192,11286,1,0,0:0:0:0:
192,192,11520,1,0,0:0:0:0:
320,192,11755,1,0,0:0:0:70:A5S_s+D6S_s.wav
448,192,11755,128,0,11989:0:0:0:0:
64,192,12223,1,0,0:0:0:70:A6S_s.wav
192,192,12340,1,0,0:0:0:70:A5S_s.wav
448,192,12575,1,0,0:0:0:70:D6S_s.wav
64,192,13044,128,0,13395:0:0:0:70:C#6S_Db6S_s+E6S_s.wav
192,192,13395,128,0,13630:0:0:0:70:D6S_s+F#6S_Gb6S_s.wav
320,192,13395,1,0,0:0:0:0:
64,192,14098,1,0,0:0:0:70:E6S_s.wav
192,192,14215,1,0,0:0:0:70:F#6S_Gb6S_s.wav
448,192,14333,128,0,14567:0:0:0:70:D6S_s.wav
192,192,14567,128,0,14801:0:0:0:0:
64,192,14801,128,0,15036:0:0:0:0:
192,192,15036,1,0,0:0:0:0:
320,192,15153,1,0,0:0:0:0:
448,192,15270,1,0,0:0:0:0:
64,192,15505,1,2,0:0:0:0:
320,192,15505,1,0,0:0:0:70:A5S_s+D6S_s.wav
192,192,15739,1,0,0:0:0:30:hihat.wav
64,192,15973,1,0,0:0:0:70:A6S_s.wav
192,192,16090,1,0,0:0:0:70:A5S_s.wav
448,192,16208,1,0,0:0:0:30:hihat.wav
320,192,16325,1,0,0:0:0:70:D6S_s.wav
192,192,16676,1,0,0:0:0:30:hihat.wav
64,192,16794,1,2,0:0:0:0:
448,192,16794,128,0,17145:0:0:0:70:A5S_s+C#6S_Db6S_s.wav
192,192,17145,1,2,0:0:0:0:
320,192,17145,128,0,17380:0:0:0:30:hihat.wav
64,192,17614,1,0,0:0:0:30:hihat.wav
192,192,17848,1,0,0:0:0:70:C#6S_Db6S_s.wav
320,192,17965,1,0,0:0:0:70:D6S_s.wav
448,192,18083,128,0,18317:0:0:0:30:hihat.wav
192,192,18317,128,0,18551:0:0:0:0:
64,192,18551,128,0,18786:0:0:0:30:hihat.wav
448,192,18786,128,0,19020:0:0:0:0:
320,192,19020,128,0,19255:0:0:0:30:hihat.wav
64,192,19255,1,2,0:0:0:0:
448,192,19255,1,0,0:0:0:70:A5S_s+D6S_s.wav
192,192,19489,1,0,0:0:0:30:hihat.wav
448,192,19723,1,0,0:0:0:70:A6S_s.wav
320,192,19840,1,0,0:0:0:70:A5S_s.wav
64,192,19958,1,0,0:0:0:30:hihat.wav
192,192,20075,1,0,0:0:0:70:D6S_s.wav
320,192,20426,1,0,0:0:0:30:hihat.wav
64,192,20544,128,2,20895:0:0:0:0:
448,192,20544,1,0,0:0:0:70:C#6S_Db6S_s+E6S_s.wav
192,192,20895,128,2,21130:0:0:0:0:
320,192,20895,1,0,0:0:0:30:hihat.wav
64,192,21598,128,0,21715:0:0:0:0:
448,192,22067,128,0,22301:0:0:0:0:
320,192,22301,128,0,22536:0:0:0:0:
64,192,22536,128,0,23005:0:0:0:0:
320,192,23005,1,2,0:0:0:0:
448,192,23005,1,0,0:0:0:0:
192,192,23239,1,0,0:0:0:30:hihat.wav
320,192,23356,1,0,0:0:0:0:
64,192,23473,1,8,0:0:0:0:
448,192,23473,1,2,0:0:0:0:
192,192,23590,128,0,23708:0:0:0:0:
320,192,23708,128,0,23942:0:0:0:30:hihat.wav
64,192,23942,128,2,24176:0:0:0:0:
448,192,23942,1,0,0:0:0:0:
192,192,24176,1,0,0:0:0:30:hihat.wav
448,192,24294,128,0,24645:0:0:0:0:
64,192,24411,1,8,0:0:0:0:
320,192,24411,1,2,0:0:0:0:
192,192,24645,1,8,0:0:0:0:
320,192,24645,128,0,24880:0:0:0:30:hihat.wav
64,192,24880,1,2,0:0:0:0:
192,192,25114,1,0,0:0:0:30:hihat.wav
320,192,25231,1,0,0:0:0:0:
64,192,25348,1,8,0:0:0:0:
448,192,25348,128,2,25583:0:0:0:0:
192,192,25583,128,0,25817:0:0:0:30:hihat.wav
64,192,25817,128,2,26051:0:0:0:0:
448,192,25817,1,0,0:0:0:0:
320,192,26051,1,0,0:0:0:30:hihat.wav
448,192,26169,128,0,26520:0:0:0:0:
64,192,26286,1,2,0:0:0:0:
320,192,26286,1,8,0:0:0:0:
192,192,26520,1,0,0:0:0:30:hihat.wav
64,192,26755,1,2,0:0:0:0:
448,192,26755,1,0,0:0:0:0:
320,192,26989,1,0,0:0:0:30:hihat.wav
192,192,27106,1,0,0:0:0:0:
64,192,27223,128,8,27458:0:0:0:0:
448,192,27223,1,2,0:0:0:0:
448,192,27458,1,0,0:0:0:30:hihat.wav
320,192,27575,1,0,0:0:0:0:
64,192,27692,1,2,0:0:0:0:
192,192,27692,128,0,27926:0:0:0:0:
448,192,27926,1,0,0:0:0:30:hihat.wav
320,192,28044,128,0,28395:0:0:0:0:
64,192,28161,1,8,0:0:0:0:
192,192,28161,1,2,0:0:0:0:
192,192,28395,1,8,0:0:0:0:
448,192,28395,128,0,28630:0:0:0:30:hihat.wav
64,192,28630,1,2,0:0:0:0:
320,192,28630,1,0,0:0:0:0:
320,192,28864,1,0,0:0:0:30:hihat.wav
64,192,29098,1,8,0:0:0:0:
448,192,29098,1,2,0:0:0:0:
320,192,29333,1,0,0:0:0:30:hihat.wav
192,192,29567,1,2,0:0:0:0:
448,192,29567,1,0,0:0:0:0:
192,192,29801,1,0,0:0:0:30:hihat.wav
64,192,30036,1,2,0:0:0:0:
320,192,30036,1,0,0:0:0:0:
192,192,30270,1,2,0:0:0:0:
448,192,30270,1,0,0:0:0:0:
64,192,30505,1,2,0:0:0:0:
448,192,30505,1,0,0:0:0:0:
320,192,30739,1,0,0:0:0:30:hihat.wav
192,192,30856,1,0,0:0:0:0:
64,192,30973,128,2,31208:0:0:0:0:
448,192,30973,1,8,0:0:0:0:
320,192,31208,128,0,31442:0:0:0:30:hihat.wav
64,192,31442,1,2,0:0:0:0:
192,192,31442,128,0,31676:0:0:0:0:
448,192,31676,1,0,0:0:0:30:hihat.wav
320,192,31794,128,0,32145:0:0:0:0:
64,192,31911,1,8,0:0:0:0:
192,192,31911,1,2,0:0:0:0:
192,192,32145,1,8,0:0:0:0:
448,192,32145,128,0,32380:0:0:0:30:hihat.wav
64,192,32380,1,2,0:0:0:0:
192,192,32614,1,0,0:0:0:30:hihat.wav
320,192,32731,1,0,0:0:0:0:
64,192,32848,128,2,33083:0:0:0:0:
448,192,32848,1,8,0:0:0:0:
320,192,33083,1,0,0:0:0:30:hihat.wav
192,192,33317,128,2,33551:0:0:0:0:
448,192,33317,1,0,0:0:0:0:
64,192,33551,1,0,0:0:0:30:hihat.wav
448,192,33669,128,0,34020:0:0:0:0:
64,192,33786,1,2,0:0:0:0:
320,192,33786,1,8,0:0:0:0:
192,192,34020,1,0,0:0:0:30:hihat.wav
64,192,34255,1,2,0:0:0:0:
448,192,34255,1,0,0:0:0:0:
448,192,34489,1,0,0:0:0:30:hihat.wav
320,192,34606,1,0,0:0:0:0:
64,192,34723,1,2,0:0:0:0:
448,192,34723,1,8,0:0:0:0:
192,192,34840,1,0,0:0:0:0:
320,192,34958,128,0,35192:0:0:0:30:hihat.wav
448,192,35192,1,2,0:0:0:0:
64,192,35426,1,0,0:0:0:30:hihat.wav
192,192,35544,128,0,35895:0:0:0:0:
320,192,35661,1,8,0:0:0:0:
448,192,35661,1,2,0:0:0:0:
64,192,35895,128,8,36130:0:0:0:0:
320,192,35895,1,0,0:0:0:30:hihat.wav
192,192,36130,1,2,0:0:0:0:
448,192,36130,1,0,0:0:0:0:
192,192,36364,1,0,0:0:0:30:hihat.wav
64,192,36598,1,2,0:0:0:0:
448,192,36598,1,0,0:0:0:0:
192,192,36833,1,0,0:0:0:30:hihat.wav
64,192,37067,1,2,0:0:0:0:
320,192,37067,1,0,0:0:0:0:
320,192,37301,1,0,0:0:0:30:hihat.wav
448,192,37536,1,0,0:0:0:0:
320,192,37770,1,4,0:0:0:0:
448,192,38005,128,0,39176:0:0:0:0:
192,192,38239,1,0,0:0:0:30:hihat.wav
320,192,38708,1,2,0:0:0:0:
64,192,39176,1,0,0:0:0:30:hihat.wav
192,192,39176,128,0,39645:0:0:0:0:
64,192,39645,128,0,39880:0:0:0:30:hihat.wav
448,192,39645,1,0,0:0:0:0:
320,192,39880,128,2,40817:0:0:0:0:
192,192,40114,1,0,0:0:0:30:hihat.wav
64,192,40583,1,2,0:0:0:0:
192,192,40817,128,2,41051:0:0:0:0:
448,192,41051,128,0,41286:0:0:0:30:hihat.wav
320,192,41286,128,0,41520:0:0:0:0:
64,192,41520,128,0,41755:0:0:0:30:hihat.wav
192,192,41755,128,2,41989:0:0:0:0:
320,192,41989,128,0,42458:0:0:0:30:hihat.wav
64,192,42458,1,2,0:0:0:0:
192,192,42458,128,0,42926:0:0:0:30:hihat.wav
448,192,42692,1,2,0:0:0:0:
64,192,42926,128,0,43161:0:0:0:30:hihat.wav
320,192,43161,128,0,43630:0:0:0:0:
448,192,43395,1,0,0:0:0:30:hihat.wav
192,192,43630,128,2,44567:0:0:0:0:
64,192,43864,1,0,0:0:0:30:hihat.wav
320,192,44333,1,2,0:0:0:0:
448,192,44567,128,2,45036:0:0:0:0:
320,192,44801,1,0,0:0:0:30:hihat.wav
64,192,44919,1,0,0:0:0:30:hihat.wav
192,192,45036,1,8,0:0:0:0:
320,192,45036,1,0,0:0:0:30:hihat.wav
192,192,45270,1,0,0:0:0:0:
64,192,45505,1,2,0:0:0:0:
320,192,45505,1,8,0:0:0:0:
64,192,45973,1,2,0:0:0:0:
320,192,45973,1,8,0:0:0:0:
64,192,46442,1,2,0:0:0:0:
320,192,46442,1,8,0:0:0:0:
64,192,46911,1,2,0:0:0:0:
320,192,46911,1,8,0:0:0:0:
192,192,47380,1,8,0:0:0:0:
448,192,47380,1,2,0:0:0:0:
192,192,47848,1,8,0:0:0:0:
448,192,47848,1,2,0:0:0:0:
192,192,48317,1,8,0:0:0:0:
448,192,48317,1,2,0:0:0:0:
192,192,48786,1,2,0:0:0:0:
448,192,48786,1,8,0:0:0:0:
64,192,49255,1,2,0:0:0:0:
192,192,49255,1,8,0:0:0:0:
320,192,49489,1,8,0:0:0:0:
448,192,49489,1,2,0:0:0:0:
64,192,49723,1,2,0:0:0:0:
192,192,49723,1,8,0:0:0:0:
320,192,49958,1,8,0:0:0:0:
448,192,49958,1,2,0:0:0:0:
64,192,50192,1,2,0:0:0:0:
192,192,50192,1,8,0:0:0:0:
320,192,50426,1,8,0:0:0:0:
448,192,50426,1,2,0:0:0:0:
64,192,50661,1,2,0:0:0:0:
192,192,50661,1,8,0:0:0:0:
320,192,50895,1,8,0:0:0:0:
448,192,50895,1,2,0:0:0:0:
64,192,51130,1,10,0:0:0:0:
192,192,51247,1,2,0:0:0:0:
448,192,51364,1,2,0:0:0:0:
320,192,51481,1,2,0:0:0:0:
64,192,51598,128,2,52008:0:0:0:0:
192,192,51715,128,2,52008:0:0:0:0:
320,192,51833,128,2,52008:0:0:0:0:
448,192,52008,1,2,0:0:0:0:
64,192,53005,1,2,0:0:0:0:
192,192,53005,1,4,0:0:0:0:
64,192,53473,1,8,0:0:0:0:
192,192,53473,1,2,0:0:0:0:
448,192,53473,1,0,0:0:0:0:
64,192,53942,1,2,0:0:0:0:
192,192,53942,1,0,0:0:0:0:
64,192,54411,128,2,54645:0:0:0:0:
448,192,54411,1,8,0:0:0:0:
192,192,54645,128,0,54880:0:0:0:30:hihat.wav
448,192,54880,128,2,55114:0:0:0:0:
64,192,55114,128,0,55348:0:0:0:30:hihat.wav
192,192,55348,128,2,55583:0:0:0:0:
448,192,55348,1,8,0:0:0:0:
320,192,55583,128,0,55817:0:0:0:30:hihat.wav
192,192,56051,1,0,0:0:0:30:hihat.wav
448,192,56051,1,0,0:0:0:0:
64,192,56286,128,8,56755:0:0:0:0:
320,192,56286,1,2,0:0:0:0:
448,192,56286,1,0,0:0:0:0:
192,192,56755,1,2,0:0:0:0:
448,192,56755,128,0,56989:0:0:0:0:
320,192,56989,128,0,57458:0:0:0:30:hihat.wav
64,192,57223,1,8,0:0:0:0:
192,192,57223,1,2,0:0:0:0:
448,192,57458,1,0,0:0:0:30:hihat.wav
64,192,57692,128,2,57926:0:0:0:0:
320,192,57926,128,0,58395:0:0:0:30:hihat.wav
64,192,58161,1,2,0:0:0:0:
192,192,58161,1,8,0:0:0:0:
448,192,58395,128,0,58630:0:0:0:30:hihat.wav
64,192,58630,1,2,0:0:0:0:
192,192,58630,1,0,0:0:0:0:
320,192,58864,1,0,0:0:0:30:hihat.wav
64,192,59098,1,2,0:0:0:0:
448,192,59098,1,8,0:0:0:0:
192,192,59333,1,0,0:0:0:30:hihat.wav
320,192,59567,1,2,0:0:0:0:
64,192,59801,1,8,0:0:0:0:
448,192,59801,1,0,0:0:0:30:hihat.wav
64,192,60036,1,8,0:0:0:0:
448,192,60036,1,2,0:0:0:0:
192,192,60270,128,0,60505:0:0:0:30:hihat.wav
320,192,60505,1,2,0:0:0:0:
448,192,60505,1,4,0:0:0:0:
64,192,60973,1,2,0:0:0:0:
320,192,60973,1,8,0:0:0:0:
448,192,60973,1,0,0:0:0:0:
320,192,61442,1,2,0:0:0:0:
448,192,61442,1,0,0:0:0:0:
64,192,61911,1,8,0:0:0:0:
448,192,61911,128,2,62145:0:0:0:0:
320,192,62145,128,0,62380:0:0:0:30:hihat.wav
64,192,62380,128,2,62614:0:0:0:0:
448,192,62614,128,0,62848:0:0:0:30:hihat.wav
64,192,62848,1,8,0:0:0:0:
320,192,62848,128,2,63083:0:0:0:0:
192,192,63083,128,0,63317:0:0:0:30:hihat.wav
64,192,63551,1,8,0:0:0:0:
448,192,63551,1,0,0:0:0:30:hihat.wav
64,192,63786,1,2,0:0:0:0:
192,192,63786,1,8,0:0:0:0:
448,192,63786,128,0,64255:0:0:0:0:
64,192,64255,128,2,64489:0:0:0:0:
320,192,64255,1,0,0:0:0:0:
192,192,64489,128,0,64958:0:0:0:30:hihat.wav
320,192,64723,1,2,0:0:0:0:
448,192,64723,1,8,0:0:0:0:
320,192,64958,1,0,0:0:0:30:hihat.wav
64,192,65192,128,2,65426:0:0:0:0:
192,192,65426,128,0,65895:0:0:0:30:hihat.wav
320,192,65661,1,8,0:0:0:0:
448,192,65661,1,2,0:0:0:0:
448,192,65895,128,0,66130:0:0:0:30:hihat.wav
64,192,66130,1,2,0:0:0:0:
320,192,66130,1,8,0:0:0:0:
192,192,66481,1,8,0:0:0:0:
320,192,66481,1,2,0:0:0:0:
64,192,66833,1,2,0:0:0:0:
320,192,66833,1,8,0:0:0:0:
192,192,67067,1,2,0:0:0:0:
320,192,67067,1,8,0:0:0:0:
64,192,67301,128,0,67536:0:0:0:0:
320,192,67536,128,2,67770:0:0:0:0:
448,192,67770,128,0,68005:0:0:0:30:hihat.wav
64,192,68005,1,2,0:0:0:0:
192,192,68005,1,4,0:0:0:0:
64,192,68473,1,8,0:0:0:0:
192,192,68473,1,2,0:0:0:0:
320,192,68473,1,0,0:0:0:0:
64,192,68942,1,2,0:0:0:0:
192,192,68942,1,0,0:0:0:0:
64,192,69411,128,2,69645:0:0:0:0:
448,192,69411,1,8,0:0:0:0:
192,192,69645,128,0,69880:0:0:0:30:hihat.wav
320,192,69880,128,2,70114:0:0:0:0:
64,192,70114,128,0,70348:0:0:0:30:hihat.wav
192,192,70348,1,2,0:0:0:0:
448,192,70348,128,8,70583:0:0:0:0:
320,192,70583,128,0,70817:0:0:0:30:hihat.wav
192,192,70817,1,2,0:0:0:0:
64,192,71051,1,8,0:0:0:0:
448,192,71051,1,0,0:0:0:30:hihat.wav
64,192,71286,128,8,71755:0:0:0:0:
320,192,71286,1,2,0:0:0:0:
448,192,71286,1,0,0:0:0:0:
320,192,71755,1,2,0:0:0:0:
448,192,71755,128,0,71989:0:0:0:0:
192,192,71989,128,0,72458:0:0:0:30:hihat.wav
320,192,72223,1,8,0:0:0:0:
448,192,72223,1,2,0:0:0:0:
64,192,72458,1,0,0:0:0:30:hihat.wav
448,192,72692,128,2,72926:0:0:0:0:
320,192,72926,128,0,73395:0:0:0:30:hihat.wav
64,192,73161,1,2,0:0:0:0:
192,192,73161,1,8,0:0:0:0:
192,192,73395,1,0,0:0:0:30:hihat.wav
64,192,73630,128,2,73864:0:0:0:0:
448,192,73864,128,0,74098:0:0:0:30:hihat.wav
64,192,74098,1,2,0:0:0:0:
192,192,74098,128,8,74333:0:0:0:0:
320,192,74333,128,0,74567:0:0:0:30:hihat.wav
448,192,74567,1,2,0:0:0:0:
64,192,74801,1,8,0:0:0:0:
192,192,74801,1,0,0:0:0:30:hihat.wav
64,192,75036,1,8,0:0:0:0:
192,192,75036,1,2,0:0:0:0:
320,192,75270,128,0,75505:0:0:0:30:hihat.wav
64,192,75505,1,2,0:0:0:0:
448,192,75505,1,4,0:0:0:0:
64,192,75973,1,2,0:0:0:0:
320,192,75973,1,8,0:0:0:0:
448,192,75973,1,0,0:0:0:0:
64,192,76442,1,2,0:0:0:0:
448,192,76442,1,0,0:0:0:0:
64,192,76911,128,8,77145:0:0:0:0:
448,192,76911,1,2,0:0:0:0:
192,192,77145,128,0,77380:0:0:0:30:hihat.wav
448,192,77380,128,2,77614:0:0:0:0:
64,192,77614,128,0,77848:0:0:0:30:hihat.wav
192,192,77848,1,8,0:0:0:0:
448,192,77848,128,2,78083:0:0:0:0:
320,192,78083,128,0,78317:0:0:0:30:hihat.wav
192,192,78317,1,2,0:0:0:0:
64,192,78551,1,8,0:0:0:0:
448,192,78551,1,0,0:0:0:30:hihat.wav
64,192,78786,128,2,79255:0:0:0:0:
320,192,78786,1,8,0:0:0:0:
448,192,78786,1,0,0:0:0:0:
448,192,79255,128,2,79723:0:0:0:0:
192,192,79489,1,0,0:0:0:30:hihat.wav
64,192,79723,128,0,80192:0:0:0:30:hihat.wav
320,192,79958,1,0,0:0:0:30:hihat.wav
448,192,80192,128,2,80661:0:0:0:0:
64,192,80426,1,0,0:0:0:30:hihat.wav
192,192,80661,128,0,81130:0:0:0:30:hihat.wav
320,192,80895,1,0,0:0:0:30:hihat.wav
64,192,81130,1,2,0:0:0:0:
448,192,81130,1,8,0:0:0:0:
64,192,81481,1,8,0:0:0:0:
448,192,81481,1,2,0:0:0:0:
64,192,81833,1,2,0:0:0:0:
448,192,81833,1,8,0:0:0:0:
192,192,82067,1,2,0:0:0:0:
320,192,82067,1,8,0:0:0:0:
448,192,82536,128,0,83005:0:0:0:0:
64,192,83005,1,2,0:0:0:0:
320,192,83005,128,0,83239:0:0:0:70:A5S_s+D6S_s.wav
64,192,83473,1,0,0:0:0:70:A6S_s.wav
192,192,83590,1,0,0:0:0:70:A5S_s.wav
448,192,83825,1,0,0:0:0:70:D6S_s.wav
64,192,84294,128,2,84645:0:0:0:0:
448,192,84294,1,0,0:0:0:70:A5S_s+C#6S_Db6S_s.wav
192,192,84645,128,2,84880:0:0:0:0:
320,192,84645,1,0,0:0:0:70:A5S_s+D6S_s.wav
64,192,85348,1,0,0:0:0:70:C#6S_Db6S_s.wav
320,192,85465,1,0,0:0:0:70:D6S_s.wav
192,192,85583,128,0,85817:0:0:0:70:A5S_s.wav
64,192,86755,1,2,0:0:0:0:
448,192,86755,1,0,0:0:0:70:A5S_s+D6S_s.wav
448,192,87223,1,0,0:0:0:70:A6S_s.wav
320,192,87340,1,0,0:0:0:70:A5S_s.wav
64,192,87575,1,0,0:0:0:70:D6S_s.wav
192,192,88044,128,2,88395:0:0:0:0:
448,192,88044,1,0,0:0:0:70:C#6S_Db6S_s+E6S_s.wav
64,192,88395,1,2,0:0:0:0:
320,192,88395,128,0,88630:0:0:0:70:D6S_s+F#6S_Gb6S_s.wav
