osu file format v14

[General]
AudioFilename: audio.mp3
AudioLeadIn: 0
PreviewTime: 52184
Countdown: 0
SampleSet: Soft
StackLeniency: 0.7
Mode: 3
LetterboxInBreaks: 0
SpecialStyle: 0
WidescreenStoryboard: 1

[Editor]
DistanceSpacing: 2
BeatDivisor: 4
GridSize: 4
TimelineZoom: 2.3

[Metadata]
Title:Ugoku, Ugoku
TitleUnicode:動く、動く
Artist:Chito (CV: Minase Inori), Yuuri (CV: Kubo Yurika)
ArtistUnicode:チト(CV:水瀬いのり)、ユーリ(CV:久保ユリカ)
Creator:[ Archvii ]
Version:Easy
Source:少女終末旅行
Tags:shoujo shuumatsu ryokou girls' last tour the end girl trip opening anime fall 2017 FAMoss
BeatmapID:1657635
BeatmapSetID:789883

[Difficulty]
HPDrainRate:7
CircleSize:4
OverallDifficulty:7
ApproachRate:5
SliderMultiplier:1.4
SliderTickRate:1

[Events]
//Background and Video events
0,0,"bg.jpg",0,0
//Break Periods
//Storyboard Layer 0 (Background)
//Storyboard Layer 1 (Fail)
//Storyboard Layer 2 (Pass)
//Storyboard Layer 3 (Foreground)
//Storyboard Layer 4 (Overlay)
//Storyboard Sound Samples
Sample,973,0,"A6S_s.wav",70
Sample,1090,0,"A5S_s.wav",70
Sample,1325,0,"D6S_s.wav",70
Sample,2848,0,"C#6S_Db6S_s.wav",70
Sample,2965,0,"D6S_s.wav",70
Sample,3083,0,"A5S_s.wav",70
Sample,4723,0,"A6S_s.wav",70
Sample,4840,0,"A5S_s.wav",70
Sample,5075,0,"D6S_s.wav",70
Sample,6598,0,"E6S_s.wav",70
Sample,6715,0,"F#6S_Gb6S_s.wav",70
Sample,6833,0,"D6S_s.wav",70
Sample,8473,0,"A6S_s.wav",70
Sample,8590,0,"A5S_s.wav",70
Sample,8825,0,"D6S_s.wav",70
Sample,10348,0,"C#6S_Db6S_s.wav",70
Sample,10465,0,"D6S_s.wav",70
Sample,10583,0,"A5S_s.wav",70
Sample,12223,0,"A6S_s.wav",70
Sample,12340,0,"A5S_s.wav",70
Sample,12575,0,"D6S_s.wav",70
Sample,14098,0,"E6S_s.wav",70
Sample,14215,0,"F#6S_Gb6S_s.wav",70
Sample,14333,0,"D6S_s.wav",70
Sample,15739,0,"hihat.wav",30
Sample,15973,0,"A6S_s.wav",70
Sample,16090,0,"A5S_s.wav",70
Sample,16208,0,"hihat.wav",30
Sample,16325,0,"D6S_s.wav",70
Sample,16676,0,"hihat.wav",30
Sample,16794,0,"A5S_s+C#6S_Db6S_s.wav",70
Sample,17145,0,"hihat.wav",30
Sample,17145,0,"A5S_s+D6S_s.wav",70
Sample,17614,0,"hihat.wav",30
Sample,17848,0,"C#6S_Db6S_s.wav",70
Sample,17965,0,"D6S_s.wav",70
Sample,18083,0,"hihat.wav",30
Sample,18083,0,"A5S_s.wav",70
Sample,19489,0,"hihat.wav",30
Sample,19723,0,"A6S_s.wav",70
Sample,19840,0,"A5S_s.wav",70
Sample,19958,0,"hihat.wav",30
Sample,20075,0,"D6S_s.wav",70
Sample,20426,0,"hihat.wav",30
Sample,20544,0,"C#6S_Db6S_s+E6S_s.wav",70
Sample,20895,0,"hihat.wav",30
Sample,20895,0,"D6S_s+F#6S_Gb6S_s.wav",70
Sample,23239,0,"hihat.wav",30
Sample,23708,0,"hihat.wav",30
Sample,24176,0,"hihat.wav",30
Sample,24411,0,"soft-hitclap.wav",0
Sample,24411,0,"soft-hitwhistle.wav",0
Sample,24645,0,"hihat.wav",30
Sample,25114,0,"hihat.wav",30
Sample,25583,0,"hihat.wav",30
Sample,26051,0,"hihat.wav",30
Sample,26520,0,"hihat.wav",30
Sample,26989,0,"hihat.wav",30
Sample,27458,0,"hihat.wav",30
Sample,27926,0,"hihat.wav",30
Sample,28161,0,"soft-hitclap.wav",0
Sample,28161,0,"soft-hitwhistle.wav",0
Sample,28395,0,"hihat.wav",30
Sample,29333,0,"hihat.wav",30
Sample,30739,0,"hihat.wav",30
Sample,31208,0,"hihat.wav",30
Sample,31676,0,"hihat.wav",30
Sample,31911,0,"soft-hitclap.wav",0
Sample,31911,0,"soft-hitwhistle.wav",0
Sample,32145,0,"hihat.wav",30
Sample,32614,0,"hihat.wav",30
Sample,33083,0,"hihat.wav",30
Sample,33551,0,"hihat.wav",30
Sample,34020,0,"hihat.wav",30
Sample,34489,0,"hihat.wav",30
Sample,34958,0,"hihat.wav",30
Sample,35426,0,"hihat.wav",30
Sample,35661,0,"soft-hitclap.wav",0
Sample,35661,0,"soft-hitwhistle.wav",0
Sample,35895,0,"hihat.wav",30
Sample,36833,0,"hihat.wav",30
Sample,38239,0,"hihat.wav",30
Sample,38708,0,"soft-hitwhistle.wav",0
Sample,38708,0,"hihat.wav",30
Sample,38942,0,"soft-hitwhistle.wav",0
Sample,40114,0,"hihat.wav",30
Sample,40583,0,"soft-hitwhistle.wav",0
Sample,40583,0,"hihat.wav",30
Sample,40817,0,"soft-hitwhistle.wav",0
Sample,42692,0,"soft-hitwhistle.wav",0
Sample,43395,0,"hihat.wav",30
Sample,43864,0,"hihat.wav",30
Sample,44333,0,"hihat.wav",30
Sample,44567,0,"soft-hitwhistle.wav",0
Sample,44801,0,"hihat.wav",30
Sample,44919,0,"hihat.wav",30
Sample,45622,0,"hihat.wav",30
Sample,45739,0,"hihat.wav",30
Sample,45856,0,"hihat.wav",30
Sample,46090,0,"hihat.wav",30
Sample,46208,0,"hihat.wav",30
Sample,46325,0,"hihat.wav",30
Sample,46559,0,"hihat.wav",30
Sample,46676,0,"hihat.wav",30
Sample,46794,0,"hihat.wav",30
Sample,47028,0,"hihat.wav",30
Sample,47145,0,"hihat.wav",30
Sample,47262,0,"hihat.wav",30
Sample,47497,0,"hihat.wav",30
Sample,47614,0,"hihat.wav",30
Sample,47731,0,"hihat.wav",30
Sample,47965,0,"hihat.wav",30
Sample,48083,0,"hihat.wav",30
Sample,48200,0,"hihat.wav",30
Sample,48434,0,"hihat.wav",30
Sample,48551,0,"hihat.wav",30
Sample,48669,0,"hihat.wav",30
Sample,48903,0,"hihat.wav",30
Sample,49020,0,"hihat.wav",30
Sample,49137,0,"hihat.wav",30
Sample,49372,0,"hihat.wav",30
Sample,49606,0,"hihat.wav",30
Sample,49840,0,"hihat.wav",30
Sample,50075,0,"hihat.wav",30
Sample,50309,0,"hihat.wav",30
Sample,50544,0,"hihat.wav",30
Sample,50778,0,"hihat.wav",30
Sample,51012,0,"hihat.wav",30
Sample,51247,0,"soft-hitwhistle.wav",0
Sample,51364,0,"soft-hitwhistle.wav",0
Sample,51481,0,"soft-hitwhistle.wav",0
Sample,51598,0,"soft-hitwhistle.wav",0
Sample,51657,0,"soft-hitwhistle.wav",0
Sample,51715,0,"soft-hitwhistle.wav",0
Sample,51774,0,"soft-hitwhistle.wav",0
Sample,51833,0,"soft-hitwhistle.wav",0
Sample,51891,0,"soft-hitwhistle.wav",0
Sample,51950,0,"soft-hitwhistle.wav",0
Sample,53239,0,"hihat.wav",30
Sample,53708,0,"hihat.wav",30
Sample,54176,0,"hihat.wav",30
Sample,56520,0,"hihat.wav",30
Sample,59801,0,"hihat.wav",30
Sample,60739,0,"hihat.wav",30
Sample,61208,0,"hihat.wav",30
Sample,61676,0,"hihat.wav",30
Sample,63551,0,"hihat.wav",30
Sample,64020,0,"hihat.wav",30
Sample,68239,0,"hihat.wav",30
Sample,68708,0,"hihat.wav",30
Sample,69176,0,"hihat.wav",30
Sample,71051,0,"hihat.wav",30
Sample,71520,0,"hihat.wav",30
Sample,74801,0,"hihat.wav",30
Sample,75739,0,"hihat.wav",30
Sample,76208,0,"hihat.wav",30
Sample,76676,0,"hihat.wav",30
Sample,78551,0,"hihat.wav",30
Sample,79489,0,"hihat.wav",30
Sample,79958,0,"hihat.wav",30
Sample,80426,0,"hihat.wav",30
Sample,80895,0,"hihat.wav",30
Sample,83005,0,"A5S_s+D6S_s.wav",70
Sample,83473,0,"A6S_s.wav",70
Sample,83590,0,"A5S_s.wav",70
Sample,83825,0,"D6S_s.wav",70
Sample,84294,0,"A5S_s+C#6S_Db6S_s.wav",70
Sample,84645,0,"A5S_s+D6S_s.wav",70
Sample,85348,0,"C#6S_Db6S_s.wav",70
Sample,85465,0,"D6S_s.wav",70
Sample,85583,0,"A5S_s.wav",70
Sample,87223,0,"A6S_s.wav",70
Sample,87340,0,"A5S_s.wav",70
Sample,87575,0,"D6S_s.wav",70
Sample,88044,0,"C#6S_Db6S_s+E6S_s.wav",70
Sample,88395,0,"D6S_s+F#6S_Gb6S_s.wav",70

[TimingPoints]
505,468.75,4,2,1,40,1,0
53005,-100,4,2,1,40,0,1
79255,-100,4,2,1,40,0,0

[HitObjects]
64,192,505,5,0,0:0:0:70:A5S_s+D6S_s.wav
448,192,505,1,0,0:0:0:0:
448,192,1794,128,0,2145:0:0:0:70:A5S_s+C#6S_Db6S_s.wav
192,192,2145,1,0,0:0:0:70:A5S_s+D6S_s.wav
64,192,4255,1,0,0:0:0:70:A5S_s+D6S_s.wav
448,192,4255,1,0,0:0:0:0:
64,192,5544,128,0,5895:0:0:0:70:C#6S_Db6S_s+E6S_s.wav
320,192,5895,1,0,0:0:0:70:D6S_s+F#6S_Gb6S_s.wav
448,192,7067,128,0,7536:0:0:0:0:
192,192,7536,1,0,0:0:0:0:
64,192,8005,1,0,0:0:0:70:A5S_s+D6S_s.wav
448,192,8005,1,0,0:0:0:0:
192,192,9294,128,0,9645:0:0:0:70:A5S_s+C#6S_Db6S_s.wav
448,192,9645,1,0,0:0:0:70:A5S_s+D6S_s.wav
448,192,10817,1,0,0:0:0:0:
320,192,11051,1,0,0:0:0:0:
192,192,11286,1,0,0:0:0:0:
64,192,11520,1,0,0:0:0:0:
320,192,11755,1,0,0:0:0:70:A5S_s+D6S_s.wav
448,192,11755,1,0,0:0:0:0:
448,192,13044,128,0,13395:0:0:0:70:C#6S_Db6S_s+E6S_s.wav
192,192,13395,1,0,0:0:0:70:D6S_s+F#6S_Gb6S_s.wav
448,192,14567,128,0,14801:0:0:0:0:
320,192,14801,128,0,15036:0:0:0:0:
64,192,15036,128,0,15270:0:0:0:0:
192,192,15270,128,0,15505:0:0:0:0:
320,192,15505,1,2,0:0:0:0:
448,192,15505,1,0,0:0:0:70:A5S_s+D6S_s.wav
448,192,16794,128,2,17145:0:0:0:0:
192,192,17145,1,2,0:0:0:0:
64,192,18317,1,0,0:0:0:0:
192,192,18551,1,0,0:0:0:30:hihat.wav
448,192,18786,1,0,0:0:0:0:
320,192,19020,1,0,0:0:0:30:hihat.wav
64,192,19255,1,2,0:0:0:0:
192,192,19255,1,0,0:0:0:70:A5S_s+D6S_s.wav
64,192,20544,128,2,20895:0:0:0:0:
320,192,20895,1,2,0:0:0:0:
192,192,21598,128,0,22067:0:0:0:0:
448,192,22067,1,0,0:0:0:0:
320,192,22301,1,0,0:0:0:0:
64,192,22536,128,0,23005:0:0:0:0:
192,192,23005,1,2,0:0:0:0:
320,192,23005,1,0,0:0:0:0:
192,192,23473,1,8,0:0:0:0:
448,192,23473,1,2,0:0:0:0:
320,192,23942,1,2,0:0:0:0:
64,192,24294,128,0,24645:0:0:0:0:
192,192,24645,1,8,0:0:0:0:
448,192,24880,1,2,0:0:0:0:
64,192,25348,1,8,0:0:0:0:
320,192,25348,1,2,0:0:0:0:
192,192,25817,1,2,0:0:0:0:
320,192,26286,1,2,0:0:0:0:
448,192,26286,1,8,0:0:0:0:
64,192,26755,1,2,0:0:0:0:
320,192,26755,1,0,0:0:0:0:
64,192,27223,1,8,0:0:0:0:
192,192,27223,1,2,0:0:0:0:
320,192,27692,1,2,0:0:0:0:
448,192,28044,128,0,28395:0:0:0:0:
64,192,28395,1,8,0:0:0:0:
192,192,28630,128,2,28864:0:0:0:0:
448,192,28864,128,0,29098:0:0:0:30:hihat.wav
64,192,29098,1,8,0:0:0:0:
320,192,29098,128,2,29333:0:0:0:0:
448,192,29567,128,2,29801:0:0:0:0:
64,192,29801,128,0,30036:0:0:0:30:hihat.wav
320,192,30036,128,2,30270:0:0:0:0:
192,192,30270,1,2,0:0:0:0:
64,192,30505,1,2,0:0:0:0:
320,192,30505,1,0,0:0:0:0:
320,192,30973,1,2,0:0:0:0:
448,192,30973,1,8,0:0:0:0:
192,192,31442,1,2,0:0:0:0:
448,192,31794,128,0,32145:0:0:0:0:
320,192,32145,1,8,0:0:0:0:
64,192,32380,1,2,0:0:0:0:
192,192,32848,1,2,0:0:0:0:
448,192,32848,1,8,0:0:0:0:
320,192,33317,1,2,0:0:0:0:
64,192,33786,1,2,0:0:0:0:
192,192,33786,1,8,0:0:0:0:
192,192,34255,1,2,0:0:0:0:
448,192,34255,1,0,0:0:0:0:
64,192,34723,1,2,0:0:0:0:
320,192,34723,1,8,0:0:0:0:
192,192,35192,1,2,0:0:0:0:
448,192,35544,128,0,35895:0:0:0:0:
320,192,35895,1,8,0:0:0:0:
64,192,36130,128,2,36364:0:0:0:0:
192,192,36364,128,0,36598:0:0:0:30:hihat.wav
448,192,36598,128,2,36833:0:0:0:0:
320,192,37067,128,2,37301:0:0:0:0:
64,192,37301,128,0,37536:0:0:0:30:hihat.wav
448,192,37536,128,0,38005:0:0:0:0:
192,192,37770,1,4,0:0:0:0:
64,192,38005,128,0,39176:0:0:0:0:
192,192,39176,128,0,39645:0:0:0:30:hihat.wav
448,192,39645,128,0,39880:0:0:0:30:hihat.wav
320,192,39880,128,2,40583:0:0:0:0:
64,192,41051,1,0,0:0:0:30:hihat.wav
320,192,41286,1,0,0:0:0:0:
448,192,41520,1,0,0:0:0:30:hihat.wav
192,192,41755,1,2,0:0:0:0:
192,192,41989,128,0,42458:0:0:0:30:hihat.wav
64,192,42458,1,2,0:0:0:0:
448,192,42458,128,0,42926:0:0:0:30:hihat.wav
192,192,42926,128,0,43161:0:0:0:30:hihat.wav
320,192,43161,128,0,43630:0:0:0:0:
64,192,43630,128,2,44333:0:0:0:0:
192,192,44333,1,2,0:0:0:0:
320,192,45036,1,8,0:0:0:0:
448,192,45036,1,0,0:0:0:30:hihat.wav
64,192,45505,1,2,0:0:0:0:
192,192,45505,1,8,0:0:0:0:
64,192,45973,1,2,0:0:0:0:
192,192,45973,1,8,0:0:0:0:
64,192,46442,1,2,0:0:0:0:
192,192,46442,1,8,0:0:0:0:
64,192,46911,1,2,0:0:0:0:
192,192,46911,1,8,0:0:0:0:
320,192,47380,1,8,0:0:0:0:
448,192,47380,1,2,0:0:0:0:
320,192,47848,1,8,0:0:0:0:
448,192,47848,1,2,0:0:0:0:
320,192,48317,1,8,0:0:0:0:
448,192,48317,1,2,0:0:0:0:
320,192,48786,1,2,0:0:0:0:
448,192,48786,1,8,0:0:0:0:
64,192,49255,1,2,0:0:0:0:
192,192,49255,1,8,0:0:0:0:
320,192,49489,1,10,0:0:0:0:
64,192,49723,1,2,0:0:0:0:
192,192,49723,1,8,0:0:0:0:
448,192,49958,1,10,0:0:0:0:
64,192,50192,1,2,0:0:0:0:
192,192,50192,1,8,0:0:0:0:
320,192,50426,1,10,0:0:0:0:
64,192,50661,1,2,0:0:0:0:
192,192,50661,1,8,0:0:0:0:
448,192,50895,1,10,0:0:0:0:
320,192,51130,128,10,52008:0:0:0:0:
192,192,52008,1,2,0:0:0:0:
64,192,53005,128,2,53473:0:0:0:0:
192,192,53005,1,4,0:0:0:0:
320,192,53473,128,10,53942:0:0:0:0:
448,192,53942,128,2,54411:0:0:0:0:
64,192,54411,1,10,0:0:0:0:
192,192,54645,1,0,0:0:0:30:hihat.wav
448,192,54880,1,2,0:0:0:0:
320,192,55114,1,0,0:0:0:30:hihat.wav
192,192,55348,1,10,0:0:0:0:
64,192,55583,1,0,0:0:0:30:hihat.wav
448,192,55817,1,2,0:0:0:0:
320,192,56051,1,0,0:0:0:30:hihat.wav
320,192,56286,128,10,56755:0:0:0:0:
64,192,56755,1,2,0:0:0:0:
192,192,56989,128,0,57223:0:0:0:30:hihat.wav
448,192,57223,1,10,0:0:0:0:
320,192,57458,1,0,0:0:0:30:hihat.wav
64,192,57692,1,2,0:0:0:0:
320,192,57926,128,0,58161:0:0:0:30:hihat.wav
448,192,58161,1,10,0:0:0:0:
192,192,58395,1,0,0:0:0:30:hihat.wav
64,192,58630,1,2,0:0:0:0:
192,192,58864,1,0,0:0:0:30:hihat.wav
320,192,59098,1,10,0:0:0:0:
448,192,59333,1,0,0:0:0:30:hihat.wav
192,192,59567,1,2,0:0:0:0:
448,192,59801,1,8,0:0:0:0:
448,192,60036,1,10,0:0:0:0:
64,192,60270,1,0,0:0:0:30:hihat.wav
192,192,60505,1,2,0:0:0:0:
448,192,60505,128,4,60973:0:0:0:0:
320,192,60973,128,10,61442:0:0:0:0:
64,192,61442,128,2,61911:0:0:0:0:
448,192,61911,1,10,0:0:0:0:
320,192,62145,1,0,0:0:0:30:hihat.wav
64,192,62380,1,2,0:0:0:0:
192,192,62614,1,0,0:0:0:30:hihat.wav
320,192,62848,1,10,0:0:0:0:
448,192,63083,1,0,0:0:0:30:hihat.wav
64,192,63317,1,2,0:0:0:0:
192,192,63551,1,8,0:0:0:0:
192,192,63786,128,10,64255:0:0:0:0:
448,192,64255,1,2,0:0:0:0:
320,192,64489,128,0,64723:0:0:0:30:hihat.wav
64,192,64723,1,10,0:0:0:0:
192,192,64958,1,0,0:0:0:30:hihat.wav
448,192,65192,1,2,0:0:0:0:
64,192,65426,128,0,65661:0:0:0:30:hihat.wav
320,192,65661,1,10,0:0:0:0:
192,192,65895,128,0,66130:0:0:0:30:hihat.wav
448,192,66130,1,10,0:0:0:0:
448,192,66481,1,10,0:0:0:0:
64,192,66833,1,10,0:0:0:0:
64,192,67067,1,10,0:0:0:0:
448,192,67301,1,0,0:0:0:0:
320,192,67536,1,2,0:0:0:0:
64,192,67770,1,0,0:0:0:30:hihat.wav
192,192,68005,1,2,0:0:0:0:
448,192,68005,128,4,68473:0:0:0:0:
64,192,68473,128,10,68942:0:0:0:0:
192,192,68942,128,2,69411:0:0:0:0:
448,192,69411,1,10,0:0:0:0:
320,192,69645,1,0,0:0:0:30:hihat.wav
64,192,69880,1,2,0:0:0:0:
192,192,70114,1,0,0:0:0:30:hihat.wav
320,192,70348,1,10,0:0:0:0:
448,192,70583,1,0,0:0:0:30:hihat.wav
64,192,70817,1,2,0:0:0:0:
320,192,71051,1,8,0:0:0:0:
320,192,71286,128,10,71755:0:0:0:0:
64,192,71755,1,2,0:0:0:0:
192,192,71989,128,0,72223:0:0:0:30:hihat.wav
448,192,72223,1,10,0:0:0:0:
320,192,72458,1,0,0:0:0:30:hihat.wav
64,192,72692,1,2,0:0:0:0:
320,192,72926,128,0,73161:0:0:0:30:hihat.wav
64,192,73161,1,10,0:0:0:0:
192,192,73395,1,0,0:0:0:30:hihat.wav
448,192,73630,1,2,0:0:0:0:
320,192,73864,1,0,0:0:0:30:hihat.wav
192,192,74098,1,10,0:0:0:0:
64,192,74333,128,0,74567:0:0:0:30:hihat.wav
448,192,74567,1,2,0:0:0:0:
320,192,74801,1,8,0:0:0:0:
320,192,75036,1,10,0:0:0:0:
64,192,75270,1,0,0:0:0:30:hihat.wav
192,192,75505,1,2,0:0:0:0:
448,192,75505,128,4,75973:0:0:0:0:
320,192,75973,128,10,76442:0:0:0:0:
64,192,76442,128,2,76911:0:0:0:0:
448,192,76911,1,10,0:0:0:0:
320,192,77145,1,0,0:0:0:30:hihat.wav
192,192,77380,1,2,0:0:0:0:
64,192,77614,1,0,0:0:0:30:hihat.wav
448,192,77848,1,10,0:0:0:0:
64,192,78083,1,0,0:0:0:30:hihat.wav
320,192,78317,1,2,0:0:0:0:
192,192,78551,1,8,0:0:0:0:
192,192,78786,128,10,79255:0:0:0:0:
448,192,79255,128,2,79723:0:0:0:0:
320,192,79723,128,0,80192:0:0:0:30:hihat.wav
64,192,80192,128,2,80661:0:0:0:0:
192,192,80661,128,0,81130:0:0:0:30:hihat.wav
448,192,81130,1,10,0:0:0:0:
448,192,81481,1,10,0:0:0:0:
448,192,81833,1,10,0:0:0:0:
192,192,82067,128,10,82536:0:0:0:0:
448,192,82536,128,0,83005:0:0:0:0:
192,192,83005,1,2,0:0:0:0:
320,192,84294,128,2,84645:0:0:0:0:
64,192,84645,1,2,0:0:0:0:
64,192,86755,1,2,0:0:0:0:
448,192,86755,1,0,0:0:0:70:A5S_s+D6S_s.wav
192,192,88044,128,2,88395:0:0:0:0:
320,192,88395,128,2,88630:0:0:0:70:D6S_s+F#6S_Gb6S_s.wav
