osu file format v14

[General]
AudioFilename: audio.mp3
AudioLeadIn: 0
PreviewTime: 70414
Countdown: 0
SampleSet: Soft
StackLeniency: 0.4
Mode: 0
LetterboxInBreaks: 0
WidescreenStoryboard: 0

[Editor]
Bookmarks: 6268,21878,37488,53097,67732,70658,84317
DistanceSpacing: 2.3
BeatDivisor: 4
GridSize: 16
TimelineZoom: 1.249999

[Metadata]
Title:More One Night
TitleUnicode:More One Night
Artist:Chito (CV: Minase Inori), Yuuri (CV: Kubo Yurika)
ArtistUnicode:チト(CV:水瀬いのり)、ユーリ(CV:久保ユリカ)
Creator:how2miss
Version:Tour
Source:少女終末旅行
Tags:girls last tour shoujo shuumatsu ryokou ed ending emon(Tes.)
BeatmapID:1513694
BeatmapSetID:716476

[Difficulty]
HPDrainRate:4.5
CircleSize:4
OverallDifficulty:8
ApproachRate:9
SliderMultiplier:1.6
SliderTickRate:1

[Events]
//Background and Video events
0,0,"shoujo shuumatsu 1.jpg",0,0
//Break Periods
//Storyboard Layer 0 (Background)
//Storyboard Layer 1 (Fail)
//Storyboard Layer 2 (Pass)
//Storyboard Layer 3 (Foreground)
//Storyboard Sound Samples

[TimingPoints]
415,487.80487804878,4,2,0,40,1,0
415,-166.666666666667,4,2,0,40,0,0
902,-125,4,2,0,45,0,0
1390,-100,4,2,0,50,0,0
1878,-83.3333333333333,4,2,0,55,0,0
2366,-71.4285714285714,4,2,0,60,0,0
2854,-62.5,4,2,0,65,0,0
3341,-55.5555555555556,4,2,0,70,0,0
3829,-50,4,2,0,75,0,0
6263,-166.666666666667,4,2,0,50,0,0
7000,-166.666666666667,4,2,0,5,0,0
7244,-166.666666666667,4,2,0,50,0,0
9439,-166.666666666667,4,2,0,5,0,0
9683,-83.3333333333333,4,2,0,40,0,0
10049,-83.3333333333333,4,2,0,10,0,0
10171,-166.666666666667,4,2,0,50,0,0
10902,-166.666666666667,4,2,0,5,0,0
11146,-166.666666666667,4,2,0,50,0,0
12854,-166.666666666667,4,2,0,5,0,0
13097,-166.666666666667,4,2,0,50,0,0
13341,-83.3333333333334,4,3,0,60,0,0
13951,-83.3333333333334,4,3,0,5,0,0
14073,-83.3333333333334,4,3,0,60,0,0
17975,-83.3333333333334,4,3,0,50,0,0
18463,-71.4285714285714,4,3,0,55,0,0
18951,-62.5,4,3,0,60,0,0
19439,-55.5555555555556,4,3,0,65,0,0
19927,-55.5555555555556,4,3,0,50,0,0
21390,-83.3333333333333,4,2,0,60,0,0
49195,-100,4,3,0,70,0,0
49927,-83.3333333333333,4,3,0,70,0,0
50171,-71.4285714285714,4,3,0,70,0,0
50902,-83.3333333333333,4,3,0,70,0,0
51146,-66.6666666666667,4,3,0,40,0,0
51634,-50,4,3,0,40,0,0
52122,-50,4,3,0,80,0,0
53097,-55.5555555555556,4,2,0,80,0,1
63829,-83.3333333333333,4,2,0,80,0,1
64317,-55.5555555555556,4,2,0,80,0,1
64805,-83.3333333333333,4,2,0,80,0,1
66756,-55.5555555555556,4,2,0,80,0,1
67000,-66.6666666666667,4,2,0,80,0,1
67244,-83.3333333333333,4,2,0,80,0,1
67488,-111.111111111111,4,2,0,80,0,1
67732,-1000,4,3,0,80,0,0
67854,-1000,4,2,1,5,0,0
69927,-1000,4,3,0,60,0,0
70658,-166.666666666667,4,3,0,80,0,1
71390,-111.111111111111,4,3,0,80,0,1
72122,-83.3333333333333,4,3,0,80,0,1
72854,-66.6666666666667,4,3,0,80,0,1
73585,-55.5555555555556,4,3,0,80,0,1
74561,-166.666666666667,4,3,0,80,0,1
75293,-111.111111111111,4,3,0,80,0,1
76024,-83.3333333333333,4,3,0,80,0,1
76756,-66.6666666666667,4,3,0,80,0,1
77488,-83.3333333333333,4,3,0,80,0,1
77975,-55.5555555555556,4,3,0,80,0,1
78463,-166.666666666667,4,3,0,80,0,1
79195,-111.111111111111,4,3,0,80,0,1
79927,-83.3333333333333,4,3,0,80,0,1
80658,-66.6666666666667,4,3,0,80,0,1
81390,-55.5555555555556,4,3,0,80,0,1
82366,-166.666666666667,4,3,0,80,0,1
83097,-111.111111111111,4,3,0,80,0,1
83829,-83.3333333333333,4,3,0,80,0,1
84317,-83.3333333333333,4,3,0,60,0,0
85293,-100,4,3,0,60,0,0
86268,-100,4,2,0,60,0,0

[Colours]
Combo1 : 240,169,125
Combo2 : 170,190,210
Combo3 : 89,139,164
Combo4 : 236,216,183

[HitObjects]
0,46,415,22,0,P|12:84|15:90,3,23.9999992675781
73,9,902,2,0,P|74:48|77:57,3,32
158,0,1390,2,0,P|149:38|149:48,3,40
248,16,1878,2,0,P|229:51|228:93,3,47.9999985351563
330,60,2366,2,0,P|303:89|291:129,3,55.9999982910157
403,126,2854,2,0,P|369:147|347:183,3,64
454,210,3341,2,0,P|416:222|386:251,3,71.9999978027344
494,309,3829,2,0,P|454:310|417:331,3,80
0,318,6268,38,0,B|71:298|67:350|138:330,1,143.999995605469,4|0,0:0|0:0,0:0:0:0:
196,264,7244,1,0,0:0:0:0:
196,264,7610,1,0,0:0:0:0:
166,180,7975,6,0,B|135:152|89:161|89:161|132:113|196:133|182:146|236:165|280:130,1,287.999991210938,2|0,0:0|0:0,0:0:0:0:
334,49,9683,6,0,B|300:39|277:8|277:8|261:42|228:59,1,143.999995605469,2|0,0:0|0:0,0:0:0:0:
339,230,10171,22,0,B|352:238|369:242|369:242|400:194|375:131,1,143.999995605469,2|0,0:0|0:0,0:0:0:0:
280,129,11146,1,0,0:0:0:0:
280,129,11512,1,0,0:0:0:0:
334,49,11878,6,0,B|347:4|406:-18|452:15|459:62|459:62|434:89,1,191.999994140625,2|0,0:0|0:0,0:0:0:0:
376,134,13097,1,0,0:0:0:0:
408,239,13341,6,8,P|411:254|410:270,2,31.9999990234375
406,229,13585,2,0,B|440:219|463:188|463:188|479:222|512:239,1,143.999995605469,2|0,0:0|0:0,0:0:0:0:
449,340,14073,21,4,0:0:0:0:
319,206,14317,2,8,P|317:230|322:254,2,47.9999985351563
271,351,14805,1,0,0:0:0:0:
422,230,15049,5,4,0:0:0:0:
406,229,15171,1,4,0:0:0:0:
368,345,15414,1,4,0:0:0:0:
352,346,15536,1,8,0:0:0:0:
226,283,15780,1,0,0:0:0:0:
0,206,16024,37,4,0:0:0:0:
130,72,16268,2,8,P|132:96|127:120,2,47.9999985351563
178,217,16756,1,0,0:0:0:0:
27,96,17000,5,4,0:0:0:0:
43,95,17122,1,4,0:0:0:0:
81,211,17365,1,4,0:0:0:0:
97,212,17487,1,8,0:0:0:0:
223,149,17731,1,0,0:0:0:0:
379,252,17975,6,0,P|405:253|427:247,1,47.9999985351563,4|0,0:0|0:0,0:0:0:0:
493,189,18219,2,0,P|507:166|513:145,1,47.9999985351563,4|0,0:0|0:0,0:0:0:0:
378,290,18463,6,0,P|402:277|425:250,1,55.9999982910157,4|0,0:0|0:0,0:0:0:0:
426,133,18707,2,0,P|427:107|415:73,1,55.9999982910157,4|0,0:0|0:0,0:0:0:0:
400,326,18951,38,0,P|414:303|422:263,1,64,4|0,0:0|0:0,0:0:0:0:
340,118,19195,2,0,P|328:94|297:68,1,64,4|0,0:0|0:0,0:0:0:0:
442,343,19439,6,0,P|443:317|425:273,1,71.9999978027344,4|0,0:0|0:0,0:0:0:0:
259,148,19683,2,0,P|237:134|190:127,1,71.9999978027344,4|0,0:0|0:0,0:0:0:0:
237,382,19927,37,0,0:0:0:0:
258,371,20170,1,0,0:0:0:0:
276,355,20414,1,0,0:0:0:0:
288,334,20658,1,0,0:0:0:0:
133,264,20902,5,2,0:0:0:0:
208,298,21024,1,2,0:0:0:0:
201,214,21146,1,2,0:0:0:0:
454,33,21390,22,0,P|455:58|449:79,1,47.9999985351563
512,150,21634,2,0,P|491:163|470:168,1,47.9999985351563
463,268,21878,38,0,P|415:245|323:253,1,143.999995605469,4|0,0:0|0:0,0:0:0:0:
264,370,22366,6,0,P|286:350|301:318,1,47.9999985351563,2|0,0:0|0:0,0:0:0:0:
240,229,22610,2,0,P|234:200|214:171,1,47.9999985351563
105,179,22854,5,4,3:0:0:0:
63,264,22975,2,0,L|110:259,1,47.9999985351563,8|0,3:0|0:0,0:0:0:0:
113,169,23219,5,4,3:0:0:0:
55,274,23341,2,0,L|102:269,1,47.9999985351563,8|0,3:0|0:0,0:0:0:0:
225,184,23585,22,0,L|272:189,1,47.9999985351563
463,268,23829,38,0,P|469:246|469:220,1,47.9999985351563,2|0,0:0|0:0,0:0:0:0:
398,100,24073,2,0,P|381:83|359:70,1,47.9999985351563
272,189,24317,6,0,P|294:183|316:170,1,47.9999985351563,2|0,0:0|0:0,0:0:0:0:
221,99,24561,2,0,P|227:76|227:50,1,47.9999985351563
117,98,24805,5,4,3:0:0:0:
46,163,24927,2,0,L|41:116,1,47.9999985351563,8|0,3:0|0:0,0:0:0:0:
128,91,25171,5,4,3:0:0:0:
35,170,25293,2,0,L|30:123,1,47.9999985351563,8|0,3:0|0:0,0:0:0:0:
169,189,25536,22,0,L|164:236,1,47.9999985351563
82,348,25780,38,0,P|104:342|130:342,1,47.9999985351563,2|0,0:0|0:0,0:0:0:0:
264,370,26024,2,0,P|287:370|311:363,1,47.9999985351563
341,223,26268,6,0,P|329:242|323:267,1,47.9999985351563,2|0,0:0|0:0,0:0:0:0:
428,254,26512,2,0,P|439:273|457:291,1,47.9999985351563
471,149,26756,5,4,3:0:0:0:
389,98,26878,2,0,L|395:177,1,47.9999985351563,8|0,3:0|0:0,0:0:0:0:
482,156,27122,5,4,3:0:0:0:
378,91,27244,2,0,L|384:170,1,47.9999985351563,8|0,3:0|0:0,0:0:0:0:
323,266,27488,22,0,L|317:345,1,47.9999985351563
160,377,27732,38,0,P|138:357|123:325,1,47.9999985351563,2|0,0:0|0:0,0:0:0:0:
112,244,27975,2,0,P|118:214|138:185,1,47.9999985351563
258,206,28219,6,0,P|229:215|194:212,1,47.9999985351563,2|0,0:0|0:0,0:0:0:0:
53,150,28463,2,0,P|36:124|29:89,1,47.9999985351563
193,38,28707,5,4,3:0:0:0:
258,108,28829,2,0,L|178:114,1,47.9999985351563,8|0,3:0|0:0,0:0:0:0:
183,30,29073,5,4,3:0:0:0:
268,116,29195,2,0,L|188:122,1,47.9999985351563,8|0,3:0|0:0,0:0:0:0:
378,45,29439,22,0,L|457:51,1,47.9999985351563
422,238,29683,38,0,B|396:245|396:245|361:209|370:147|407:123,1,143.999995605469,4|0,0:0|0:0,0:0:0:0:
506,204,30171,6,0,P|512:226|512:252,1,47.9999985351563,2|0,0:0|0:0,0:0:0:0:
441,326,30414,2,0,P|424:342|402:355,1,47.9999985351563
302,330,30658,5,4,3:0:0:0:
228,268,30780,2,0,L|223:315,1,47.9999985351563,8|0,3:0|0:0,0:0:0:0:
309,341,31024,5,4,3:0:0:0:
221,257,31146,2,0,L|216:304,1,47.9999985351563,8|0,3:0|0:0,0:0:0:0:
376,234,31390,22,0,L|371:186,1,47.9999985351563
407,35,31634,38,0,P|422:13|444:-3,1,47.9999985351563,2|0,0:0|0:0,0:0:0:0:
310,44,31878,2,0,P|291:25|266:13,1,47.9999985351563
444,123,32122,6,0,P|470:125|495:137,1,47.9999985351563,2|0,0:0|0:0,0:0:0:0:
289,137,32366,2,0,P|263:143|240:159,1,47.9999985351563
102,249,32610,5,4,3:0:0:0:
41,174,32732,2,0,L|88:177,1,47.9999985351563,8|0,3:0|0:0,0:0:0:0:
111,257,32976,5,4,3:0:0:0:
32,165,33098,2,0,L|79:168,1,47.9999985351563,8|0,3:0|0:0,0:0:0:0:
199,238,33341,22,0,L|246:234,1,47.9999985351563
400,320,33585,38,0,B|366:310|343:279|343:279|327:313|294:330,1,143.999995605469,4|0,0:0|0:0,0:0:0:0:
500,358,34073,6,0,P|506:336|506:310,1,47.9999985351563,2|0,0:0|0:0,0:0:0:0:
430,216,34317,2,0,P|429:192|436:168,1,47.9999985351563
512,44,34561,38,0,P|491:55|468:62,1,47.9999985351563,2|0,0:0|0:0,0:0:0:0:
377,51,34805,2,0,P|356:39|339:22,1,47.9999985351563
176,157,35049,6,0,P|197:168|220:175,1,47.9999985351563,2|0,0:0|0:0,0:0:0:0:
311,164,35293,2,0,P|332:152|349:135,1,47.9999985351563
92,207,35536,6,0,L|94:238,1,23.9999992675781,2|0,3:0|0:0,0:0:0:0:
163,375,35780,2,0,L|142:350,1,23.9999992675781,2|0,3:0|0:0,0:0:0:0:
6,281,36024,2,0,L|37:288,1,23.9999992675781,2|0,3:0|0:0,0:0:0:0:
188,265,36268,2,0,L|158:277,1,23.9999992675781,2|0,3:0|0:0,0:0:0:0:
50,384,36512,2,0,L|66:356,1,23.9999992675781,2|0,3:0|0:0,0:0:0:0:
280,267,36756,6,0,P|319:263|351:272,1,71.9999978027344,2|0,3:0|3:0,3:0:0:0:
363,278,37000,1,2,3:0:0:0:
357,4,37488,5,4,0:0:0:0:
383,16,37609,1,0,0:0:0:0:
405,35,37731,1,0,0:0:0:0:
422,57,37853,1,0,0:0:0:0:
432,85,37975,2,0,P|436:107|433:132,1,47.9999985351563,2|0,0:0|0:0,0:0:0:0:
266,235,38219,5,0,0:0:0:0:
264,206,38340,1,0,0:0:0:0:
268,177,38462,1,0,0:0:0:0:
280,152,38584,1,0,0:0:0:0:
298,129,38707,2,0,P|314:114|337:102,1,47.9999985351563,2|0,0:0|0:0,0:0:0:0:
512,197,38951,37,0,0:0:0:0:
487,214,39072,1,0,0:0:0:0:
460,224,39194,1,0,0:0:0:0:
432,227,39316,1,0,0:0:0:0:
404,223,39439,6,0,P|382:214|360:200,1,47.9999985351563,2|0,0:0|0:0,0:0:0:0:
394,330,39683,2,0,P|370:334|347:344,1,47.9999985351563
274,205,39927,38,0,P|259:186|247:163,1,47.9999985351563,2|0,0:0|0:0,0:0:0:0:
263,325,40171,2,0,P|245:340|230:361,1,47.9999985351563
148,254,40414,1,0,0:0:0:0:
16,355,40658,5,0,0:0:0:0:
27,329,40779,1,0,0:0:0:0:
33,300,40901,1,0,0:0:0:0:
33,271,41023,1,0,0:0:0:0:
25,243,41146,2,0,P|15:222|0:202,1,47.9999985351563,2|0,0:0|0:0,0:0:0:0:
106,26,41390,37,4,0:0:0:0:
104,54,41511,1,0,0:0:0:0:
101,83,41633,1,0,0:0:0:0:
99,112,41755,1,0,0:0:0:0:
96,140,41878,2,0,L|90:203,1,47.9999985351563,2|0,0:0|0:0,0:0:0:0:
194,364,42122,5,0,0:0:0:0:
192,336,42243,1,0,0:0:0:0:
189,307,42365,1,0,0:0:0:0:
187,278,42487,1,0,0:0:0:0:
184,250,42610,2,0,L|178:186,1,47.9999985351563,2|0,0:0|0:0,0:0:0:0:
286,6,42854,37,0,0:0:0:0:
284,34,42975,1,0,0:0:0:0:
281,63,43097,1,0,0:0:0:0:
279,92,43219,1,0,0:0:0:0:
276,120,43342,6,0,L|270:183,1,47.9999985351563,2|0,0:0|0:0,0:0:0:0:
363,276,43585,2,0,L|357:212,1,47.9999985351563
426,93,43829,2,0,L|420:156,1,47.9999985351563,2|0,0:0|0:0,0:0:0:0:
273,306,44317,6,0,P|173:357|247:270,1,287.999991210938,2|0,0:0|0:0,0:0:0:0:
348,354,45293,21,4,0:0:0:0:
419,360,45414,1,0,0:0:0:0:
461,300,45536,1,0,0:0:0:0:
430,234,45658,1,0,0:0:0:0:
358,228,45780,2,0,L|275:220,1,47.9999985351563,2|0,0:0|0:0,0:0:0:0:
113,312,46024,5,0,0:0:0:0:
42,318,46145,1,0,0:0:0:0:
0,258,46267,1,0,0:0:0:0:
31,192,46389,1,0,0:0:0:0:
103,186,46512,2,0,L|185:178,1,47.9999985351563,2|0,0:0|0:0,0:0:0:0:
208,384,46756,37,0,0:0:0:0:
215,313,46878,1,0,0:0:0:0:
221,241,47000,1,0,0:0:0:0:
227,169,47122,1,0,0:0:0:0:
234,98,47244,2,0,L|239:43,1,47.9999985351563,2|0,0:0|0:0,0:0:0:0:
334,280,47488,5,0,0:0:0:0:
340,350,47609,1,0,0:0:0:0:
406,381,47731,1,0,0:0:0:0:
466,339,47853,1,0,0:0:0:0:
459,267,47975,2,0,L|452:183,1,47.9999985351563,2|0,0:0|0:0,0:0:0:0:
410,123,48219,6,0,B|432:112|443:89|443:89|458:110|481:117,2,95.9999970703126,2|0|0,0:0|0:0|0:0,0:0:0:0:
509,5,48951,6,0,L|512:44,3,23.9999992675781,0|0|0|0,3:0|3:0|3:0|3:0,3:0:0:0:
512,42,49195,37,4,0:0:0:0:
372,202,49439,2,0,P|354:190|328:151,1,40
266,123,49683,2,0,P|267:101|288:59,1,40
509,5,49927,6,0,L|512:44,3,23.9999992675781
512,42,50171,37,4,0:0:0:0:
319,257,50414,2,0,P|301:245|271:198,1,55.9999982910157
191,106,50658,2,0,P|192:84|218:34,1,55.9999982910157
509,5,50902,6,0,L|512:44,2,23.9999992675781
372,202,51146,38,8,P|354:190|328:151,2,40.000001525879
265,122,51390,2,8,P|266:102|272:83,2,40.000001525879
319,257,51634,6,8,P|301:245|271:198,2,53.3333333333333
190,103,51878,2,8,P|193:76|203:52,2,53.3333333333333
410,123,52122,37,4,0:0:0:0:
53,246,52610,21,0,2:0:0:0:
55,257,52854,1,0,2:0:0:0:
56,269,53097,22,0,P|110:290|171:269,1,71.9999978027344,4|0,3:0|0:0,0:0:0:0:
209,158,53341,1,8,3:0:0:0:
44,317,53585,6,0,P|101:308|143:259,1,71.9999978027344,4|0,3:0|0:0,0:0:0:0:
212,142,53829,1,8,3:0:0:0:
57,364,54073,38,0,P|101:327|113:264,1,71.9999978027344,4|0,3:0|0:0,0:0:0:0:
215,126,54317,5,4,3:0:0:0:
93,70,54439,2,0,L|99:141,1,71.9999978027344,8|0,3:0|0:0,0:0:0:0:
218,110,54683,37,4,3:0:0:0:
82,65,54805,2,0,L|88:136,1,71.9999978027344,8|0,3:0|0:0,0:0:0:0:
196,271,55049,5,4,3:0:0:0:
378,84,55293,38,0,P|344:74|306:77,1,71.9999978027344,8|0,3:0|0:0,0:0:0:0:
226,131,55536,2,0,P|200:154|184:189,1,71.9999978027344,4|0,3:0|0:0,0:0:0:0:
379,40,55780,6,0,P|345:48|313:70,1,71.9999978027344,8|0,3:0|0:0,0:0:0:0:
287,220,56024,2,0,P|277:253|280:291,1,71.9999978027344,4|0,3:0|0:0,0:0:0:0:
448,114,56268,37,2,3:0:0:0:
382,161,56390,1,2,3:0:0:0:
455,195,56512,1,2,3:0:0:0:
348,257,56756,5,0,0:0:0:0:
346,270,57000,38,0,P|315:287|280:290,1,71.9999978027344,4|0,3:0|0:0,0:0:0:0:
194,158,57243,1,8,3:0:0:0:
358,318,57488,6,0,P|322:317|290:301,1,71.9999978027344,4|0,3:0|0:0,0:0:0:0:
191,142,57731,1,8,3:0:0:0:
345,365,57975,38,0,P|315:345|295:315,1,71.9999978027344,4|0,3:0|0:0,0:0:0:0:
188,126,58219,5,4,3:0:0:0:
310,70,58341,2,0,L|304:141,1,71.9999978027344,8|0,3:0|0:0,0:0:0:0:
185,110,58585,37,4,3:0:0:0:
321,65,58707,2,0,L|315:136,1,71.9999978027344,8|0,3:0|0:0,0:0:0:0:
157,368,58951,6,0,P|117:351|97:327,1,71.9999978027344,4|0,3:0|0:0,0:0:0:0:
35,164,59195,2,0,P|76:154|106:162,1,71.9999978027344,8|0,3:0|0:0,0:0:0:0:
253,258,59439,2,0,P|225:290|195:301,1,71.9999978027344,4|0,3:0|0:0,0:0:0:0:
22,310,59683,2,0,P|25:267|42:240,1,71.9999978027344,8|0,3:0|0:0,0:0:0:0:
177,131,59927,2,0,P|199:167|201:198,1,71.9999978027344,4|0,3:0|0:0,0:0:0:0:
8,92,60171,37,2,3:0:0:0:
0,11,60293,1,2,3:0:0:0:
74,45,60415,1,2,3:0:0:0:
0,99,60658,5,0,0:0:0:0:
254,83,60902,38,0,P|311:91|353:140,1,71.9999978027344,4|0,3:0|0:0,0:0:0:0:
331,255,61146,1,8,3:0:0:0:
267,35,61390,6,0,P|311:71|323:134,1,71.9999978027344,4|0,3:0|0:0,0:0:0:0:
325,270,61634,1,8,3:0:0:0:
302,1,61878,38,0,P|321:55|300:115,1,71.9999978027344,4|0,3:0|0:0,0:0:0:0:
320,286,62122,5,4,3:0:0:0:
201,195,62244,2,0,L|281:188,1,71.9999978027344,8|0,3:0|0:0,0:0:0:0:
314,301,62488,37,4,3:0:0:0:
193,186,62610,2,0,L|273:179,1,71.9999978027344,8|0,3:0|0:0,0:0:0:0:
210,384,62854,6,0,P|174:387|140:376,1,71.9999978027344,4|0,3:0|0:0,0:0:0:0:
49,369,63097,2,0,P|28:339|20:304,1,71.9999978027344,8|0,3:0|0:0,0:0:0:0:
184,299,63341,38,0,P|151:283|127:257,1,71.9999978027344,4|0,3:0|0:0,0:0:0:0:
53,205,63585,2,0,P|49:169|60:135,1,71.9999978027344,8|0,3:0|0:0,0:0:0:0:
187,83,63829,6,0,B|220:66|236:32|236:32|259:63|293:73,1,143.999995605469,4|0,3:0|0:0,0:0:0:0:
413,10,64317,2,0,P|401:43|375:68,1,71.9999978027344,8|0,3:0|0:0,0:0:0:0:
154,0,64561,1,0,0:0:0:0:
315,221,64805,38,0,B|386:240|382:188|453:208,1,143.999995605469,4|0,3:0|0:0,0:0:0:0:
512,275,65293,1,8,3:0:0:0:
426,292,65536,1,0,0:0:0:0:
340,140,65780,6,0,B|269:121|273:173|202:153,1,143.999995605469,4|0,3:0|0:0,0:0:0:0:
143,86,66268,1,8,3:0:0:0:
229,69,66511,1,0,0:0:0:0:
381,243,66756,38,0,P|337:236|306:212,1,71.9999978027344,4|0,3:0|0:0,0:0:0:0:
313,331,67000,2,0,P|279:303|264:267,1,60.0000022888184,4|0,3:0|0:0,0:0:0:0:
214,371,67244,2,0,P|198:330|203:291,1,47.9999985351563,8|0,3:0|0:0,0:0:0:0:
112,357,67488,2,0,P|118:313|131:295,1,35.9999989013672,8|0,3:0|0:0,0:0:0:0:
45,276,67732,22,0,P|33:289|18:334,1,64,4|0,3:0|2:0,2:0:0:0:
166,146,69927,5,2,0:0:0:0:
174,43,70049,1,2,0:0:0:0:
82,87,70171,1,2,0:0:0:0:
178,254,70658,6,0,L|216:250,1,23.9999992675781,4|0,0:0|0:0,0:0:0:0:
289,244,70902,2,0,L|327:240,1,23.9999992675781,4|0,0:0|0:0,0:0:0:0:
401,234,71146,2,0,L|439:230,1,23.9999992675781,8|0,0:0|0:0,0:0:0:0:
173,267,71390,6,0,L|241:263,1,35.9999989013672,4|0,0:0|0:0,0:0:0:0:
295,262,71634,2,0,L|363:258,1,35.9999989013672,4|0,0:0|0:0,0:0:0:0:
419,257,71878,2,0,L|487:253,1,35.9999989013672,8|0,0:0|0:0,0:0:0:0:
168,280,72122,38,0,L|256:280,1,47.9999985351563,4|0,0:0|0:0,0:0:0:0:
301,281,72366,2,0,L|389:281,1,47.9999985351563,4|0,0:0|0:0,0:0:0:0:
436,284,72610,2,0,L|524:284,1,47.9999985351563,8|0,0:0|0:0,0:0:0:0:
163,293,72854,6,0,L|268:300,1,60.0000022888184,4|0,0:0|0:0,0:0:0:0:
307,302,73097,2,0,L|412:309,1,60.0000022888184,4|0,0:0|0:0,0:0:0:0:
453,312,73341,2,0,L|558:319,1,60.0000022888184,8|0,0:0|0:0,0:0:0:0:
386,36,73585,6,0,P|431:91|387:174,1,143.999995605469
413,156,74073,2,0,P|368:101|412:18,1,143.999995605469
200,144,74561,22,0,L|165:159,1,23.9999992675781,4|0,0:0|0:0,0:0:0:0:
98,191,74805,2,0,L|101:152,1,23.9999992675781,4|0,0:0|0:0,0:0:0:0:
109,78,75049,2,0,L|140:100,1,23.9999992675781,8|0,0:0|0:0,0:0:0:0:
199,159,75293,6,0,L|140:179,1,35.9999989013672,4|0,0:0|0:0,0:0:0:0:
77,202,75536,2,0,L|88:141,1,35.9999989013672,4|0,0:0|0:0,0:0:0:0:
101,74,75780,2,0,L|147:114,1,35.9999989013672,8|0,0:0|0:0,0:0:0:0:
198,174,76024,38,0,L|111:196,1,47.9999985351563,4|0,0:0|0:0,0:0:0:0:
56,211,76268,2,0,L|79:125,1,47.9999985351563,4|0,0:0|0:0,0:0:0:0:
96,69,76512,2,0,L|158:132,1,47.9999985351563,8|0,0:0|0:0,0:0:0:0:
197,189,76756,6,0,L|84:207,1,60.0000022888184,4|0,0:0|0:0,0:0:0:0:
36,216,77000,2,0,L|75:109,1,60.0000022888184,4|0,0:0|0:0,0:0:0:0:
94,62,77244,2,0,L|166:149,1,60.0000022888184,8|0,0:0|0:0,0:0:0:0:
142,355,77488,22,0,P|181:345|227:361,3,47.9999985351563
134,364,77975,2,0,P|89:309|133:226,1,143.999995605469
226,180,78463,6,0,L|266:183,1,23.9999992675781,4|0,0:0|0:0,0:0:0:0:
337,190,78707,2,0,L|377:193,1,23.9999992675781,4|0,0:0|0:0,0:0:0:0:
449,200,78951,2,0,L|489:203,1,23.9999992675781,8|0,0:0|0:0,0:0:0:0:
222,165,79195,6,0,L|284:170,1,35.9999989013672,4|0,0:0|0:0,0:0:0:0:
349,176,79439,2,0,L|400:140,1,35.9999989013672,4|0,0:0|0:0,0:0:0:0:
454,101,79683,2,0,L|470:40,1,35.9999989013672,8|0,0:0|0:0,0:0:0:0:
218,150,79927,38,0,L|276:154,1,47.9999985351563,4|0,0:0|0:0,0:0:0:0:
362,162,80171,2,0,L|377:105,1,47.9999985351563,4|0,0:0|0:0,0:0:0:0:
399,21,80414,2,0,L|345:-3,1,47.9999985351563,8|0,0:0|0:0,0:0:0:0:
214,135,80658,6,0,L|323:144,1,60.0000022888184,4|0,0:0|0:0,0:0:0:0:
374,149,80902,2,0,L|327:49,1,60.0000022888184,4|0,0:0|0:0,0:0:0:0:
305,0,81146,2,0,L|242:89,1,60.0000022888184,8|0,0:0|0:0,0:0:0:0:
47,171,81390,6,0,P|28:237|73:290,1,143.999995605469
73,290,81878,2,0,P|91:223|46:170,1,143.999995605469
219,291,82366,22,0,L|254:307,1,23.9999992675781,4|0,0:0|0:0,0:0:0:0:
321,338,82610,2,0,L|317:299,1,23.9999992675781,4|0,0:0|0:0,0:0:0:0:
310,225,82854,2,0,L|278:247,1,23.9999992675781,8|0,0:0|0:0,0:0:0:0:
226,305,83097,6,0,L|261:321,1,35.9999989013672,4|0,0:0|0:0,0:0:0:0:
347,348,83341,2,0,L|363:313,1,35.9999989013672,4|0,0:0|0:0,0:0:0:0:
390,225,83585,2,0,L|357:209,1,35.9999989013672,8|0,0:0|0:0,0:0:0:0:
233,319,83829,38,0,L|310:339,1,47.9999985351563,4|0,0:0|0:0,0:0:0:0:
374,356,84073,2,0,L|430:299,1,47.9999985351563,4|0,0:0|0:0,0:0:0:0:
476,250,84317,2,0,L|454:173,1,47.9999985351563,8|0,0:0|0:0,0:0:0:0:
109,133,84805,21,0,0:0:0:0:
109,133,85293,2,0,L|65:153,3,40
219,142,85781,2,0,L|258:169,3,40
172,42,86268,6,0,L|176:-5,1,40,4|0,3:0|0:0,0:0:0:0:
109,133,86756,2,0,L|65:153,1,40,4|0,3:0|0:0,0:0:0:0:
219,142,87244,2,0,L|258:169,1,40,4|0,3:0|0:0,0:0:0:0:
162,54,87488,37,2,3:0:0:0:
125,135,87610,1,2,3:0:0:0:
212,127,87732,1,10,3:0:0:0:
