osu file format v14

[General]
AudioFilename: audio.mp3
AudioLeadIn: 0
PreviewTime: 70414
Countdown: 0
SampleSet: None
StackLeniency: 0.4
Mode: 0
LetterboxInBreaks: 0
WidescreenStoryboard: 1

[Editor]
Bookmarks: 6268,21878,37488,53097,67732,70658,84317
DistanceSpacing: 1.3
BeatDivisor: 4
GridSize: 16
TimelineZoom: 2.049999

[Metadata]
Title:More One Night
TitleUnicode:More One Night
Artist:Chito (CV: Minase Inori), Yuuri (CV: Kubo Yurika)
ArtistUnicode:チト(CV:水瀬いのり)、ユーリ(CV:久保ユリカ)
Creator:how2miss
Version:Normal
Source:少女終末旅行
Tags:girls last tour shoujo shuumatsu ryokou ed ending emon(Tes.)
BeatmapID:1548330
BeatmapSetID:716476

[Difficulty]
HPDrainRate:3
CircleSize:3
OverallDifficulty:4
ApproachRate:5
SliderMultiplier:1.6
SliderTickRate:1

[Events]
//Background and Video events
0,0,"shoujo shuumatsu 1.jpg",0,0
//Break Periods
//Storyboard Layer 0 (Background)
//Storyboard Layer 1 (Fail)
//Storyboard Layer 2 (Pass)
//Storyboard Layer 3 (Foreground)
//Storyboard Sound Samples

[TimingPoints]
415,487.80487804878,4,2,0,40,1,0
415,-125,4,2,0,40,0,0
902,-125,4,2,0,45,0,0
1390,-125,4,2,0,50,0,0
1878,-125,4,2,0,55,0,0
2366,-125,4,2,0,60,0,0
2854,-125,4,2,0,65,0,0
3341,-125,4,2,0,70,0,0
3829,-125,4,2,0,75,0,0
4317,-125,4,2,0,5,0,0
6263,-125,4,2,0,50,0,0
14073,-125,4,3,0,60,0,0
17975,-125,4,3,0,50,0,0
18463,-125,4,3,0,55,0,0
18951,-125,4,3,0,60,0,0
19439,-125,4,3,0,65,0,0
21390,-125,4,2,0,60,0,0
49195,-125,4,3,0,70,0,0
53097,-125,4,3,0,80,0,1
67732,-125,4,3,0,80,0,0
70658,-125,4,3,0,80,0,1
84317,-125,4,3,0,60,0,0

[Colours]
Combo1 : 240,169,125
Combo2 : 170,190,210
Combo3 : 89,139,164
Combo4 : 236,216,183

[HitObjects]
256,192,415,12,0,4317,0:0:0:0:
0,138,6268,6,0,B|116:66|126:187|242:116,1,256,4|0,0:0|0:0,0:0:0:0:
299,4,7610,1,0,0:0:0:0:
409,61,7975,2,0,B|437:102|437:158|414:199|414:199|357:191,1,192,2|0,0:0|0:0,0:0:0:0:
37,236,9683,1,2,0:0:0:0:
136,369,10171,6,0,B|194:359|230:290|230:290|252:364|308:384,1,256,2|0,0:0|0:0,0:0:0:0:
433,384,11512,1,0,0:0:0:0:
510,286,11878,2,0,L|493:94,1,192,2|0,0:0|0:0,0:0:0:0:
333,46,13097,2,0,L|344:180,1,128,2|0,0:0|0:0,0:0:0:0:
414,321,14073,38,0,P|373:368|311:381,1,128,4|0,0:0|0:0,0:0:0:0:
144,376,15049,1,8,0:0:0:0:
19,384,15414,1,8,0:0:0:0:
75,272,15780,1,0,0:0:0:0:
75,272,16024,6,0,P|95:213|75:153,1,128,4|0,0:0|0:0,0:0:0:0:
0,3,17000,1,8,0:0:0:0:
166,17,17488,1,8,0:0:0:0:
256,192,17975,12,0,19927,0:0:0:0:
0,114,21390,37,0,0:0:0:0:
34,38,21634,1,0,0:0:0:0:
117,30,21878,2,0,L|244:18,1,128,4|0,0:0|0:0,0:0:0:0:
278,93,22610,1,0,0:0:0:0:
361,101,22854,2,0,L|488:113,1,128,2|0,0:0|0:0,0:0:0:0:
483,196,23585,1,0,0:0:0:0:
473,278,23829,6,0,P|456:311|435:328,1,64,2|0,0:0|0:0,0:0:0:0:
353,335,24317,2,0,P|325:316|308:288,1,64
319,207,24805,1,2,0:0:0:0:
252,359,25293,2,0,P|221:369|190:365,1,64
108,381,25780,38,0,P|83:359|71:330,1,64,2|0,0:0|0:0,0:0:0:0:
16,267,26268,2,0,P|22:235|41:210,1,64
68,131,26756,1,2,0:0:0:0:
234,136,27244,2,0,P|258:157|270:186,1,64
259,269,27732,6,0,L|322:263,1,64,2|0,0:0|0:0,0:0:0:0:
387,314,28219,2,0,L|450:319,1,64
508,258,28707,1,2,0:0:0:0:
512,90,29195,1,0,0:0:0:0:
478,166,29439,1,0,0:0:0:0:
395,174,29683,38,0,L|268:186,1,128,4|0,0:0|0:0,0:0:0:0:
234,109,30415,1,0,0:0:0:0:
201,32,30658,2,0,L|74:20,1,128,2|0,0:0|0:0,0:0:0:0:
39,95,31390,1,0,0:0:0:0:
88,163,31634,6,0,P|99:198|96:225,1,64,2|0,0:0|0:0,0:0:0:0:
38,284,32122,2,0,P|35:315|46:345,1,64
122,380,32610,1,2,0:0:0:0:
263,293,33097,2,0,P|266:262|255:232,1,64
200,168,33585,38,0,P|271:193|328:160,1,128,4|0,0:0|0:0,0:0:0:0:
341,93,34317,1,0,0:0:0:0:
271,47,34561,2,0,P|260:77|260:109,1,64,2|0,0:0|0:0,0:0:0:0:
315,172,35049,2,0,P|334:196|362:212,1,64
444,196,35536,5,4,3:0:0:0:
390,355,36024,1,4,3:0:0:0:
222,352,36512,1,8,3:0:0:0:
54,63,37488,38,0,B|125:71|163:18|163:18|240:-12|309:43,1,256,4|0,0:0|0:0,0:0:0:0:
400,153,38951,2,0,L|406:216,1,64
481,251,39439,2,0,P|427:357|312:302,1,256,2|0,0:0|0:0,0:0:0:0:
273,157,40902,2,0,L|268:221,1,64
239,299,41390,6,0,B|181:278|159:204|159:204|123:273|65:283,1,256,4|0,0:0|0:0,0:0:0:0:
88,117,42854,2,0,L|82:53,1,64
0,36,43341,2,0,B|116:-36|126:85|242:14,1,256,2|0,0:0|0:0,0:0:0:0:
510,202,45293,38,0,P|436:239|378:217,1,128,4|0,0:0|0:0,0:0:0:0:
350,158,46024,1,0,0:0:0:0:
311,83,46268,2,0,P|248:74|195:109,1,128,2|0,0:0|0:0,0:0:0:0:
143,172,47000,1,0,0:0:0:0:
162,252,47244,6,0,L|289:240,1,128,4|0,0:0|0:0,0:0:0:0:
372,231,47975,1,0,0:0:0:0:
338,307,48219,2,0,L|465:319,1,128,2|0,0:0|0:0,0:0:0:0:
510,158,49195,5,4,0:0:0:0:
215,3,50171,1,4,0:0:0:0:
229,336,51146,5,4,0:0:0:0:
370,247,51634,1,4,0:0:0:0:
223,170,52122,1,4,0:0:0:0:
56,177,52610,37,0,0:0:0:0:
11,106,52854,1,0,0:0:0:0:
50,33,53097,2,0,P|80:43|111:40,1,64,4|0,0:0|0:0,0:0:0:0:
186,2,53585,2,0,P|217:-1|247:8,1,64,8|0,0:0|0:0,0:0:0:0:
320,49,54073,2,0,P|300:74|294:105,1,64,4|0,0:0|0:0,0:0:0:0:
323,136,54439,2,0,P|335:165|359:186,1,64,8|0,0:0|0:0,0:0:0:0:
399,176,54805,1,4,0:0:0:0:
427,97,55049,5,4,0:0:0:0:
510,109,55293,2,0,L|504:172,1,64,0|8,0:0|0:0,0:0:0:0:
468,247,55780,2,0,L|473:310,1,64,0|4,0:0|0:0,0:0:0:0:
322,382,56512,1,8,0:0:0:0:
277,311,56756,1,0,0:0:0:0:
193,314,57000,38,0,P|162:311|132:321,1,64,4|0,0:0|0:0,0:0:0:0:
65,373,57488,2,0,P|34:383|3:379,1,64,8|0,0:0|0:0,0:0:0:0:
27,299,57975,2,0,P|7:274|1:243,1,64,4|0,0:0|0:0,0:0:0:0:
30,212,58341,2,0,P|42:183|66:162,1,64,8|0,0:0|0:0,0:0:0:0:
106,172,58707,1,4,0:0:0:0:
188,179,58951,6,0,L|251:185,1,64,4|0,0:0|0:0,0:0:0:0:
314,129,59439,2,0,L|377:123,1,64,8|0,0:0|0:0,0:0:0:0:
434,183,59927,1,4,0:0:0:0:
508,34,60414,1,8,0:0:0:0:
342,45,60902,38,0,P|311:42|281:52,1,64,4|0,0:0|0:0,0:0:0:0:
207,92,61390,2,0,P|176:102|145:98,1,64,8|0,0:0|0:0,0:0:0:0:
62,87,61878,2,0,P|42:112|36:143,1,64,4|0,0:0|0:0,0:0:0:0:
65,174,62244,2,0,P|77:203|101:224,1,64,8|0,0:0|0:0,0:0:0:0:
141,214,62610,1,4,0:0:0:0:
222,195,62854,6,0,L|228:258,1,64,4|0,0:0|0:0,0:0:0:0:
155,299,63341,2,0,L|149:362,1,64,8|0,0:0|0:0,0:0:0:0:
229,383,63829,1,4,0:0:0:0:
397,370,64317,1,8,0:0:0:0:
442,299,64561,1,0,0:0:0:0:
403,226,64805,38,0,P|332:201|275:234,1,128,4|0,0:0|0:0,0:0:0:0:
239,289,65536,1,0,0:0:0:0:
162,257,65780,2,0,P|114:216|108:154,1,128,8|0,0:0|0:0,0:0:0:0:
151,82,66512,1,0,0:0:0:0:
234,88,66756,6,0,P|265:108|291:112,1,64,4|0,0:0|0:0,0:0:0:0:
374,108,67244,2,0,P|407:90|424:70,1,64,4|0,0:0|0:0,0:0:0:0:
472,2,67732,1,8,0:0:0:0:
256,192,67975,12,0,69683,0:0:0:0:
0,321,70658,38,4,P|31:331|62:327,1,64
99,252,71146,1,8,0:0:0:0:
174,290,71390,2,4,P|205:286|235:296,1,64
274,370,71878,1,8,0:0:0:0:
351,340,72122,6,4,L|344:260,1,64
335,193,72610,1,8,0:0:0:0:
412,161,72854,2,4,L|418:81,1,64
428,14,73342,1,8,0:0:0:0:
351,46,73585,2,0,P|320:56|289:52,1,64,4|0,0:0|0:0,0:0:0:0:
207,33,74073,2,0,P|175:29|145:39,1,64,8|0,0:0|0:0,0:0:0:0:
185,112,74561,38,4,L|191:192,1,64
201,259,75049,1,8,0:0:0:0:
267,208,75293,2,4,L|347:214,1,64
414,224,75781,1,8,0:0:0:0:
446,303,76024,6,4,P|449:334|439:364,1,64
365,325,76512,1,8,0:0:0:0:
284,347,76756,2,4,P|280:315|290:285,1,64
330,212,77244,1,8,0:0:0:0:
369,138,77488,2,0,P|379:107|375:76,1,64,4|0,0:0|0:0,0:0:0:0:
294,55,77975,2,0,P|272:30|243:18,1,64,8|0,0:0|0:0,0:0:0:0:
172,61,78463,38,4,L|108:66,1,64
25,74,78951,1,8,0:0:0:0:
74,140,79195,2,4,L|68:203,1,64
61,287,79683,1,8,0:0:0:0:
21,359,79927,6,4,P|51:369|83:366,1,64
154,324,80414,1,8,0:0:0:0:
205,258,80658,2,4,P|236:254|266:264,1,64
306,337,81146,1,8,0:0:0:0:
388,326,81390,2,0,L|381:246,1,64,4|0,0:0|0:0,0:0:0:0:
435,197,81878,2,0,L|442:117,1,64,8|0,0:0|0:0,0:0:0:0:
480,61,82366,38,4,P|450:51|418:54,1,64
360,114,82854,1,8,0:0:0:0:
315,43,83097,2,4,P|291:63|277:93,1,64
300,173,83585,1,8,0:0:0:0:
216,175,83829,6,4,P|222:205|240:232,1,64
322,253,84317,1,8,0:0:0:0:
11,374,85293,1,4,0:0:0:0:
62,45,86268,37,4,0:0:0:0:
192,149,86756,1,4,0:0:0:0:
37,210,87244,1,4,0:0:0:0:
