osu file format v14

[General]
AudioFilename: audio.mp3
AudioLeadIn: 0
PreviewTime: 70531
Countdown: 0
SampleSet: Soft
StackLeniency: 0.4
Mode: 0
LetterboxInBreaks: 0
WidescreenStoryboard: 1

[Editor]
DistanceSpacing: 1
BeatDivisor: 4
GridSize: 16
TimelineZoom: 1.099999

[Metadata]
Title:More One Night
TitleUnicode:More One Night
Artist:Chito (CV: Minase Inori), Yuuri (CV: Kubo Yurika)
ArtistUnicode:チト(CV:水瀬いのり)、ユーリ(CV:久保ユリカ)
Creator:StarrStyx
Version:Normal
Source:少女終末旅行
Tags:girls last tour shoujo shuumatsu ryokou ed ending warpyc vinxis omar kamal mishima yurara regou
BeatmapID:1558860
BeatmapSetID:737964

[Difficulty]
HPDrainRate:3
CircleSize:3
OverallDifficulty:4
ApproachRate:5
SliderMultiplier:1.2
SliderTickRate:1

[Events]
//Background and Video events
0,0,"m1n_bg.jpg",0,0
//Break Periods
//Storyboard Layer 0 (Background)
//Storyboard Layer 1 (Fail)
//Storyboard Layer 2 (Pass)
//Storyboard Layer 3 (Foreground)
//Storyboard Sound Samples

[TimingPoints]
410,487.80487804878,4,2,1,30,1,0
1385,-100,4,2,1,40,0,0
2361,-100,4,2,1,50,0,0
2849,-100,4,2,1,55,0,0
3336,-100,4,2,1,60,0,0
3824,-100,4,2,1,65,0,0
5775,-100,4,2,1,60,0,0
6263,-100,4,2,1,40,0,0
10166,-100,4,2,1,40,0,0
13092,-100,4,2,1,60,0,0
14068,-100,4,2,1,70,0,0
20897,-100,4,2,1,60,0,0
21385,-100,4,2,1,50,0,0
21873,-100,4,2,2,45,0,0
27239,-100,4,2,2,45,0,0
29190,-100,4,2,2,45,0,0
30166,-100,4,2,2,45,0,0
31141,-100,4,2,2,45,0,0
34068,-100,4,2,2,45,0,0
35531,-100,4,2,2,50,0,0
35775,-100,4,2,2,55,0,0
36019,-100,4,2,2,60,0,0
36263,-100,4,2,2,65,0,0
36507,-100,4,2,2,70,0,0
36995,-100,4,2,1,60,0,0
37361,-100,4,2,1,5,0,0
37483,-100,4,2,1,50,0,0
52605,-100,4,2,1,40,0,0
53092,-100,4,2,1,70,0,1
70653,-100,4,2,1,60,0,0

[Colours]
Combo1 : 188,188,188
Combo2 : 0,202,101
Combo3 : 239,247,94
Combo4 : 186,116,116

[HitObjects]
45,294,410,6,0,P|101:270|162:278,1,120,4|4,0:0|0:0,0:0:0:0:
273,309,1385,2,0,P|329:333|390:325,1,120,4|4,0:0|0:0,0:0:0:0:
475,245,2361,2,0,L|492:121,1,120,4|4,0:0|0:0,0:0:0:0:
408,39,3336,2,0,L|272:54,1,120,4|4,0:0|0:0,0:0:0:0:
288,52,5775,5,4,0:0:0:0:
168,44,6263,6,0,P|108:39|56:82,1,120,6|8,0:0|0:0,0:0:0:0:
42,129,6995,1,0,0:0:0:0:
42,189,7239,2,0,L|52:323,1,120,0|8,0:0|0:0,0:0:0:0:
159,359,8214,6,0,P|191:299|179:243,1,120,2|8,0:0|0:0,0:0:0:0:
154,196,8946,1,2,0:0:0:0:
194,151,9190,2,0,L|325:164,1,120,0|8,0:0|0:0,0:0:0:0:
362,53,10166,6,0,P|420:47|468:82,1,120,2|8,0:0|0:0,0:0:0:0:
483,140,10897,1,0,0:0:0:0:
453,192,11141,2,0,L|464:319,1,120,0|8,0:0|0:0,0:0:0:0:
343,319,12117,6,0,P|286:297|223:322,1,120,2|8,0:0|0:0,0:0:0:0:
179,345,12849,1,2,0:0:0:0:
122,324,13092,2,0,L|113:197,1,120,4|8,0:3|0:0,0:0:0:0:
54,99,14068,6,0,P|120:72|174:83,1,120,4|8,0:3|0:0,0:0:0:0:
218,109,14800,1,0,0:0:0:0:
267,74,15044,2,0,L|396:89,1,120,0|8,0:0|0:0,0:0:0:0:
477,166,16019,6,0,L|487:300,1,120,4|8,0:3|0:0,0:0:0:0:
465,342,16751,1,0,0:0:0:0:
407,323,16995,2,0,P|355:300|284:315,1,120,0|8,0:0|0:0,0:0:0:0:
181,269,17970,6,0,L|191:196,3,60,4|8|4|8,0:3|0:3|0:3|0:3,0:0:0:0:
145,167,18946,2,0,L|135:94,3,60,4|8|4|8,0:3|0:3|0:3|0:3,0:0:0:0:
91,67,19922,6,0,L|271:52,1,180,8|4,0:3|0:3,0:0:0:0:
320,85,20897,2,0,P|374:116|448:95,1,120,2|8,0:3|0:0,0:0:0:0:
499,204,21873,6,0,L|481:334,1,120,4|8,0:0|0:0,0:0:0:0:
433,357,22605,1,0,0:0:0:0:
382,324,22849,2,0,P|327:309|273:336,1,120,2|8,0:0|0:0,0:0:0:0:
163,285,23824,6,0,P|130:297|93:290,1,60,2|0,0:0|0:0,0:0:0:0:
45,301,24312,2,0,P|24:272|22:234,1,60,8|0,0:0|0:0,0:0:0:0:
48,194,24800,1,2,0:0:0:0:
22,76,25288,5,8,0:0:0:0:
135,37,25775,2,0,L|196:54,1,60,2|0,0:0|0:0,0:0:0:0:
246,79,26263,2,0,L|303:62,1,60,8|0,0:0|0:0,0:0:0:0:
363,69,26751,1,2,0:0:0:0:
461,137,27239,1,8,0:0:0:0:
354,192,27727,6,0,P|349:223|362:255,1,60,2|0,0:0|0:0,0:0:0:0:
407,283,28214,2,0,P|412:314|399:346,1,60,8|0,0:0|0:0,0:0:0:0:
356,379,28702,1,2,0:0:0:0:
280,285,29190,1,8,0:0:0:0:
170,333,29678,6,0,L|36:318,1,120,2|8,0:0|0:0,0:0:0:0:
13,272,30409,1,0,0:0:0:0:
27,213,30653,2,0,P|11:157|40:99,1,120,2|8,0:0|0:0,0:0:0:0:
161,46,31629,6,0,L|172:112,1,60,2|0,0:0|0:0,0:0:0:0:
181,164,32117,2,0,L|170:230,1,60,8|0,0:0|0:0,0:0:0:0:
141,275,32605,1,2,0:0:0:0:
238,344,33092,1,8,0:0:0:0:
330,267,33580,6,0,P|392:289|452:272,1,120,2|8,0:0|0:0,0:0:0:0:
481,230,34312,1,0,0:0:0:0:
467,171,34556,2,0,L|485:48,1,120,2|8,0:0|0:0,0:0:0:0:
368,83,35531,6,0,L|306:97,1,60,8|8,0:0|0:0,0:0:0:0:
256,67,36019,2,0,L|197:53,1,60,8|8,0:0|0:0,0:0:0:0:
146,86,36507,2,0,P|91:67|18:88,1,120,8|2,0:0|0:3,0:0:0:0:
83,188,37483,6,0,B|106:247|106:247|82:313,1,120,2|8,0:3|0:0,0:0:0:0:
58,353,38214,1,0,0:0:0:0:
110,381,38458,2,0,L|238:368,1,120,2|8,0:0|0:0,0:0:0:0:
349,377,39434,6,0,P|360:350|361:316,1,60,2|0,0:3|0:0,0:0:0:0:
415,293,39922,2,0,P|403:266|380:241,1,60,8|0,0:0|0:0,0:0:0:0:
325,227,40409,1,2,0:0:0:0:
412,144,40897,1,8,0:0:0:0:
337,50,41385,6,0,L|203:58,1,120,2|8,0:3|0:0,0:0:0:0:
162,31,42117,1,0,0:0:0:0:
113,66,42361,2,0,B|80:118|80:118|107:187,1,120,2|8,0:0|0:0,0:0:0:0:
196,245,43336,6,0,L|75:257,1,120,2|8,0:3|0:0,0:0:0:0:
163,339,44312,2,0,L|369:319,1,180,4|0,0:0|0:0,0:0:0:0:
397,344,45288,6,0,P|383:280|409:231,1,120,2|8,0:3|0:0,0:0:0:0:
451,193,46019,1,0,0:0:0:0:
412,146,46263,2,0,L|431:27,1,120,2|8,0:0|0:0,0:0:0:0:
320,75,47239,6,0,B|255:95|255:95|191:75,1,120,2|8,0:3|0:0,0:0:0:0:
151,52,47970,1,0,0:0:0:0:
98,80,48214,2,0,L|107:210,1,120,8|8,0:3|0:0,0:0:0:0:
47,304,49190,5,2,0:3:0:0:
215,240,49922,2,0,L|281:265,1,60,2|4,0:3|0:0,0:0:0:0:
432,340,50897,1,2,0:3:0:0:
461,287,51141,2,0,P|470:260|465:222,1,60,2|2,0:3|0:3,0:0:0:0:
412,203,51629,2,0,P|403:176|408:138,1,60,2|2,0:3|0:3,0:0:0:0:
443,98,52117,1,4,0:0:0:0:
348,24,52605,1,2,0:0:0:0:
294,131,53092,6,0,L|164:120,1,120,2|8,0:0|0:0,0:0:0:0:
120,142,53824,1,0,0:0:0:0:
82,96,54068,2,0,P|69:55|18:25,2,90,2|0|0,0:0|0:0|0:0,0:0:0:0:
120,142,55044,6,0,L|107:228,1,60,2|0,0:0|0:0,0:0:0:0:
70,245,55531,2,0,L|83:331,1,60,8|0,0:0|0:0,0:0:0:0:
55,359,56019,1,2,0:0:0:0:
162,304,56507,1,2,0:3:0:0:
262,369,56995,6,0,L|407:360,1,120,2|8,0:0|0:0,0:0:0:0:
417,313,57727,1,0,0:0:0:0:
474,327,57970,2,0,P|504:294|510:240,2,90,2|0|0,0:0|0:0|0:0,0:0:0:0:
417,313,58946,6,0,L|409:242,1,60,2|0,0:0|0:0,0:0:0:0:
366,211,59434,2,0,L|374:140,1,60,8|0,0:0|0:0,0:0:0:0:
417,110,59922,1,2,0:3:0:0:
316,45,60409,1,2,0:3:0:0:
216,112,60897,6,0,L|230:251,1,120,2|8,0:0|0:0,0:0:0:0:
200,284,61629,1,0,0:0:0:0:
242,326,61873,2,0,P|282:352|339:341,2,90,2|0|0,0:0|0:0|0:0,0:0:0:0:
200,284,62849,6,0,P|166:287|129:273,1,60,2|0,0:0|0:0,0:0:0:0:
84,298,63336,2,0,P|64:270|58:231,1,60,8|0,0:0|0:0,0:0:0:0:
80,189,63824,1,2,0:0:0:0:
155,95,64312,1,8,0:0:0:0:
234,184,64800,6,0,L|367:172,1,120,2|8,0:0|0:0,0:0:0:0:
399,134,65531,1,0,0:0:0:0:
443,174,65775,2,0,B|472:207|472:207|447:298,1,120,2|8,0:0|0:0,0:0:0:0:
434,337,66507,1,0,0:0:0:0:
374,327,66751,6,0,P|338:324|305:340,1,60,4|8,0:3|0:3,0:0:0:0:
258,351,67239,2,0,P|222:354|189:338,1,60,4|8,0:3|0:3,0:0:0:0:
153,307,67727,1,4,0:0:0:0:
256,192,67970,12,0,69677,0:0:0:0:
118,68,70653,6,0,L|132:135,1,60,6|0,0:0|0:0,0:0:0:0:
117,185,71141,1,8,0:0:0:0:
82,233,71385,2,0,P|72:267|89:308,1,60,0|2,0:0|0:0,0:0:0:0:
183,346,72117,6,0,P|221:344|252:327,1,60,8|0,0:0|0:0,0:0:0:0:
289,300,72605,1,2,0:0:0:0:
340,331,72849,2,0,P|371:344|411:341,1,60,0|8,0:0|0:0,0:0:0:0:
442,304,73336,1,0,0:0:0:0:
478,256,73580,2,0,L|471:132,1,120,2|2,0:3|0:3,0:0:0:0:
398,40,74556,6,0,L|336:59,1,60,2|0,0:0|0:0,0:0:0:0:
296,98,75044,1,8,0:0:0:0:
245,65,75288,2,0,P|216:51|171:54,1,60,0|2,0:0|0:0,0:0:0:0:
73,82,76019,6,0,P|64:115|82:159,1,60,8|0,0:0|0:0,0:0:0:0:
102,189,76507,1,2,0:0:0:0:
57,228,76751,2,0,P|46:258|57:294,1,60,0|8,0:0|0:0,0:0:0:0:
90,331,77239,1,0,0:0:0:0:
134,372,77483,2,0,L|273:368,1,120,2|2,0:3|0:3,0:0:0:0:
373,371,78458,6,0,P|385:346|382:304,1,60,6|0,0:0|0:0,0:0:0:0:
340,273,78946,1,8,0:0:0:0:
291,237,79190,2,0,P|279:212|282:170,1,60,0|2,0:0|0:0,0:0:0:0:
395,151,79922,6,0,P|425:159|461:148,1,60,8|0,0:0|0:0,0:0:0:0:
479,100,80409,1,2,0:0:0:0:
443,51,80653,2,0,P|413:44|385:52,1,60,0|8,0:0|0:0,0:0:0:0:
334,83,81141,1,0,0:0:0:0:
274,85,81385,2,0,L|148:66,1,120,2|2,0:3|0:3,0:0:0:0:
36,84,82361,6,0,P|63:125|60:163,1,60,2|0,0:0|0:0,0:0:0:0:
29,183,82849,1,8,0:0:0:0:
62,232,83092,2,0,P|87:251|135:248,1,60,0|2,0:0|0:0,0:0:0:0:
167,224,83580,1,0,0:0:0:0:
215,259,83824,2,0,L|279:252,1,60,8|0,0:0|0:0,0:0:0:0:
331,271,84312,5,4,0:3:0:0:
439,322,84800,1,4,0:3:0:0:
422,203,85288,2,0,P|451:152|433:80,1,120,4|4,0:3|0:3,0:0:0:0:
329,50,86263,5,4,0:0:0:0:
253,99,86751,1,8,0:3:0:0:
183,41,87239,1,8,0:3:0:0:
107,90,87727,1,4,0:0:0:0:
