osu file format v14

[General]
AudioFilename: audio.mp3
AudioLeadIn: 0
PreviewTime: 70531
Countdown: 0
SampleSet: Soft
StackLeniency: 0.5
Mode: 0
LetterboxInBreaks: 0
WidescreenStoryboard: 0

[Editor]
DistanceSpacing: 0.4
BeatDivisor: 4
GridSize: 16
TimelineZoom: 1.899999

[Metadata]
Title:More One Night
TitleUnicode:More One Night
Artist:Chito (CV: Minase Inori), Yuuri (CV: Kubo Yurika)
ArtistUnicode:チト(CV:水瀬いのり)、ユーリ(CV:久保ユリカ)
Creator:StarrStyx
Version:Final Tour
Source:少女終末旅行
Tags:girls last tour shoujo shuumatsu ryokou ed ending warpyc vinxis omar kamal mishima yurara regou
BeatmapID:1557370
BeatmapSetID:737964

[Difficulty]
HPDrainRate:6
CircleSize:4.5
OverallDifficulty:8.3
ApproachRate:9.2
SliderMultiplier:2.4
SliderTickRate:1

[Events]
//Background and Video events
0,0,"m1n_bg.jpg",0,0
//Break Periods
//Storyboard Layer 0 (Background)
//Storyboard Layer 1 (Fail)
//Storyboard Layer 2 (Pass)
//Storyboard Layer 3 (Foreground)
//Storyboard Sound Samples

[TimingPoints]
410,487.80487804878,4,2,1,30,1,0
410,-166.666666666667,4,2,1,30,0,0
1385,-133.333333333333,4,2,1,40,0,0
2361,-111.111111111111,4,2,1,50,0,0
2849,-90.9090909090909,4,2,1,55,0,0
3336,-80,4,2,1,60,0,0
3824,-71.4285714285714,4,2,1,65,0,0
5775,-66.6666666666667,4,2,1,60,0,0
6141,-62.5,4,2,1,5,0,0
6263,-111.111111111111,4,2,1,40,0,0
9678,-111.111111111111,4,2,1,40,0,0
10044,-111.111111111111,4,2,1,5,0,0
10166,-111.111111111111,4,2,1,40,0,0
13092,-90.9090909090909,4,2,1,60,0,0
13580,-111.111111111111,4,2,1,60,0,0
13946,-111.111111111111,4,2,1,5,0,0
14068,-100,4,2,1,70,0,0
16019,-90.9090909090909,4,2,1,70,0,0
17970,-200,4,2,1,70,0,0
18458,-153.846153846154,4,2,1,70,0,0
18946,-125,4,2,1,70,0,0
19434,-105.263157894737,4,2,1,70,0,0
20897,-105.263157894737,4,2,1,60,0,0
21141,-105.263157894737,4,2,1,40,0,0
21385,-142.857142857143,4,2,1,50,0,0
21751,-142.857142857143,4,2,1,5,0,0
21873,-90.9090909090909,4,2,2,45,0,0
22361,-80,4,2,2,45,0,0
22849,-90.9090909090909,4,2,2,45,0,0
23336,-80,4,2,2,45,0,0
23824,-71.4285714285714,4,2,2,45,0,0
25775,-80,4,2,2,45,0,0
26751,-90.9090909090909,4,2,2,45,0,0
27117,-90.9090909090909,4,2,2,5,0,0
27239,-80,4,2,2,45,0,0
27727,-71.4285714285714,4,2,2,45,0,0
28702,-90.9090909090909,4,2,2,45,0,0
29068,-90.9090909090909,4,2,2,5,0,0
29190,-80,4,2,2,45,0,0
29678,-90.9090909090909,4,2,2,45,0,0
30044,-90.9090909090909,4,2,2,5,0,0
30166,-80,4,2,2,45,0,0
30653,-90.9090909090909,4,2,2,45,0,0
31019,-90.9090909090909,4,2,2,5,0,0
31141,-80,4,2,2,45,0,0
31629,-71.4285714285714,4,2,2,45,0,0
33580,-90.9090909090909,4,2,2,45,0,0
33946,-90.9090909090909,4,2,2,5,0,0
34068,-80,4,2,2,45,0,0
35531,-83.3333333333333,4,2,2,50,0,0
35775,-68.9655172413793,4,2,2,55,0,0
36019,-58.8235294117647,4,2,2,60,0,0
36263,-51.2820512820513,4,2,2,65,0,0
36507,-45.4545454545454,4,2,2,70,0,0
36995,-125,4,2,1,60,0,0
37361,-125,4,2,1,5,0,0
37483,-125,4,2,1,50,0,0
48214,-111.111111111111,4,2,1,50,0,0
49434,-250,4,2,1,50,0,0
51141,-133.333333333333,4,2,1,50,0,0
52605,-125,4,2,1,40,0,0
53092,-58.8235294117647,4,2,2,70,0,1
53580,-55.5555555555556,4,2,2,70,0,1
54068,-52.6315789473684,4,2,2,70,0,1
54556,-57.1428571428571,4,2,2,70,0,1
55044,-52.6315789473684,4,2,2,70,0,1
56751,-200,4,2,2,70,0,1
56995,-58.8235294117647,4,2,2,70,0,1
57483,-55.5555555555556,4,2,2,70,0,1
57970,-52.6315789473684,4,2,2,70,0,1
58458,-57.1428571428571,4,2,2,70,0,1
58946,-52.6315789473684,4,2,2,70,0,1
60653,-200,4,2,2,70,0,1
60897,-58.8235294117647,4,2,2,70,0,1
61385,-52.6315789473684,4,2,2,70,0,1
61873,-47.6190476190476,4,2,2,70,0,1
62361,-57.1428571428571,4,2,2,70,0,1
62849,-52.6315789473684,4,2,2,70,0,1
63824,-50,4,2,2,70,0,1
64312,-40,4,2,2,70,0,1
64800,-66.6666666666667,4,2,2,70,0,1
65288,-57.1428571428571,4,2,2,70,0,1
65775,-66.6666666666667,4,2,2,70,0,1
66263,-57.1428571428571,4,2,2,70,0,1
70653,-66.6666666666667,4,2,1,60,0,0
71141,-52.6315789473684,4,2,1,60,0,0
71385,-66.6666666666667,4,2,1,60,0,0
71873,-52.6315789473684,4,2,1,60,0,0
72117,-66.6666666666667,4,2,1,60,0,0
72605,-52.6315789473684,4,2,1,60,0,0
72849,-66.6666666666667,4,2,1,60,0,0
73336,-52.6315789473684,4,2,1,60,0,0
73580,-100,4,2,1,60,0,0
74556,-66.6666666666667,4,2,1,60,0,0
75044,-52.6315789473684,4,2,1,60,0,0
75288,-66.6666666666667,4,2,1,60,0,0
75775,-52.6315789473684,4,2,1,60,0,0
76019,-66.6666666666667,4,2,1,60,0,0
76507,-52.6315789473684,4,2,1,60,0,0
76751,-66.6666666666667,4,2,1,60,0,0
77239,-52.6315789473684,4,2,1,60,0,0
78214,-200,4,2,1,60,0,0
78458,-52.6315789473684,4,2,1,60,0,0
78946,-47.6190476190476,4,2,1,60,0,0
79190,-58.8235294117647,4,2,1,60,0,0
79678,-47.6190476190476,4,2,1,60,0,0
79922,-58.8235294117647,4,2,1,60,0,0
80409,-47.6190476190476,4,2,1,60,0,0
80653,-58.8235294117647,4,2,1,60,0,0
81141,-47.6190476190476,4,2,1,60,0,0
81385,-100,4,2,1,60,0,0
82361,-58.8235294117647,4,2,1,60,0,0
82849,-47.6190476190476,4,2,1,60,0,0
83092,-58.8235294117647,4,2,1,60,0,0
83580,-47.6190476190476,4,2,1,60,0,0
83824,-58.8235294117647,4,2,1,60,0,0
86751,-83.3333333333333,4,2,1,60,0,0
87239,-71.4285714285714,4,2,1,60,0,0
87483,-100,4,2,1,60,0,0

[Colours]
Combo1 : 188,188,188
Combo2 : 0,202,101
Combo3 : 239,247,94
Combo4 : 186,116,116

[HitObjects]
235,110,410,6,0,L|195:122,3,35.9999989013672,4|0|0|0,0:0|0:0|0:0|0:0,0:0:0:0:
62,166,897,2,0,L|96:155,3,35.9999989013672,4|0|0|0,0:0|0:0|0:0|0:0,0:0:0:0:
116,36,1385,6,0,L|129:80,3,45.0000017166138,4|0|0|0,0:0|0:0|0:0|0:0,0:0:0:0:
182,235,1873,2,0,L|170:192,3,45.0000017166138,4|0|0|0,0:0|0:0|0:0|0:0,0:0:0:0:
98,296,2361,6,0,L|41:286,3,53.9999983520508,4|0|0|0,0:0|0:0|0:0|0:0,0:0:0:0:
243,366,2849,6,0,L|166:380,3,66.0000020141602,4|0|0|0,0:0|0:0|0:0|0:0,0:0:0:0:
348,272,3336,6,0,L|251:254,3,75,4|0|0|0,0:0|0:0|0:0|0:0,0:0:0:0:
468,363,3824,6,0,L|385:377,3,83.9999974365235,4|0|0|0,0:0|0:0|0:0|0:0,0:0:0:0:
312,166,5775,6,0,B|479:136|479:136|386:200,1,270.000010299683,4|0,0:0|0:0,0:0:0:0:
333,262,6263,6,0,L|452:283,1,107.999996704102,6|0,0:0|0:0,0:0:0:0:
198,370,6751,2,0,B|262:351|262:351|313:373,1,107.999996704102,8|0,0:0|0:0,0:0:0:0:
143,303,7117,2,0,B|79:284|79:284|28:306,1,107.999996704102,2|2,0:0|0:0,0:0:0:0:
42,301,7605,1,2,0:0:0:0:
0,239,7727,1,8,0:0:0:0:
145,183,7970,1,0,0:0:0:0:
112,74,8214,6,0,B|37:60|37:60|6:27,2,107.999996704102,2|0|8,0:0|0:0|0:0,0:0:0:0:
237,30,8946,1,2,0:0:0:0:
237,30,9068,2,0,B|213:75|213:75|239:143,1,107.999996704102,2|0,0:0|0:0,0:0:0:0:
389,222,9556,1,2,0:0:0:0:
451,183,9678,6,0,L|281:208,1,161.999995056153,8|0,0:0|0:0,0:0:0:0:
290,206,10166,6,0,P|254:249|276:307,1,107.999996704102,2|0,0:0|0:0,0:0:0:0:
93,338,10653,2,0,L|205:360,1,107.999996704102,8|0,0:0|0:0,0:0:0:0:
264,295,11019,2,0,L|369:274,1,107.999996704102,2|2,0:0|0:0,0:0:0:0:
369,274,11507,1,2,0:0:0:0:
426,333,11629,1,8,0:0:0:0:
502,193,11873,1,0,0:0:0:0:
322,89,12117,6,0,B|366:104|366:104|451:86,2,107.999996704102,2|0|8,0:0|0:0|0:0,0:0:0:0:
184,25,12849,2,0,L|178:83,1,53.9999983520508,2|0,0:0|0:0,0:0:0:0:
63,86,13092,6,0,L|77:220,1,132.00000402832,4|0,0:3|0:0,0:0:0:0:
153,253,13418,2,0,P|160:231|160:206,1,44.0000013427735,0|2,0:0|0:0,0:0:0:0:
76,217,13580,6,0,B|48:327|48:327|75:368,1,161.999995056153,8|0,0:0|0:0,0:0:0:0:
225,283,14068,6,0,L|347:298,1,120,4|0,0:3|0:0,0:0:0:0:
344,297,14434,1,8,0:3:0:0:
439,221,14556,2,0,L|457:346,1,120,8|0,0:0|0:0,0:0:0:0:
323,253,14922,2,0,B|323:227|323:227|348:201,1,60,4|0,0:3|0:0,0:0:0:0:
406,128,15166,2,0,B|428:141|428:141|438:175,1,60,8|0,0:3|0:0,0:0:0:0:
306,137,15409,1,8,0:3:0:0:
306,137,15531,2,0,B|283:150|283:150|181:125,1,120,8|0,0:0|0:0,0:0:0:0:
192,127,15897,1,4,0:3:0:0:
88,191,16019,6,0,L|69:343,1,132.00000402832,4|0,0:3|0:0,0:0:0:0:
71,321,16385,1,8,0:3:0:0:
256,259,16507,2,0,B|160:277|160:277|204:292,1,132.00000402832,8|0,0:0|0:0,0:0:0:0:
354,290,16873,2,0,L|416:362,1,66.0000020141602,4|0,0:3|0:0,0:0:0:0:
256,259,17117,2,0,L|162:277,1,66.0000020141602,8|0,0:3|0:0,0:0:0:0:
332,190,17361,1,8,0:3:0:0:
332,190,17483,2,0,L|382:49,1,132.00000402832,8|0,0:0|0:0,0:0:0:0:
376,65,17849,1,4,0:3:0:0:
266,79,17970,6,0,L|274:104,3,15,4|0|0|0,0:3|0:0|0:0|0:0,0:0:0:0:
196,132,18214,2,0,L|188:157,3,15,8|0|0|0,0:3|0:0|0:0|0:0,0:0:0:0:
112,99,18458,6,0,L|76:105,3,19.4999991073609,4|0|0|0,0:3|0:0|0:0|0:0,0:0:0:0:
12,172,18702,2,0,L|30:177,3,19.4999991073609,8|0|0|0,0:3|0:0|0:0|0:0,0:0:0:0:
119,228,18946,6,0,L|130:248,3,24,4|0|0|0,0:3|0:0|0:0|0:0,0:0:0:0:
76,327,19190,2,0,L|69:350,3,24,8|0|0|0,0:3|0:0|0:0|0:0,0:0:0:0:
172,334,19434,6,0,L|202:316,3,28.4999992389679,4|0|0|0,0:3|0:0|0:0|0:0,0:0:0:0:
287,283,19678,2,0,L|314:290,3,28.4999992389679,8|0|0|0,0:3|0:0|0:0|0:0,0:0:0:0:
385,358,19922,5,8,0:3:0:0:
385,358,20044,1,8,0:3:0:0:
433,306,20166,5,4,0:3:0:0:
433,306,20288,1,4,0:3:0:0:
384,236,20409,5,8,0:3:0:0:
384,236,20531,1,8,0:3:0:0:
451,161,20653,5,4,0:3:0:0:
451,161,20775,1,4,0:3:0:0:
376,74,20897,5,2,0:3:0:0:
354,64,21019,1,2,0:3:0:0:
265,113,21141,5,2,0:3:0:0:
232,123,21263,1,2,0:3:0:0:
138,74,21385,6,0,L|2:89,1,125.999996154785,8|0,0:0|0:0,0:0:0:0:
167,160,21873,6,0,B|128:223|128:223|167:285|167:285|154:353,1,198.000006042481,4|0,0:0|0:0,0:0:0:0:
78,295,22361,6,0,B|41:324|41:324|75:350,1,75,8|0,0:0|0:0,0:0:0:0:
185,297,22605,2,0,L|170:370,1,75
228,222,22849,6,0,B|283:209|283:209|322:257|322:257|404:271,1,198.000006042481,2|0,0:0|0:0,0:0:0:0:
400,270,23336,6,0,L|419:196,1,75,8|0,0:0|0:0,0:0:0:0:
287,268,23580,2,0,L|294:342,1,75
418,197,23824,6,0,B|389:170|389:170|341:177,1,83.9999974365235,2|0,0:0|0:0,0:0:0:0:
215,107,24068,2,0,B|246:82|246:82|293:93,1,83.9999974365235
396,130,24312,2,0,P|415:94|405:54,1,83.9999974365235,8|0,0:0|0:0,0:0:0:0:
266,195,24556,2,0,L|179:180,1,83.9999974365235
49,219,24800,1,2,0:0:0:0:
49,219,25044,5,2,0:0:0:0:
92,149,25166,1,2,0:0:0:0:
121,266,25288,2,0,L|141:353,1,83.9999974365235,8|0,0:0|0:0,0:0:0:0:
18,289,25531,2,0,B|16:251|16:251|50:216,1,83.9999974365235
154,189,25775,6,0,L|91:148,1,75,2|0,0:0|0:0,0:0:0:0:
232,151,26019,2,0,L|305:126,1,75
413,49,26263,2,0,B|388:85|388:85|404:126,1,75,8|0,0:0|0:0,0:0:0:0:
505,214,26507,2,0,B|432:200,1,75
323,353,26751,6,0,B|345:216|345:216|297:268,1,198.000006042481,2|0,0:0|0:0,0:0:0:0:
425,337,27239,6,0,B|417:301|417:301|442:269,1,75,8|0,0:0|0:0,0:0:0:0:
304,259,27483,2,0,B|276:283|276:283|236:278,1,75
176,343,27727,6,0,L|81:359,1,83.9999974365235,2|0,0:0|0:0,0:0:0:0:
14,280,27970,2,0,L|22:197,1,83.9999974365235
193,371,28214,6,0,L|96:370,1,83.9999974365235,8|0,0:0|0:0,0:0:0:0:
24,269,28458,2,0,L|50:190,1,83.9999974365235
161,126,28702,6,0,B|188:78|188:78|98:101|98:101|40:83,1,198.000006042481,2|0,0:0|0:0,0:0:0:0:
234,146,29190,6,0,L|270:81,1,75,8|0,0:0|0:0,0:0:0:0:
123,194,29434,2,0,L|143:265,1,75
247,335,29678,6,0,B|296:316|296:316|392:338|392:338|357:296,1,198.000006042481,2|0,0:0|0:0,0:0:0:0:
415,250,30166,6,0,L|464:309,1,75,8|0,0:0|0:0,0:0:0:0:
315,236,30409,2,0,B|279:227|279:227|238:243,1,75
381,174,30653,6,0,B|401:111|401:111|365:54|365:54|425:25,1,198.000006042481,2|0,0:0|0:0,0:0:0:0:
311,123,31141,6,0,L|234:108,1,75,8|0,0:0|0:0,0:0:0:0:
119,28,31385,2,0,B|157:47|157:47|123:89,1,75
28,109,31629,6,0,L|41:202,1,83.9999974365235,2|0,0:0|0:0,0:0:0:0:
106,306,31873,2,0,L|28:274,1,83.9999974365235
63,93,32117,6,0,L|51:186,1,83.9999974365235,8|0,0:0|0:0,0:0:0:0:
101,342,32361,2,0,L|43:280,1,83.9999974365235
152,201,32605,1,2,0:0:0:0:
206,268,32849,5,2,0:0:0:0:
152,201,32970,1,2,0:0:0:0:
229,155,33092,2,0,B|200:125|200:125|213:82,1,83.9999974365235,8|0,0:0|0:0,0:0:0:0:
152,201,33336,2,0,B|123:170|123:170|82:180,1,83.9999974365235
206,268,33580,6,0,B|285:255|285:255|324:308|324:308|404:328,1,198.000006042481,2|0,0:0|0:0,0:0:0:0:
438,209,34068,6,0,B|394:215|394:215|371:235,1,75,8|0,0:0|0:0,0:0:0:0:
275,291,34312,2,0,L|287:370,1,75
144,302,34556,6,0,B|163:277|163:277|205:267,1,75,2|0,0:0|0:0,0:0:0:0:
95,220,34800,2,0,B|63:224|63:224|26:200,1,75
205,267,35044,2,0,B|235:274|235:274|260:310,1,75,8|0,0:0|0:0,0:0:0:0:
95,220,35288,2,0,B|69:201|69:201|60:158,1,75
129,79,35531,6,0,L|165:82,1,35.9999989013672,8|0,0:0|0:0,0:0:0:0:
129,79,35775,6,0,L|182:83,1,43.5000013275147,8|0,0:0|0:0,0:0:0:0:
129,79,36019,6,0,L|196:84,1,51.0000009727478,8|0,0:0|0:0,0:0:0:0:
129,79,36263,6,0,L|207:85,1,58.5000002231598,8|0,0:0|0:0,0:0:0:0:
129,79,36507,6,0,L|222:86,1,66.0000020141602,8|0,0:0|0:0,0:0:0:0:
454,62,36751,5,2,0:3:0:0:
497,120,36873,1,2,0:3:0:0:
448,173,36995,6,0,B|396:162|396:162|355:200|355:200|302:208,1,144,2|0,0:3|0:0,0:0:0:0:
273,142,37483,5,2,0:3:0:0:
250,134,37604,1,0,0:0:0:0:
189,88,37727,1,0,0:0:0:0:
166,96,37848,1,0,0:0:0:0:
99,59,37970,1,8,0:0:0:0:
99,59,38214,5,0,0:0:0:0:
88,80,38335,1,0,0:0:0:0:
30,145,38458,1,2,0:0:0:0:
35,168,38579,1,0,0:0:0:0:
106,227,38702,1,0,0:0:0:0:
106,227,38946,5,8,0:0:0:0:
100,250,39067,1,0,0:0:0:0:
29,301,39190,1,0,0:0:0:0:
5,294,39311,1,0,0:0:0:0:
89,357,39434,5,2,0:3:0:0:
113,350,39555,1,0,0:0:0:0:
185,289,39678,1,0,0:0:0:0:
194,311,39799,1,0,0:0:0:0:
274,361,39922,1,8,0:0:0:0:
296,366,40043,1,0,0:0:0:0:
369,306,40166,1,0,0:0:0:0:
391,301,40287,1,0,0:0:0:0:
474,344,40409,1,2,0:0:0:0:
474,344,40653,5,0,0:0:0:0:
480,322,40774,1,0,0:0:0:0:
416,266,40897,1,8,0:0:0:0:
410,244,41018,1,0,0:0:0:0:
459,175,41141,1,0,0:0:0:0:
459,175,41385,5,2,0:3:0:0:
465,153,41506,1,0,0:0:0:0:
390,113,41629,1,0,0:0:0:0:
385,90,41750,1,0,0:0:0:0:
308,56,41873,1,8,0:0:0:0:
308,56,42117,5,0,0:0:0:0:
287,66,42238,1,0,0:0:0:0:
224,126,42361,1,2,0:0:0:0:
202,118,42482,1,0,0:0:0:0:
152,47,42605,1,0,0:0:0:0:
152,47,42849,5,8,0:0:0:0:
129,51,42970,1,0,0:0:0:0:
56,106,43092,1,0,0:0:0:0:
65,127,43213,1,0,0:0:0:0:
129,193,43336,1,2,0:3:0:0:
125,215,43457,1,0,0:0:0:0:
65,272,43580,1,0,0:0:0:0:
71,293,43701,1,0,0:0:0:0:
130,348,43824,5,8,0:0:0:0:
130,348,44312,6,0,B|216:307|216:307|277:359|277:359|397:374,1,288,4|0,0:0|0:0,0:0:0:0:
466,277,45288,5,2,0:3:0:0:
459,252,45409,1,0,0:0:0:0:
373,281,45531,1,0,0:0:0:0:
351,267,45652,1,0,0:0:0:0:
286,332,45775,1,8,0:0:0:0:
286,332,46019,5,0,0:0:0:0:
260,337,46140,1,0,0:0:0:0:
194,272,46263,1,2,0:0:0:0:
170,260,46384,1,0,0:0:0:0:
89,306,46507,1,0,0:0:0:0:
89,306,46751,5,8,0:0:0:0:
77,281,46873,1,0,0:0:0:0:
27,204,46995,1,0,0:0:0:0:
39,179,47117,1,0,0:0:0:0:
108,119,47239,1,2,0:3:0:0:
108,119,47483,5,0,0:0:0:0:
102,92,47604,1,0,0:0:0:0:
193,71,47727,1,8,0:0:0:0:
207,47,47848,1,0,0:0:0:0:
296,79,47970,1,0,0:0:0:0:
296,79,48214,6,0,B|349:97|349:97|461:78,1,161.999995056153,8|0,0:3|0:0,0:0:0:0:
337,172,48702,2,0,L|226:134,1,107.999996704102,8|2,0:0|0:3,0:0:0:0:
151,176,49068,1,2,0:3:0:0:
104,103,49190,1,2,0:3:0:0:
104,103,49434,6,0,L|113:49,2,48,2|2|2,0:3|0:3|0:3,0:3:0:0:
64,321,50166,5,4,0:0:0:0:
64,321,50409,2,0,L|12:340,2,48,2|2|2,0:3|0:3|0:3,0:3:0:0:
182,237,51141,6,0,L|193:275,5,30.0000011444092,2|2|2|2|2|2,0:3|0:3|0:3|0:3|0:3|0:3,0:3:0:0:
268,322,51629,6,0,L|306:331,2,30.0000011444092,2|2|2,0:3|0:3|0:3,0:3:0:0:
356,267,51873,2,0,L|385:259,2,30.0000011444092,2|2|2,0:3|0:3|0:3,0:3:0:0:
458,327,52117,1,4,0:0:0:0:
458,327,52605,6,0,B|434:285|434:285|451:240,1,96,2|2,0:0|0:0,0:0:0:0:
356,267,53092,6,0,P|233:199|57:213,1,306.000005836487,2|0,0:0|0:0,0:0:0:0:
5,317,53580,2,0,P|154:312|289:201,1,323.999990112305,8|0,0:0|0:0,0:0:0:0:
461,104,54068,2,0,B|113:60,1,341.999990867615,2|0,0:0|0:0,0:0:0:0:
121,61,54556,6,0,B|145:95|145:95|121:178,1,105.000001001358,8|0,0:0|0:0,0:0:0:0:
54,268,54800,2,0,B|30:302|30:302|47:362,1,105.000001001358
204,227,55044,6,0,L|194:344,1,113.999996955872,2|0,0:0|0:0,0:0:0:0:
364,217,55288,2,0,L|315:113,1,113.999996955872
127,155,55531,2,0,B|80:169|80:169|11:142,1,113.999996955872,8|0,0:0|0:0,0:0:0:0:
204,227,55775,2,0,B|237:191|237:191|310:180,1,113.999996955872
441,238,56019,1,2,0:0:0:0:
441,238,56263,5,2,0:3:0:0:
379,162,56385,1,2,0:3:0:0:
442,87,56507,1,2,0:3:0:0:
442,87,56751,6,0,L|448:136,1,30,2|0,0:0|0:0,0:0:0:0:
503,161,56995,6,0,B|453:167|453:167|423:157|423:157|398:175|398:175|197:203,1,306.000005836487,2|0,0:0|0:0,0:0:0:0:
71,128,57483,2,0,B|13:83|13:83|202:49|202:49|169:102,1,323.999990112305,8|0,0:0|0:0,0:0:0:0:
22,355,57970,2,0,B|88:320|97:209|97:209|123:321|251:309,1,341.999990867615,2|0,0:0|0:0,0:0:0:0:
216,309,58458,6,0,B|255:303|255:303|279:313|279:313|326:306,1,105.000001001358,8|0,0:0|0:0,0:0:0:0:
434,256,58702,2,0,B|453:296|453:296|435:360,1,105.000001001358
318,307,58946,6,0,L|306:185,1,113.999996955872,2|0,0:0|0:0,0:0:0:0:
381,67,59190,2,0,L|501:86,1,113.999996955872
258,21,59434,2,0,B|237:68|237:68|265:138,1,113.999996955872,8|0,0:0|0:0,0:0:0:0:
43,109,59678,2,0,B|93:71|93:71|143:79,1,113.999996955872
260,126,59922,5,2,0:3:0:0:
279,226,60044,1,2,0:3:0:0:
223,311,60166,1,2,0:3:0:0:
123,331,60288,1,2,0:3:0:0:
38,274,60409,1,2,0:3:0:0:
38,274,60653,6,0,L|72:252,1,30,2|0,0:3|0:0,0:0:0:0:
123,331,60897,6,0,P|91:186|150:37,1,306.000005836487,2|0,0:0|0:0,0:0:0:0:
379,85,61385,2,0,P|249:157|52:135,1,341.999990867615,8|0,0:0|0:0,0:0:0:0:
65,336,61873,2,0,B|6:316|6:316|340:289,1,377.999988464356,2|0,0:0|0:0,0:0:0:0:
440,209,62361,6,0,L|426:336,1,105.000001001358,8|0,0:0|0:0,0:0:0:0:
320,290,62605,2,0,L|212:299,1,105.000001001358
65,336,62849,6,0,B|93:288|93:288|76:222,1,113.999996955872,2|0,0:0|0:0,0:0:0:0:
166,132,63092,2,0,B|219:117|219:117|270:146,1,113.999996955872
379,65,63336,2,0,L|495:84,1,113.999996955872,8|0,0:0|0:0,0:0:0:0:
289,258,63580,2,0,L|270:145,1,113.999996955872
72,18,63824,6,0,B|78:81|126:117|126:117|63:246|157:372,1,360,2|0,0:0|0:0,0:0:0:0:
28,294,64312,6,0,P|193:221|460:260,1,450,8|0,0:0|0:0,0:0:0:0:
425,331,64800,6,0,B|412:263|412:263|464:159|464:159|423:80,1,270.000010299683,2|0,0:0|0:0,0:0:0:0:
327,101,65288,6,0,B|378:110|378:110|427:82,1,105.000001001358,8|0,0:0|0:0,0:0:0:0:
256,217,65531,2,0,B|209:190|209:190|158:199,1,105.000001001358
18,92,65775,6,0,B|87:122|87:122|217:98|217:98|145:72,1,270.000010299683,2|0,0:0|0:0,0:0:0:0:
77,199,66263,6,0,L|62:312,1,105.000001001358,8|0,0:0|0:0,0:0:0:0:
235,374,66507,2,0,L|194:276,1,105.000001001358
263,192,66751,5,4,0:3:0:0:
256,217,66873,1,4,0:3:0:0:
332,163,66995,5,8,0:3:0:0:
338,191,67117,1,8,0:3:0:0:
383,101,67239,5,4,0:3:0:0:
405,126,67361,1,4,0:3:0:0:
451,33,67483,5,8,0:3:0:0:
488,45,67605,1,8,0:3:0:0:
368,28,67727,5,4,0:0:0:0:
256,192,67849,12,0,69678,0:0:0:0:
256,192,69922,5,2,0:0:0:0:
256,192,70044,1,2,0:0:0:0:
256,192,70166,1,2,0:0:0:0:
111,346,70653,6,0,P|155:340|193:311,1,90.0000034332277,6|0,0:0|0:0,0:0:0:0:
190,313,70897,2,0,P|203:271|190:228,1,90.0000034332277
190,229,71141,6,0,L|71:210,1,113.999996955872,8|0,0:0|0:0,0:0:0:0:
42,73,71385,6,0,P|80:98|132:99,1,90.0000034332277
123,100,71629,2,0,P|161:75|213:74,1,90.0000034332277,2|0,0:0|0:0,0:0:0:0:
204,72,71873,6,0,L|321:90,1,113.999996955872
437,46,72117,6,0,P|412:84|421:137,1,90.0000034332277,8|0,0:0|0:0,0:0:0:0:
415,126,72361,2,0,P|439:162|436:206,1,90.0000034332277
436,206,72605,6,0,L|308:222,1,113.999996955872,2|0,0:0|0:0,0:0:0:0:
392,313,72849,6,0,P|358:347|308:355,1,90.0000034332277
318,355,73092,2,0,P|271:342|239:303,1,90.0000034332277,8|0,0:0|0:0,0:0:0:0:
243,312,73336,6,0,L|115:330,1,113.999996955872
59,253,73580,6,0,L|51:293,1,30,2|0,0:3|0:0,0:0:0:0:
180,236,73824,2,0,L|213:213,1,30,2|0,0:3|0:0,0:0:0:0:
78,115,74068,2,0,L|91:153,1,30,2|0,0:3|0:0,0:0:0:0:
187,66,74312,2,0,L|193:36,1,30,2|0,0:3|0:0,0:0:0:0:
322,90,74556,6,0,P|361:117|410:116,1,90.0000034332277,2|0,0:0|0:0,0:0:0:0:
491,49,74800,2,0,P|448:69|424:112,1,90.0000034332277
420,133,75044,6,0,L|431:250,1,113.999996955872,8|0,0:0|0:0,0:0:0:0:
474,355,75288,6,0,P|440:336|391:341,1,90.0000034332277
331,235,75531,2,0,P|331:273|360:313,1,90.0000034332277,2|0,0:0|0:0,0:0:0:0:
362,344,75775,6,0,L|243:362,1,113.999996955872
209,261,76019,6,0,P|163:277|136:323,1,90.0000034332277,8|0,0:0|0:0,0:0:0:0:
26,271,76263,2,0,P|71:287|98:333,1,90.0000034332277
114,292,76507,6,0,L|129:172,1,113.999996955872,2|0,0:0|0:0,0:0:0:0:
48,70,76751,6,0,P|92:76|133:53,1,90.0000034332277
240,27,76995,2,0,P|197:39|170:75,1,90.0000034332277,8|0,0:0|0:0,0:0:0:0:
155,101,77239,6,0,L|261:143,1,113.999996955872
419,89,77483,5,2,0:3:0:0:
425,129,77605,1,2,0:3:0:0:
311,191,77727,1,2,0:3:0:0:
305,231,77849,1,2,0:3:0:0:
413,326,77970,1,2,0:3:0:0:
413,326,78214,6,0,L|408:296,1,30,2|0,0:0|0:0,0:0:0:0:
476,273,78458,6,0,P|421:268|383:226,1,113.999996955872,6|0,0:0|0:0,0:0:0:0:
305,231,78702,2,0,P|363:215|398:169,1,113.999996955872
462,145,78946,6,0,L|336:122,1,125.999996154785,8|0,0:0|0:0,0:0:0:0:
157,19,79190,6,0,P|203:53|256:58,1,102.000001945496
172,90,79434,2,0,P|121:102|84:134,1,102.000001945496,2|0,0:0|0:0,0:0:0:0:
34,63,79678,6,0,L|45:194,1,125.999996154785
116,357,79922,6,0,P|71:334|16:337,1,102.000001945496,8|0,0:0|0:0,0:0:0:0:
116,302,80166,2,0,P|165:290|202:256,1,102.000001945496
247,181,80409,6,0,L|233:311,1,125.999996154785,2|0,0:0|0:0,0:0:0:0:
345,356,80653,6,0,P|385:325|403:271,1,102.000001945496
484,263,80897,2,0,P|434:252|395:212,1,102.000001945496,8|0,0:0|0:0,0:0:0:0:
330,187,81141,6,0,L|473:164,1,125.999996154785
360,74,81385,6,0,L|369:44,1,30,2|0,0:3|0:0,0:0:0:0:
224,118,81629,2,0,L|239:143,1,30,2|0,0:3|0:0,0:0:0:0:
133,56,81873,2,0,L|103:62,1,30,2|0,0:3|0:0,0:0:0:0:
38,171,82117,2,0,L|46:199,1,30,2|0,0:3|0:0,0:0:0:0:
52,356,82361,6,0,P|92:322|144:316,1,102.000001945496,2|0,0:0|0:0,0:0:0:0:
186,242,82605,2,0,P|226:276|278:282,1,102.000001945496
350,234,82849,6,0,L|480:259,1,125.999996154785,8|0,0:0|0:0,0:0:0:0:
463,97,83092,6,0,P|417:122|353:115,1,102.000001945496
294,49,83336,2,0,P|248:24|184:31,1,102.000001945496,2|0,0:0|0:0,0:0:0:0:
127,112,83580,6,0,L|2:128,1,125.999996154785
143,207,83824,6,0,P|120:250|127:310,1,102.000001945496,8|0,0:0|0:0,0:0:0:0:
234,303,84068,2,0,P|269:336|329:345,1,102.000001945496
423,289,84312,5,4,0:3:0:0:
437,210,84556,1,8,0:3:0:0:
423,289,84800,1,4,0:3:0:0:
437,210,85044,1,8,0:3:0:0:
423,289,85288,5,4,0:3:0:0:
430,328,85409,1,4,0:3:0:0:
323,272,85531,5,8,0:3:0:0:
331,221,85652,1,8,0:3:0:0:
214,253,85775,5,4,0:3:0:0:
227,322,85896,1,4,0:3:0:0:
114,295,86019,5,8,0:3:0:0:
128,205,86140,1,8,0:3:0:0:
70,101,86263,5,4,0:0:0:0:
70,101,86751,6,0,B|140:121|140:121|291:100,1,215.999993408203,8|0,0:3|0:0,0:0:0:0:
281,101,87239,6,0,B|271:145|271:145|297:190,1,83.9999974365235,8|0,0:3|0:0,0:0:0:0:
365,237,87483,6,0,L|369:268,1,30,2|0,0:3|0:0,0:0:0:0:
428,308,87605,2,0,L|424:337,1,30,2|0,0:3|0:0,0:0:0:0:
368,384,87726,1,4,0:0:0:0:
