osu file format v14

[General]
AudioFilename: audio.mp3
AudioLeadIn: 0
PreviewTime: 70531
Countdown: 0
SampleSet: Soft
StackLeniency: 0.7
Mode: 0
LetterboxInBreaks: 0
WidescreenStoryboard: 1

[Editor]
DistanceSpacing: 0.9
BeatDivisor: 2
GridSize: 16
TimelineZoom: 1.099999

[Metadata]
Title:More One Night
TitleUnicode:More One Night
Artist:Chito (CV: Minase Inori), Yuuri (CV: Kubo Yurika)
ArtistUnicode:チト(CV:水瀬いのり)、ユーリ(CV:久保ユリカ)
Creator:StarrStyx
Version:Easy
Source:少女終末旅行
Tags:girls last tour shoujo shuumatsu ryokou ed ending warpyc vinxis omar kamal mishima yurara regou
BeatmapID:1559480
BeatmapSetID:737964

[Difficulty]
HPDrainRate:2
CircleSize:3
OverallDifficulty:2
ApproachRate:3
SliderMultiplier:1
SliderTickRate:1

[Events]
//Background and Video events
0,0,"m1n_bg.jpg",0,0
//Break Periods
//Storyboard Layer 0 (Background)
//Storyboard Layer 1 (Fail)
//Storyboard Layer 2 (Pass)
//Storyboard Layer 3 (Foreground)
//Storyboard Sound Samples

[TimingPoints]
410,487.80487804878,4,2,1,30,1,0
1385,-100,4,2,1,40,0,0
2361,-100,4,2,1,50,0,0
2849,-100,4,2,1,55,0,0
3336,-100,4,2,1,60,0,0
3824,-100,4,2,1,65,0,0
5775,-100,4,2,1,60,0,0
6263,-100,4,2,1,40,0,0
10166,-100,4,2,1,40,0,0
13092,-100,4,2,1,60,0,0
14068,-100,4,2,1,70,0,0
20897,-100,4,2,1,60,0,0
21385,-100,4,2,1,50,0,0
21873,-100,4,2,2,45,0,0
27239,-100,4,2,2,45,0,0
29190,-100,4,2,2,45,0,0
30166,-100,4,2,2,45,0,0
31141,-100,4,2,2,45,0,0
34068,-100,4,2,2,45,0,0
35531,-100,4,2,2,50,0,0
36019,-100,4,2,2,60,0,0
36507,-100,4,2,2,70,0,0
36995,-100,4,2,1,60,0,0
37483,-100,4,2,1,50,0,0
53092,-100,4,2,2,70,0,1
70653,-100,4,2,1,60,0,0

[Colours]
Combo1 : 188,188,188
Combo2 : 0,202,101
Combo3 : 239,247,94
Combo4 : 186,116,116

[HitObjects]
88,49,410,6,0,L|101:175,1,100,4|4,0:0|0:0,0:0:0:0:
64,231,1385,2,0,P|40:274|52:342,1,100,4|4,0:0|0:0,0:0:0:0:
128,293,2361,2,0,L|247:313,1,100,4|4,0:0|0:0,0:0:0:0:
294,250,3336,2,0,L|413:230,1,100,4|4,0:0|0:0,0:0:0:0:
392,233,5775,5,4,0:0:0:0:
454,168,6263,2,0,P|475:127|469:72,1,100,6|8,0:0|0:0,0:0:0:0:
388,35,7239,2,0,L|278:48,1,100,0|8,0:0|0:0,0:0:0:0:
213,95,8214,2,0,L|103:82,1,100,2|8,0:0|0:0,0:0:0:0:
59,155,9190,2,0,P|32:206|48:257,1,100,0|8,0:0|0:0,0:0:0:0:
125,215,10166,6,0,P|131:263|106:305,1,100,2|8,0:0|0:0,0:0:0:0:
172,366,11141,2,0,L|277:357,1,100,0|8,0:0|0:0,0:0:0:0:
359,378,12117,2,0,P|382:336|372:280,1,100,2|8,0:0|0:0,0:0:0:0:
448,233,13092,2,0,P|425:191|435:135,1,100,4|8,0:3|0:0,0:0:0:0:
493,74,14068,5,4,0:3:0:0:
413,31,14556,1,8,0:0:0:0:
344,89,15044,2,0,L|235:78,1,100,0|8,0:0|0:0,0:0:0:0:
158,106,16019,1,4,0:3:0:0:
78,63,16507,1,8,0:0:0:0:
22,133,16995,2,0,P|6:180|33:240,1,100,0|8,0:0|0:0,0:0:0:0:
109,214,17970,6,0,L|227:240,1,100,4|4,0:3|0:3,0:0:0:0:
267,302,18946,2,0,L|385:276,1,100,4|4,0:3|0:3,0:0:0:0:
445,320,19922,1,8,0:3:0:0:
482,238,20409,1,8,0:3:0:0:
430,163,20897,2,0,L|446:63,1,100,2|8,0:3|0:0,0:0:0:0:
361,32,21873,5,4,0:0:0:0:
278,67,22361,1,8,0:0:0:0:
201,17,22849,2,0,P|185:63|197:110,1,100,2|8,0:0|0:0,0:0:0:0:
266,169,23824,1,2,0:0:0:0:
347,130,24312,1,8,0:0:0:0:
417,185,24800,2,0,L|428:290,1,100,2|8,0:0|0:0,0:0:0:0:
488,350,25775,5,2,0:0:0:0:
399,368,26263,1,8,0:0:0:0:
343,297,26751,2,0,P|286:281|239:300,1,100,2|8,0:0|0:0,0:0:0:0:
178,236,27727,2,0,L|172:119,2,100,2|8|2,0:0|0:0|0:0,0:0:0:0:
111,296,29190,1,8,0:0:0:0:
51,228,29678,6,0,P|38:183|61:128,1,100,2|8,0:0|0:0,0:0:0:0:
109,62,30653,2,0,L|230:80,1,100,2|8,0:0|0:0,0:0:0:0:
290,112,31629,1,2,0:0:0:0:
363,59,32117,1,8,0:0:0:0:
443,100,32605,2,0,L|452:203,1,100,2|8,0:0|0:0,0:0:0:0:
503,272,33580,6,0,P|455:286|407:275,1,100,2|8,0:0|0:0,0:0:0:0:
333,327,34556,2,0,P|285:312|237:323,1,100,2|8,0:0|0:0,0:0:0:0:
189,247,35531,1,8,0:0:0:0:
116,300,36019,1,8,0:0:0:0:
45,244,36507,2,0,L|40:139,1,100,8|2,0:0|0:3,0:0:0:0:
85,66,37483,6,0,P|129:47|198:60,1,100,2|8,0:3|0:0,0:0:0:0:
264,83,38458,2,0,P|308:102|377:89,1,100,2|8,0:0|0:0,0:0:0:0:
438,140,39434,2,0,L|456:28,2,100,2|8|2,0:3|0:0|0:0,0:0:0:0:
372,201,40897,1,8,0:0:0:0:
451,243,41385,6,0,L|469:355,1,100,2|8,0:3|0:0,0:0:0:0:
376,345,42361,2,0,P|333:318|270:328,1,100,2|8,0:0|0:0,0:0:0:0:
198,298,43336,2,0,P|155:325|92:315,1,100,2|8,0:3|0:0,0:0:0:0:
46,255,44312,2,0,L|42:141,1,100,4|0,0:0|0:0,0:0:0:0:
74,70,45288,6,0,P|121:53|184:67,1,100,2|8,0:3|0:0,0:0:0:0:
244,110,46263,2,0,L|231:209,1,100,2|8,0:0|0:0,0:0:0:0:
158,262,47239,1,2,0:3:0:0:
240,298,47727,2,0,P|282:321|346:313,1,100,8|8,0:0|0:3,0:0:0:0:
406,370,48702,1,8,0:0:0:0:
472,308,49190,5,2,0:3:0:0:
414,137,50166,1,4,0:0:0:0:
248,207,51141,2,0,L|136:184,1,100,2|2,0:3|0:3,0:0:0:0:
61,169,52117,1,4,0:0:0:0:
61,169,53092,6,0,P|39:214|56:275,1,100,2|8,0:0|0:0,0:0:0:0:
104,331,54068,2,0,P|169:311|214:330,1,100,2|8,0:0|0:0,0:0:0:0:
285,297,55044,2,0,L|301:191,2,100,2|8|2,0:0|0:0|0:0,0:0:0:0:
347,362,56507,1,2,0:3:0:0:
424,316,56995,6,0,P|446:271|435:220,1,100,2|8,0:0|0:0,0:0:0:0:
348,206,57970,2,0,P|326:161|334:113,1,100,2|8,0:0|0:0,0:0:0:0:
401,52,58946,2,0,L|505:75,2,100,2|8|2,0:0|0:0|0:3,0:0:0:0:
324,4,60409,1,2,0:3:0:0:
255,62,60897,6,0,P|203:76|146:53,1,100,2|8,0:0|0:0,0:0:0:0:
73,37,61873,2,0,L|82:142,1,100,2|8,0:0|0:0,0:0:0:0:
54,222,62849,2,0,L|37:329,2,100,2|8|2,0:0|0:0|0:0,0:0:0:0:
142,203,64312,1,8,0:0:0:0:
213,257,64800,6,0,P|260:278|316:272,1,100,2|8,0:0|0:0,0:0:0:0:
381,326,65775,2,0,L|402:222,1,100,2|8,0:0|0:0,0:0:0:0:
470,171,66751,2,0,L|463:65,1,100,4|4,0:3|0:3,0:0:0:0:
379,38,67727,6,0,B|301:50|301:50|275:77|275:77|177:93,2,200,0|0|4,0:0|0:0|0:0,0:0:0:0:
471,192,70653,6,0,P|482:239|460:295,1,100,6|8,0:0|0:0,0:0:0:0:
391,236,71629,2,0,L|290:222,1,100,2|8,0:0|0:0,0:0:0:0:
301,312,72605,2,0,L|196:331,1,100,2|8,0:0|0:0,0:0:0:0:
136,268,73580,1,2,0:3:0:0:
62,319,74068,1,2,0:3:0:0:
10,245,74556,6,0,L|25:135,1,100,2|8,0:0|0:0,0:0:0:0:
16,56,75531,2,0,P|70:57|129:26,1,100,2|8,0:0|0:0,0:0:0:0:
162,116,76507,2,0,P|216:115|275:146,1,100,2|8,0:0|0:0,0:0:0:0:
346,109,77483,1,2,0:3:0:0:
419,56,77970,1,2,0:3:0:0:
479,122,78458,6,0,L|471:231,1,100,6|8,0:0|0:0,0:0:0:0:
381,223,79434,2,0,L|389:332,1,100,2|8,0:0|0:0,0:0:0:0:
303,352,80409,2,0,P|255:333|201:343,1,100,2|8,0:0|0:0,0:0:0:0:
119,354,81385,1,2,0:3:0:0:
48,297,81873,1,2,0:3:0:0:
108,230,82361,6,0,L|125:119,1,100,2|8,0:0|0:0,0:0:0:0:
190,71,83336,2,0,P|237:54|298:63,1,100,2|8,0:0|0:0,0:0:0:0:
367,20,84312,1,4,0:3:0:0:
443,67,84800,1,4,0:3:0:0:
374,125,85288,2,0,L|385:235,1,100,4|4,0:3|0:3,0:0:0:0:
321,302,86263,6,0,B|241:313|241:313|216:339|216:339|133:351,1,200,4|8,0:0|0:3,0:0:0:0:
60,282,87727,1,4,0:0:0:0:
