osu file format v14

[General]
AudioFilename: audio.mp3
AudioLeadIn: 0
PreviewTime: 148258
Countdown: 0
SampleSet: Soft
StackLeniency: 0.4
Mode: 0
LetterboxInBreaks: 0
WidescreenStoryboard: 1

[Editor]
DistanceSpacing: 1
BeatDivisor: 4
GridSize: 8
TimelineZoom: 2.2

[Metadata]
Title:More One Night (Assertive Hardcore Bootleg)
TitleUnicode:More One Night (Assertive Hardcore Bootleg)
Artist:Chito (CV: Minase Inori), Yuuri (CV: Kubo Yurika)
ArtistUnicode:チト(CV:水瀬いのり)、ユーリ(CV:久保ユリカ)
Creator:Minorsonek
Version:Rin Desu's Hyper
Source:少女終末旅行
Tags:Shoujo Shuumatsu Ryokou Girls Last Tour ending SquareTude Yasaija_714 RVMathew Rin_Desu MaridiuS Seulgij
BeatmapID:1579562
BeatmapSetID:734135

[Difficulty]
HPDrainRate:6.5
CircleSize:4.5
OverallDifficulty:7.5
ApproachRate:9
SliderMultiplier:1.7
SliderTickRate:1

[Events]
//Background and Video events
0,0,"thumb-1920-879626.png",0,0
//Break Periods
2,62141,63200
//Storyboard Layer 0 (Background)
Sprite,Background,Centre,"sb\font3\_000.png",100,400 F,0,0,24,0,1 F,0,173800,173847,1,0
//Storyboard Layer 1 (Fail)
//Storyboard Layer 2 (Pass)
//Storyboard Layer 3 (Foreground)
//Storyboard Sound Samples

[TimingPoints]
24,352.941176470588,4,2,1,70,1,0
24,-90.9090909090909,4,2,1,70,0,0
376,-83.3333333333333,4,2,1,70,0,0
729,-76.9230769230769,4,2,1,70,0,0
1082,-71.4285714285714,4,2,1,70,0,0
1435,-66.6666666666667,4,2,1,70,0,0
1788,-62.5,4,2,1,70,0,0
2141,-58.8235294117647,4,2,1,70,0,0
2494,-55.5555555555556,4,2,1,70,0,0
2847,-55.5555555555556,4,2,11,70,0,0
3906,-66.6666666666667,4,2,11,70,0,0
4082,-66.6666666666667,4,2,11,5,0,0
4259,-166.666666666667,4,2,4,30,0,0
6729,-66.6666666666667,4,2,4,30,0,0
7082,-166.666666666667,4,2,4,30,0,0
9553,-66.6666666666667,4,2,2,30,0,0
9906,-166.666666666666,4,2,1,50,0,0
12376,-66.6666666666667,4,2,1,50,0,0
12729,-100,4,3,1,55,0,0
14141,-100,4,3,1,60,0,0
14847,-100,4,3,1,62,0,0
15023,-100,4,3,1,65,0,0
15200,-66.6666666666667,4,3,1,65,0,0
15553,-100,4,2,1,60,0,0
26847,-166.666666666666,4,3,4,40,0,0
31788,-90.9090909090909,4,3,4,40,0,0
32494,-100,4,2,1,50,0,0
34612,-66.6666666666667,4,2,1,50,0,0
35318,-100,4,3,1,65,0,0
36729,-142.857142857143,4,3,1,65,0,0
37082,-250,4,3,1,65,0,0
37435,-1000,4,3,1,65,0,0
38141,-66.6666666666667,4,2,5,75,0,1
48729,-100,4,2,1,50,0,0
49435,-66.6666666666667,4,2,11,70,0,1
49788,-66.6666666666667,4,2,5,70,0,1
50053,-55.5555555555556,4,2,11,70,0,1
60023,-133.333333333333,4,2,4,70,0,0
60376,-133.333333333333,4,2,11,60,0,0
64612,-100,4,2,11,55,0,0
64965,-100,4,2,1,60,0,0
76171,-100,4,2,1,5,0,0
76259,-166.666666666666,4,3,4,40,0,0
81200,-90.9090909090909,4,3,4,40,0,0
81906,-100,4,2,1,50,0,0
84023,-66.6666666666667,4,2,1,50,0,0
84729,-100,4,3,1,50,0,0
86141,-142.857142857143,4,3,1,50,0,0
86494,-250,4,3,1,50,0,0
86847,-1000,4,3,1,50,0,0
87200,-1000,4,2,11,50,0,0
87553,-66.6666666666667,4,2,5,75,0,1
97788,-66.6666666666667,4,2,5,75,0,0
98494,-66.6666666666667,4,2,1,30,0,0
98582,-66.6666666666667,4,2,1,40,0,0
98671,-66.6666666666667,4,2,1,50,0,0
98847,-66.6666666666667,4,2,5,75,0,1
106788,-71.4285714285714,4,2,5,75,0,1
109435,-66.6666666666667,4,2,4,50,0,0
109788,-66.6666666666667,4,2,4,40,0,0
110141,-66.6666666666667,4,2,4,30,0,0
110494,-66.6666666666667,4,2,4,31,0,0
110671,-66.6666666666667,4,2,4,32,0,0
110759,-66.6666666666667,4,2,4,33,0,0
110847,-66.6666666666667,4,2,4,34,0,0
110935,-66.6666666666667,4,2,4,35,0,0
111023,-66.6666666666667,4,2,4,36,0,0
111112,-66.6666666666667,4,2,4,37,0,0
111200,-66.6666666666667,4,2,4,38,0,0
111288,-66.6666666666667,4,2,4,39,0,0
111376,-66.6666666666667,4,2,4,40,0,0
111465,-66.6666666666667,4,2,4,41,0,0
111553,-66.6666666666667,4,2,4,42,0,0
111641,-66.6666666666667,4,2,4,43,0,0
111729,-66.6666666666667,4,2,4,44,0,0
111818,-66.6666666666667,4,2,4,45,0,0
112082,-66.6666666666667,4,2,4,50,0,0
112259,352.941176470588,4,2,7,70,1,0
112259,-90.9090909090909,4,2,7,70,0,0
112611,-83.3333333333333,4,2,7,65,0,0
112964,-76.9230769230769,4,2,7,65,0,0
113317,-71.4285714285714,4,2,7,65,0,0
113670,-66.6666666666667,4,2,7,65,0,0
114023,-62.5,4,2,7,65,0,0
114376,-58.8235294117647,4,2,7,65,0,0
114906,-100,4,2,7,65,0,0
117553,-50,4,2,7,65,0,0
117906,-100,4,2,7,65,0,0
120200,-100,4,2,4,65,0,0
120553,-50,4,2,7,65,0,0
120729,-100,4,2,7,65,0,0
123200,-100,4,2,4,65,0,0
123553,-80,4,2,7,65,0,0
124964,-80,4,2,11,65,0,0
126023,-100,4,2,11,65,0,0
126376,-400,4,2,11,50,0,0
126641,-400,4,2,0,5,0,0
126729,-66.6666666666667,4,2,5,75,0,1
136964,-100,4,2,11,65,0,0
137670,-133.333333333333,4,2,11,65,0,0
138023,-58.8235294117647,4,2,5,65,0,1
138288,-58.8235294117647,4,2,11,65,0,1
139258,-55.5555555555556,4,2,11,65,0,1
146141,-55.5555555555556,4,2,11,70,0,1
146406,-55.5555555555556,4,2,11,5,0,1
146494,-55.5555555555556,4,2,11,70,0,1
147111,-55.5555555555556,4,2,11,5,0,1
147200,-55.5555555555556,4,2,11,70,0,1
148258,-133.333333333333,4,2,4,65,0,0
150376,-66.6666666666667,4,2,2,70,0,0
152494,-66.6666666666667,4,2,11,70,0,0
152582,-66.6666666666667,4,2,2,70,0,0
155317,-66.6666666666667,4,2,7,65,0,0
156023,-66.6666666666667,4,2,2,70,0,0
158141,-66.6666666666667,4,2,11,70,0,0
158229,-66.6666666666667,4,2,2,70,0,0
160964,-66.6666666666667,4,2,11,70,0,0
161670,-66.6666666666667,4,2,2,70,0,0
163788,-66.6666666666667,4,2,11,70,0,0
163876,-66.6666666666667,4,2,2,70,0,0
166611,-66.6666666666667,4,2,7,70,0,0
167317,-66.6666666666667,4,2,2,70,0,0
169435,-66.6666666666667,4,2,11,70,0,0
169523,-66.6666666666667,4,2,2,70,0,0
172258,-66.6666666666667,4,2,7,70,0,0
172964,-100,4,2,11,70,0,0
173317,-166.666666666667,4,2,11,70,0,0
173847,-400,4,2,7,70,0,0
174023,-1000,4,2,12,70,0,0

[Colours]
Combo1 : 128,0,255
Combo2 : 255,0,255
Combo3 : 255,128,0
Combo4 : 0,255,255

[HitObjects]
150,359,24,6,0,L|56:348,1,93.5000028533936,8|0,0:1|0:0,0:0:0:0:
42,309,376,2,0,L|140:339,1,101.999996887207,8|0,0:1|0:0,0:0:0:0:
311,279,729,6,0,L|200:286,1,110.499994941712,8|0,2:1|0:0,0:0:0:0:
189,252,1082,2,0,L|307:266,1,118.999996368408,8|0,2:1|0:0,0:0:0:0:
170,176,1435,6,0,L|44:202,1,127.500004863739,8|0,2:1|0:0,0:0:0:0:
36,169,1788,2,0,L|173:166,1,136,8|0,2:1|0:0,0:0:0:0:
299,93,2141,6,0,L|152:82,1,144.500002756119,8|0,2:1|0:0,0:0:0:0:
165,51,2494,2,0,L|312:89,1,152.999995330811,8|0,2:1|0:0,0:0:0:0:
256,192,2847,12,0,3553,0:0:0:0:
110,332,3906,6,0,P|150:297|97:276,1,127.500004863739,0|0,0:0|0:0,0:0:0:0:
26,216,4259,6,0,P|99:174|181:191,1,152.999995330811,6|0,0:1|0:0,0:0:0:0:
239,160,4965,2,0,L|245:210,1,50.9999984436036,0|0,0:0|0:0,0:0:0:0:
249,238,5229,1,0,0:0:0:0:
188,322,5494,2,0,B|267:354|333:305|333:305|408:346|488:298,1,305.999990661621,0|0,0:0|0:0,0:0:0:0:
418,229,6729,6,0,P|374:198|419:169,1,127.500004863739,0|0,0:0|0:0,0:0:0:0:
474,91,7082,6,0,P|403:71|325:97,1,152.999995330811,2|0,0:1|0:0,0:0:0:0:
253,50,7788,2,0,L|247:100,1,50.9999984436036,0|0,0:0|0:0,0:0:0:0:
243,128,8053,1,0,0:0:0:0:
169,227,8318,2,0,L|144:24,1,203.999993774414,0|0,0:0|0:0,0:0:0:0:
56,77,9200,2,0,L|62:127,1,50.9999984436036,0|0,0:0|0:0,0:0:0:0:
70,218,9553,6,0,P|29:255|79:276,1,127.500004863739,8|0,0:0|0:0,0:0:0:0:
176,124,9906,5,2,0:0:0:0:
233,265,10259,1,8,0:0:0:0:
374,208,10612,1,2,0:0:0:0:
317,65,10965,1,8,0:0:0:0:
145,111,11318,5,2,0:0:0:0:
219,296,11671,1,8,0:0:0:0:
404,221,12023,1,2,0:0:0:0:
330,33,12376,6,0,P|371:70|321:91,1,127.500004863739,8|0,0:0|0:0,0:0:0:0:
229,77,12729,5,2,0:0:0:0:
229,77,12906,1,0,0:0:0:0:
137,37,13082,1,2,0:0:0:0:
137,37,13259,1,0,0:0:0:0:
141,133,13435,5,2,0:0:0:0:
141,133,13612,1,0,0:0:0:0:
87,220,13788,1,2,0:0:0:0:
87,220,13965,1,0,0:0:0:0:
192,242,14141,2,0,L|216:285,2,42.5,2|2|2,0:0|0:0|0:0,0:0:0:0:
285,200,14494,2,0,L|305:162,2,42.5,2|2|2,0:0|0:0|0:0,0:0:0:0:
372,240,14847,5,8,0:1:0:0:
405,228,14935,1,0,0:0:0:0:
440,231,15023,1,8,0:1:0:0:
469,248,15112,1,0,0:0:0:0:
480,220,15200,2,0,B|481:144|461:78|461:78|435:159,1,191.250007295609,0|0,2:0|0:0,0:0:0:0:
446,123,15553,6,0,P|405:133|365:120,1,85,6|0,0:1|0:0,0:0:0:0:
304,66,15906,1,8,0:0:0:0:
304,66,16082,1,0,0:0:0:0:
173,140,16259,2,0,P|212:124|254:131,1,85,2|0,0:2|0:0,0:0:0:0:
221,208,16612,5,8,0:0:0:0:
254,131,16788,1,0,0:0:0:0:
330,163,16965,1,2,0:0:0:0:
298,240,17141,1,0,0:0:0:0:
396,113,17318,2,0,P|414:152|411:194,1,85,8|0,0:0|0:0,0:0:0:0:
319,90,17671,2,0,P|342:54|379:35,1,85,2|0,0:2|0:0,0:0:0:0:
461,57,18023,1,8,0:0:0:0:
507,127,18200,1,0,0:0:0:0:
456,266,18376,6,0,L|442:183,1,85,2|0,0:2|0:0,0:0:0:0:
372,284,18729,1,8,0:0:0:0:
456,266,18906,1,0,0:0:0:0:
307,231,19082,2,0,P|289:270|292:312,1,85,2|0,0:2|0:0,0:0:0:0:
171,296,19435,6,0,P|153:334|119:360,2,85,8|0|2,0:0|0:0|0:2,0:0:0:0:
185,210,19965,1,0,0:0:0:0:
87,282,20141,1,8,0:0:0:0:
101,198,20318,1,0,0:0:0:0:
252,156,20494,2,0,P|270:198|264:242,1,85,2|0,0:2|0:0,0:0:0:0:
185,210,20847,5,8,0:2:0:0:
266,236,21023,1,0,0:0:0:0:
328,126,21200,2,0,P|343:165|346:208,1,85,2|0,0:0|0:0,0:0:0:0:
332,291,21553,1,8,0:0:0:0:
251,319,21729,1,0,0:0:0:0:
185,265,21906,2,0,P|167:303|170:345,1,85,2|0,0:0|0:0,0:0:0:0:
90,293,22259,6,0,P|100:251|120:214,1,85,8|0,0:0|0:0,0:0:0:0:
204,83,22612,1,2,0:0:0:0:
97,107,22788,1,0,0:0:0:0:
229,190,22965,1,8,0:0:0:0:
121,215,23141,1,0,0:0:0:0:
296,133,23318,2,0,P|313:171|310:213,1,85,2|0,0:0|0:0,0:0:0:0:
251,274,23671,5,8,0:0:0:0:
229,190,23847,1,0,0:0:0:0:
253,60,24023,2,0,P|293:47|334:55,1,85,2|0,0:0|0:0,0:0:0:0:
387,124,24376,2,0,B|432:128|432:128|484:112,2,85,8|0|2,0:0|0:0|0:0,0:0:0:0:
422,44,24906,1,0,0:0:0:0:
387,124,25082,1,8,0:0:0:0:
418,202,25259,1,0,0:0:0:0:
482,256,25435,5,2,0:0:0:0:
381,276,25612,1,2,0:0:0:0:
272,297,25788,1,8,0:0:0:0:
154,320,25965,1,2,0:0:0:0:
29,344,26141,1,8,0:0:0:0:
60,230,26318,2,0,L|84:286,2,42.5,2|2|8,0:0|0:0|0:0,0:0:0:0:
200,58,26847,6,0,L|183:106,1,50.9999984436036,2|0,0:1|0:0,0:0:0:0:
177,188,27200,2,0,P|152:182|131:169,1,50.9999984436036,2|0,0:3|0:0,0:0:0:0:
250,151,27553,2,0,P|282:134|343:141,2,76.4999976654053,8|0|0,0:3|0:0|0:0,0:0:0:0:
303,212,28259,6,0,L|321:280,1,50.9999984436036,8|0,0:3|0:0,0:0:0:0:
389,293,28612,2,0,L|375:342,1,50.9999984436036,2|0,0:3|0:0,0:0:0:0:
417,144,28965,2,0,B|412:181|412:181|389:213,2,76.4999976654053,8|0|0,0:3|0:0|0:0,0:0:0:0:
356,25,29671,6,0,L|369:81,1,50.9999984436036,8|0,0:3|0:0,0:0:0:0:
279,148,30023,2,0,L|290:98,1,50.9999984436036,2|0,0:0|0:0,0:0:0:0:
297,229,30376,2,0,P|259:228|225:211,2,76.4999976654053,8|0|0,0:3|0:0|0:0,0:0:0:0:
182,87,31082,6,0,L|193:137,1,50.9999984436036,8|0,0:3|0:0,0:0:0:0:
139,256,31435,2,0,L|150:206,1,50.9999984436036,2|0,0:0|0:0,0:0:0:0:
40,317,31788,6,0,B|73:340|73:340|105:325|105:325|135:340|135:340|171:321|212:323|212:323|253:342|253:342|330:331,1,280.500008560181,8|0,0:3|0:0,0:0:0:0:
404,199,32494,5,2,0:0:0:0:
404,199,32582,1,0,0:0:0:0:
404,199,32671,2,0,L|416:250,2,42.5,0|0|8,0:0|0:0|0:0,0:0:0:0:
466,132,33023,1,0,0:0:0:0:
466,132,33112,1,0,0:0:0:0:
466,132,33200,2,0,L|478:81,2,42.5,2|0|0,0:0|0:0|0:0,0:0:0:0:
371,108,33553,5,8,0:0:0:0:
341,124,33641,1,0,0:0:0:0:
320,151,33729,2,0,L|266:144,2,42.5,0|0|2,0:0|0:0|0:0,0:0:0:0:
332,234,34082,1,0,0:0:0:0:
297,229,34171,1,0,0:0:0:0:
264,225,34259,1,8,0:0:0:0:
229,221,34347,1,0,0:0:0:0:
196,217,34435,1,0,0:0:0:0:
79,92,34612,6,0,P|128:59|215:70,1,127.500004863739,2|2,0:0|0:0,0:0:0:0:
92,137,34965,2,0,P|154:139|207:105,1,127.500004863739,8|2,0:0|0:0,0:0:0:0:
331,88,35318,6,0,L|378:101,6,42.5,4|0|0|0|0|0|0,0:0|0:0|0:0|0:0|0:0|0:0|0:0,0:0:0:0:
391,187,36023,2,0,L|431:175,6,42.5,4|0|0|0|0|0|0,0:0|0:0|0:0|0:0|0:0|0:0|0:0,0:0:0:0:
372,331,36729,6,0,L|339:374,2,29.7499990921021,4|0|0,0:0|0:0|0:0,0:0:0:0:
254,180,37082,2,0,L|225:187,2,17,4|0|0,0:0|0:0|0:0,0:0:0:0:
369,29,37435,1,4,0:2:0:0:
369,29,37788,5,0,0:0:0:0:
381,65,37876,1,0,0:0:0:0:
378,103,37965,1,0,0:0:0:0:
302,174,38141,6,0,P|238:175|176:187,1,127.500004863739,4|0,0:1|0:0,0:0:0:0:
84,112,38494,2,0,P|57:179|79:257,1,127.500004863739,8|0,0:0|0:0,0:0:0:0:
152,286,38847,1,2,0:0:0:0:
255,271,39023,1,0,0:0:0:0:
255,271,39112,1,0,0:0:0:0:
255,271,39200,2,0,P|317:283|381:284,1,127.500004863739,8|0,0:0|0:0,0:0:0:0:
499,216,39553,5,2,0:0:0:0:
476,308,39729,1,0,0:0:0:0:
404,191,39906,1,8,0:0:0:0:
381,283,40082,1,2,0:0:0:0:
471,130,40259,2,0,P|410:100|348:120,2,127.500004863739,2|0|8,0:0|0:0|0:0,0:0:0:0:
404,191,40788,1,0,0:0:0:0:
283,57,40965,6,0,P|261:115|284:173,1,127.500004863739,2|0,0:0|0:0,0:0:0:0:
337,358,41318,2,0,P|359:299|338:241,1,127.500004863739,8|0,0:0|0:0,0:0:0:0:
262,251,41671,1,2,0:0:0:0:
199,301,41847,1,0,0:0:0:0:
199,301,41935,1,0,0:0:0:0:
199,301,42023,2,0,L|71:290,1,127.500004863739,8|0,0:0|0:0,0:0:0:0:
50,149,42376,5,2,0:0:0:0:
50,149,42553,1,0,0:0:0:0:
98,59,42729,2,0,P|142:108|148:170,1,127.500004863739,8|2,0:0|0:0,0:0:0:0:
50,149,43082,1,2,0:0:0:0:
148,167,43259,6,0,L|211:175,1,63.7500024318696,0|0,0:0|0:0,0:0:0:0:
247,179,43435,2,0,L|255:115,1,63.7500024318696,8|0,0:0|0:0,0:0:0:0:
260,78,43612,2,0,L|195:68,1,63.7500024318696,2|0,0:0|0:0,0:0:0:0:
293,102,43788,6,0,L|425:81,1,127.500004863739,4|0,0:0|0:0,0:0:0:0:
366,211,44141,2,0,L|491:189,1,127.500004863739,8|0,0:0|0:0,0:0:0:0:
378,333,44494,2,0,P|302:315|253:252,1,127.500004863739,2|0,0:0|0:0,0:0:0:0:
267,281,44759,1,0,0:0:0:0:
267,281,44847,1,8,0:0:0:0:
222,358,45023,1,0,0:0:0:0:
18,349,45200,6,0,P|89:338|167:348,1,127.500004863739,2|0,0:0|0:0,0:0:0:0:
147,173,45553,1,8,0:0:0:0:
147,173,45729,1,2,0:0:0:0:
56,145,45906,2,0,P|57:208|99:255,2,127.500004863739,2|0|8,0:0|0:0|0:0,0:0:0:0:
147,173,46435,1,0,0:0:0:0:
234,81,46612,6,0,B|286:68|286:68|365:101,1,127.500004863739,2|0,0:1|0:0,0:0:0:0:
277,157,46965,1,8,0:0:0:0:
277,157,47141,1,0,0:0:0:0:
380,190,47318,2,0,P|432:158|450:78,1,127.500004863739,2|0,0:1|0:0,0:0:0:0:
389,293,47671,1,8,0:0:0:0:
389,293,47847,1,0,0:0:0:0:
277,157,48023,6,0,P|263:220|298:278,2,127.500004863739,4|0|2,0:0|0:0|0:0,0:0:0:0:
187,282,48553,1,2,0:0:0:0:
187,282,48641,1,2,0:0:0:0:
187,282,48729,2,0,B|75:287|75:287,1,85,2|0,0:0|0:0,0:0:0:0:
47,186,49082,1,2,0:0:0:0:
47,186,49259,1,0,0:0:0:0:
129,115,49435,6,0,B|166:104|192:104|192:104|224:180,1,127.500004863739,2|2,0:0|0:0,0:0:0:0:
129,115,49788,6,0,P|206:103|287:107,1,127.500004863739,6|0,0:1|0:0,0:0:0:0:
255,103,50053,1,2,0:0:0:0:
255,103,50141,1,0,0:0:0:0:
289,5,50318,1,2,0:0:0:0:
372,75,50494,6,0,P|371:148|314:213,1,152.999995330811,2|2,0:0|0:0,0:0:0:0:
322,208,50759,1,2,0:0:0:0:
322,208,50847,1,8,0:0:0:0:
400,165,51023,1,2,0:0:0:0:
221,183,51200,2,0,P|227:258|280:311,1,152.999995330811,8|2,0:0|0:0,0:0:0:0:
372,272,51553,5,8,0:3:0:0:
350,380,51729,1,0,0:3:0:0:
241,358,51906,1,8,0:3:0:0:
264,252,52082,1,0,0:3:0:0:
437,343,52259,6,0,P|470:277|443:207,1,152.999995330811,8|2,0:0|0:0,0:0:0:0:
372,272,52612,1,8,0:0:0:0:
351,123,52788,1,2,0:0:0:0:
326,153,52876,1,2,0:0:0:0:
321,190,52965,1,2,0:0:0:0:
245,33,53141,6,0,L|254:108,1,76.4999976654053,10|0,0:0|0:0,0:0:0:0:
245,143,53318,2,0,L|265:-10,1,152.999995330811,10|0,0:0|0:0,0:0:0:0:
155,117,53671,6,0,P|166:196|233:240,1,152.999995330811,6|0,0:0|0:0,0:0:0:0:
221,237,53935,1,0,0:0:0:0:
221,237,54023,1,10,0:0:0:0:
320,203,54200,2,0,L|329:284,1,76.4999976654053,2|0,0:0|0:0,0:0:0:0:
354,312,54376,2,0,P|284:310|205:344,1,152.999995330811,10|0,0:0|0:0,0:0:0:0:
112,345,54729,1,2,0:3:0:0:
208,341,54906,1,0,0:0:0:0:
43,131,55082,6,0,P|30:205|52:278,1,152.999995330811,4|2,0:0|0:0,0:0:0:0:
140,259,55435,2,0,B|193:238|193:238|296:239,1,152.999995330811,4|0,0:0|0:0,0:0:0:0:
310,240,55700,2,0,L|318:163,1,76.4999976654053,2|0,0:0|0:0,0:0:0:0:
318,163,55876,1,2,0:0:0:0:
318,163,55965,1,2,0:0:0:0:
425,202,56141,1,2,0:0:0:0:
398,96,56318,5,2,0:0:0:0:
365,75,56406,1,2,0:0:0:0:
327,69,56494,2,0,P|278:78|225:167,1,152.999995330811,8|0,0:0|0:0,0:0:0:0:
254,263,56847,5,10,0:0:0:0:
349,222,57023,1,0,0:0:0:0:
254,263,57200,2,0,P|244:303|245:349,2,76.4999976654053,8|0|2,0:3|0:0|0:0,0:0:0:0:
166,220,57553,1,8,0:3:0:0:
255,161,57729,1,2,0:0:0:0:
115,304,57906,6,0,P|70:244|82:171,1,152.999995330811,2|0,0:1|0:0,0:0:0:0:
255,161,58259,1,2,0:0:0:0:
166,220,58435,1,0,0:0:0:0:
306,77,58612,2,0,P|350:136|339:210,1,152.999995330811,2|0,0:1|0:0,0:0:0:0:
255,161,58965,1,2,0:0:0:0:
166,220,59141,1,0,0:0:0:0:
107,129,59318,5,2,0:1:0:0:
197,70,59494,1,2,0:0:0:0:
255,161,59671,1,2,0:0:0:0:
166,220,59847,1,0,0:0:0:0:
159,257,59935,1,0,0:0:0:0:
174,291,60023,1,2,0:1:0:0:
256,192,60200,12,0,61435,0:0:0:0:
92,322,64612,5,2,0:0:0:0:
81,285,64700,1,0,0:0:0:0:
99,251,64788,1,2,0:0:0:0:
154,118,64965,6,0,P|171:157|168:199,1,85,4|0,0:0|0:0,0:0:0:0:
99,251,65318,1,8,0:0:0:0:
84,168,65494,1,0,0:0:0:0:
239,235,65671,2,0,P|285:234|343:238,1,85,2|0,0:0|0:0,0:0:0:0:
401,272,66023,5,8,0:0:0:0:
401,272,66200,1,0,0:0:0:0:
470,144,66376,2,0,P|483:184|477:226,1,85,2|0,0:0|0:0,0:0:0:0:
401,272,66729,1,8,0:0:0:0:
399,190,66906,1,0,0:0:0:0:
315,74,67082,6,0,P|309:115|322:155,1,85,2|0,0:0|0:0,0:0:0:0:
399,190,67435,1,8,0:0:0:0:
405,104,67612,1,0,0:0:0:0:
229,153,67788,6,0,P|187:151|145:151,1,85,2|0,0:0|0:0,0:0:0:0:
61,161,68141,1,8,0:0:0:0:
110,230,68318,1,0,0:0:0:0:
153,70,68494,2,0,P|139:110|145:151,1,85,2|0,0:0|0:0,0:0:0:0:
202,302,68847,6,0,B|208:261|208:261|192:216,1,85,8|0,0:0|0:0,0:0:0:0:
269,180,69200,1,2,0:0:0:0:
303,268,69376,1,0,0:0:0:0:
390,235,69553,1,8,0:0:0:0:
356,145,69729,1,0,0:0:0:0:
294,12,69906,6,0,P|280:52|287:94,1,85,2|0,0:0|0:0,0:0:0:0:
365,61,70259,1,8,0:0:0:0:
356,145,70435,1,0,0:0:0:0:
208,96,70612,6,0,L|94:94,1,85,2|0,0:0|0:0,0:0:0:0:
147,176,70965,1,8,0:0:0:0:
98,245,71141,1,0,0:0:0:0:
139,319,71318,2,0,L|229:311,1,85,2|0,0:0|0:0,0:0:0:0:
278,246,71671,6,0,B|323:243|323:243|362:253,1,85,8|0,0:0|0:0,0:0:0:0:
480,283,72023,1,2,0:0:0:0:
361,252,72200,1,0,0:0:0:0:
501,127,72376,2,0,P|514:166|508:208,1,85,8|0,0:0|0:0,0:0:0:0:
428,167,72729,2,0,L|343:174,1,85,2|0,0:0|0:0,0:0:0:0:
259,160,73082,1,8,0:0:0:0:
181,194,73259,1,0,0:0:0:0:
153,30,73435,6,0,P|140:73|146:111,1,85,4|0,0:0|0:0,0:0:0:0:
225,79,73788,2,0,P|265:73|305:87,1,85,8|0,0:0|0:0,0:0:0:0:
346,158,74141,2,0,P|385:172|427:166,1,85,4|0,0:0|0:0,0:0:0:0:
474,95,74494,2,0,P|502:126|507:190,1,85,8|0,0:0|0:0,0:0:0:0:
468,250,74847,5,6,0:0:0:0:
366,241,75023,1,0,0:0:0:0:
255,232,75200,1,6,0:0:0:0:
135,221,75376,1,0,0:0:0:0:
9,210,75553,1,4,0:0:0:0:
135,221,75729,1,2,0:0:0:0:
151,257,75818,1,2,0:0:0:0:
151,296,75906,1,8,0:0:0:0:
199,169,76259,6,0,L|208:118,1,50.9999984436036,2|0,0:1|0:0,0:0:0:0:
201,37,76612,2,0,P|226:39|249:48,1,50.9999984436036,2|0,0:0|0:0,0:0:0:0:
134,83,76965,2,0,P|105:104|43:107,2,76.4999976654053,8|0|0,0:0|0:0|0:0,0:0:0:0:
200,37,77671,6,0,P|226:38|249:48,1,50.9999984436036,0|0,0:0|0:0,0:0:0:0:
307,98,78023,2,0,P|330:107|355:109,1,50.9999984436036,2|0,0:0|0:0,0:0:0:0:
418,163,78376,2,0,B|435:127|435:127|433:90,2,76.4999976654053,8|0|0,0:0|0:0|0:0,0:0:0:0:
344,192,79082,6,0,L|357:248,1,50.9999984436036
267,315,79435,2,0,L|278:265,1,50.9999984436036,2|0,0:0|0:0,0:0:0:0:
267,189,79788,2,0,P|229:188|195:171,2,76.4999976654053,8|0|0,0:0|0:0|0:0,0:0:0:0:
244,110,80494,6,0,L|233:60,1,50.9999984436036,0|0,0:0|0:0,0:0:0:0:
334,74,80847,2,0,L|323:124,1,50.9999984436036,2|0,0:0|0:0,0:0:0:0:
372,225,81200,6,0,B|336:212|336:212|302:223|302:223|274:204|274:204|245:193|164:195|102:231,1,280.500008560181,8|2,0:0|0:0,0:0:0:0:
18,214,81906,5,2,0:0:0:0:
18,214,81994,1,0,0:0:0:0:
18,214,82082,2,0,L|30:265,2,42.5,0|0|8,0:0|0:0|0:0,0:0:0:0:
80,147,82435,1,0,0:0:0:0:
80,147,82523,1,0,0:0:0:0:
80,147,82612,2,0,L|92:96,2,42.5,2|0|0,0:0|0:0|0:0,0:0:0:0:
190,119,82965,5,8,0:0:0:0:
221,128,83053,1,0,0:0:0:0:
254,137,83141,2,0,L|297:148,2,42.5,0|0|2,0:0|0:0|0:0,0:0:0:0:
281,231,83494,1,0,0:0:0:0:
312,222,83582,1,0,0:0:0:0:
345,213,83671,2,0,L|386:202,2,42.5,8|0|0,0:0|0:0|0:0,0:0:0:0:
187,274,84023,6,0,P|138:241|51:252,1,127.500004863739,2|2,0:0|0:0,0:0:0:0:
174,319,84376,2,0,P|112:321|59:287,1,127.500004863739,8|2,0:0|0:0,0:0:0:0:
320,336,84729,6,0,L|381:329,6,42.5,4|0|0|0|0|0|0,0:0|0:0|0:0|0:0|0:0|0:0|0:0,0:0:0:0:
417,230,85435,2,0,L|356:223,6,42.5,4|0|0|0|0|0|0,0:0|0:0|0:0|0:0|0:0|0:0|0:0,0:0:0:0:
336,101,86141,6,0,L|310:134,2,29.7499990921021,4|0|0,0:0|0:0|0:0,0:0:0:0:
160,78,86494,2,0,L|168:107,2,17,4|0|0,0:0|0:0|0:0,0:0:0:0:
67,228,86847,1,4,0:0:0:0:
67,228,87200,5,2,2:0:0:0:
81,257,87288,1,0,0:0:0:0:
75,289,87376,1,0,0:0:0:0:
215,275,87553,6,0,P|278:286|340:273,1,127.500004863739,4|0,0:1|0:0,0:0:0:0:
438,326,87906,2,0,P|447:257|410:185,1,127.500004863739,8|0,0:0|0:0,0:0:0:0:
337,183,88259,1,2,0:0:0:0:
271,122,88435,1,0,0:0:0:0:
271,122,88523,1,0,0:0:0:0:
271,122,88612,2,0,L|140:132,1,127.500004863739,8|0,0:0|0:0,0:0:0:0:
55,163,88965,5,2,0:0:0:0:
143,131,89141,1,0,0:0:0:0:
172,220,89318,1,8,0:0:0:0:
85,250,89494,1,2,0:0:0:0:
257,209,89671,2,0,P|239:275|181:307,2,127.500004863739,2|0|8,0:0|0:0|0:0,0:0:0:0:
225,122,90200,1,0,0:0:0:0:
439,120,90376,6,0,P|377:137|314:138,1,127.500004863739,2|0,0:0|0:0,0:0:0:0:
456,239,90729,2,0,P|392:240|331:257,1,127.500004863739,8|0,0:0|0:0,0:0:0:0:
294,339,91082,1,2,0:0:0:0:
206,349,91259,1,0,0:0:0:0:
206,349,91347,1,0,0:0:0:0:
206,349,91435,2,0,P|131:337|59:344,1,127.500004863739,8|0,0:0|0:0,0:0:0:0:
173,253,91788,1,2,0:0:0:0:
79,340,91965,1,0,0:0:0:0:
30,210,92141,2,0,P|22:140|60:78,2,127.500004863739,8|2|2,0:0|0:0|0:0,0:0:0:0:
138,161,92671,6,0,L|212:179,1,63.7500024318696,0|0,0:0|0:0,0:0:0:0:
210,145,92847,2,0,L|148:129,1,63.7500024318696,8|0,0:0|0:0,0:0:0:0:
156,97,93023,2,0,L|230:115,1,63.7500024318696,2|0,0:0|0:0,0:0:0:0:
343,132,93200,6,0,P|415:107|449:70,1,127.500004863739,4|0,0:0|0:0,0:0:0:0:
341,268,93553,2,0,P|401:285|446:329,1,127.500004863739,8|0,0:0|0:0,0:0:0:0:
286,199,93906,2,0,P|252:259|269:322,1,127.500004863739,2|0,0:0|0:0,0:0:0:0:
341,268,94259,1,8,0:0:0:0:
189,350,94435,1,0,0:0:0:0:
189,350,94523,1,0,0:0:0:0:
189,350,94612,5,2,0:0:0:0:
127,269,94788,1,0,0:0:0:0:
81,360,94965,1,8,0:0:0:0:
33,278,95141,1,2,0:0:0:0:
33,278,95229,1,0,0:0:0:0:
33,278,95318,2,0,P|36:215|60:135,2,127.500004863739,2|0|8,0:0|0:0|0:0,0:0:0:0:
81,360,95847,1,0,0:0:0:0:
127,269,96023,6,0,P|182:249|255:274,1,127.500004863739,2|0,0:1|0:0,0:0:0:0:
321,336,96376,2,0,P|380:354|440:334,1,127.500004863739,8|0,0:0|0:0,0:0:0:0:
429,141,96729,2,0,P|421:203|379:250,1,127.500004863739,2|0,0:1|0:0,0:0:0:0:
263,209,97082,5,8,0:0:0:0:
324,156,97259,1,0,0:0:0:0:
378,250,97435,1,4,0:0:0:0:
252,131,97612,1,0,0:0:0:0:
200,261,97788,1,2,0:0:0:0:
161,264,97876,1,2,0:0:0:0:
124,255,97965,1,2,0:0:0:0:
91,233,98053,1,0,0:0:0:0:
72,200,98141,1,4,0:0:0:0:
122,32,98494,5,2,0:0:0:0:
89,54,98582,1,2,0:0:0:0:
70,87,98671,1,8,0:0:0:0:
215,145,98847,6,0,P|274:167|308:220,1,127.500004863739,4|0,0:1|0:0,0:0:0:0:
314,325,99200,2,0,P|372:303|406:250,1,127.500004863739,8|0,0:0|0:0,0:0:0:0:
422,160,99553,1,2,0:0:0:0:
399,72,99729,1,0,0:0:0:0:
399,72,99818,1,0,0:0:0:0:
399,72,99906,2,0,P|337:62|261:64,1,127.500004863739,8|0,0:0|0:0,0:0:0:0:
185,72,100259,5,2,0:0:0:0:
272,62,100435,1,0,0:0:0:0:
282,150,100612,1,8,0:0:0:0:
192,159,100788,1,2,0:0:0:0:
108,10,100965,2,0,P|90:70|110:129,1,127.500004863739,2|0,0:0|0:0,0:0:0:0:
192,159,101318,1,8,0:0:0:0:
257,241,101494,1,0,0:0:0:0:
257,241,101582,1,0,0:0:0:0:
257,241,101671,6,0,L|392:261,1,127.500004863739,2|0,0:0|0:0,0:0:0:0:
477,345,102023,2,0,L|350:363,1,127.500004863739,8|0,0:0|0:0,0:0:0:0:
257,343,102376,2,0,P|204:326|116:337,1,127.500004863739,2|0,0:0|0:0,0:0:0:0:
133,331,102641,1,0,0:0:0:0:
133,331,102729,1,8,0:0:0:0:
119,243,102906,1,0,0:0:0:0:
133,331,103082,5,2,0:0:0:0:
45,345,103259,1,0,0:0:0:0:
31,257,103435,1,8,0:0:0:0:
119,243,103612,1,2,0:0:0:0:
133,331,103788,1,2,0:0:0:0:
203,278,103965,6,0,L|277:288,1,63.7500024318696,0|0,0:0|0:0,0:0:0:0:
311,221,104141,2,0,L|237:231,1,63.7500024318696,8|0,0:0|0:0,0:0:0:0:
198,166,104318,2,0,L|261:174,1,63.7500024318696,2|0,0:0|0:0,0:0:0:0:
384,248,104494,6,0,P|395:178|370:114,1,127.500004863739,4|0,0:0|0:0,0:0:0:0:
121,157,104847,2,0,P|108:95|128:34,1,127.500004863739,8|0,0:0|0:0,0:0:0:0:
325,60,105200,2,0,L|186:75,1,127.500004863739,2|0,0:0|0:0,0:0:0:0:
198,166,105553,1,8,0:0:0:0:
198,73,105729,1,0,0:0:0:0:
289,199,105906,1,2,0:0:0:0:
198,166,106082,1,0,0:0:0:0:
289,199,106259,1,8,0:0:0:0:
136,236,106435,2,0,P|104:174|119:117,1,127.500004863739,2|0,0:0|0:0,0:0:0:0:
198,73,106788,5,2,0:0:0:0:
116,120,106965,1,8,0:0:0:0:
286,110,107141,2,0,P|345:106|401:122,1,118.999996368408
481,184,107494,5,2,0:0:0:0:
391,218,107671,1,8,0:0:0:0:
441,15,107847,2,0,P|407:66|404:138,1,118.999996368408,2|0,0:0|0:0,0:0:0:0:
460,269,108200,5,2,0:0:0:0:
391,218,108376,1,8,0:0:0:0:
481,184,108553,1,2,0:0:0:0:
305,164,108729,2,0,P|290:225|308:279,1,118.999996368408,4|8,0:0|0:0,0:0:0:0:
202,377,109082,2,0,P|219:320|204:264,1,118.999996368408,4|8,0:0|0:0,0:0:0:0:
54,168,109435,1,2,0:1:0:0:
256,192,109612,12,0,111906,0:0:0:0:
452,169,112259,6,0,L|389:244,1,93.5000028533936,6|0,0:0|0:0,0:0:0:0:
493,243,112611,6,0,L|372:240,1,101.999996887207,6|0,0:0|0:0,0:0:0:0:
459,328,112964,6,0,L|384:232,1,110.499994941712,6|0,0:0|0:0,0:0:0:0:
364,357,113317,6,0,L|394:223,1,118.999996368408,6|0,0:0|0:0,0:0:0:0:
275,297,113670,6,0,L|408:231,1,127.500004863739,6|0,0:0|0:0,0:0:0:0:
265,182,114023,6,0,L|394:242,1,136,6|0,0:0|0:0,0:0:0:0:
355,98,114376,6,0,L|392:258,1,144.500002756119,2|0,0:1|0:0,0:0:0:0:
150,128,114906,5,0,0:0:0:0:
150,128,114994,1,0,0:0:0:0:
150,128,115082,2,0,L|64:145,1,85,2|8,0:0|0:3,0:0:0:0:
211,202,115788,2,0,L|190:294,1,85,2|8,0:0|0:3,0:0:0:0:
211,202,116494,6,0,L|190:294,1,85,2|8,0:0|0:3,0:0:0:0:
301,202,116847,2,0,L|322:294,1,85,2|8,0:0|0:3,0:0:0:0:
211,202,117200,2,0,L|190:294,1,85,2|0,0:1|0:0,0:0:0:0:
287,105,117553,6,0,P|248:55|246:131,1,170,0|0,0:0|0:0,0:0:0:0:
362,128,117906,6,0,L|447:145,1,85,2|8,0:0|0:3,0:0:0:0:
301,202,118611,2,0,L|322:294,1,85,2|8,0:0|0:3,0:0:0:0:
301,202,119317,6,0,L|322:294,1,85,2|8,0:0|0:3,0:0:0:0:
211,202,119670,2,0,L|190:294,1,85,2|8,0:0|0:3,0:0:0:0:
301,202,120023,1,2,0:1:0:0:
256,130,120200,2,0,L|256:39,2,85,0|2|0,0:0|0:3|0:0,0:0:0:0:
160,123,120729,6,0,L|124:159,6,42.5,2|8|8|8|2|0|0,0:0|0:3|0:3|0:3|0:0|0:0|0:0,0:0:0:0:
125,247,121435,2,0,L|155:277,6,42.5,2|0|8|8|2|0|0,0:0|0:0|0:3|0:3|0:0|0:0|0:0,0:0:0:0:
238,279,122141,6,0,L|230:339,2,42.5,2|0|0,0:0|0:0|0:0,0:0:0:0:
377,280,122494,2,0,L|385:340,2,42.5,2|0|0,0:0|0:0|0:0,0:0:0:0:
303,159,122847,1,2,0:0:0:0:
214,122,123023,5,0,0:0:0:0:
202,158,123111,1,0,0:0:0:0:
213,194,123200,1,2,0:3:0:0:
401,159,123376,1,0,0:0:0:0:
294,41,123553,6,0,L|236:38,6,53.125,2|8|8|8|2|0|0,0:0|0:3|0:3|0:3|0:0|0:0|0:0,0:0:0:0:
298,274,124259,2,0,L|240:277,6,53.125,2|0|8|8|2|0|0,0:0|0:0|0:3|0:3|0:0|0:0|0:0,0:0:0:0:
401,159,124964,1,2,0:0:0:0:
225,57,126023,5,0,0:0:0:0:
225,57,126200,1,0,0:0:0:0:
322,26,126376,2,0,L|295:34,1,21.25,2|0,0:0|0:0,0:0:0:0:
428,112,126729,6,0,P|455:179|433:257,1,127.500004863739,4|0,0:1|0:0,0:0:0:0:
360,286,127082,1,2,0:0:0:0:
283,218,127258,1,0,0:0:0:0:
283,218,127347,1,0,0:0:0:0:
283,218,127435,2,0,P|219:218|156:230,1,127.500004863739,8|0,0:0|0:0,0:0:0:0:
179,322,127788,5,2,0:0:0:0:
156,230,127964,1,0,0:0:0:0:
93,293,128141,1,8,0:0:0:0:
179,322,128317,1,2,0:0:0:0:
68,210,128494,2,0,P|39:160|66:82,2,127.500004863739,2|0|8,0:0|0:0|0:0,0:0:0:0:
93,293,129023,1,0,0:0:0:0:
231,200,129200,6,0,P|292:214|344:181,1,127.500004863739,2|0,0:0|0:0,0:0:0:0:
439,143,129553,2,0,P|400:94|340:80,1,127.500004863739,8|0,0:0|0:0,0:0:0:0:
274,129,129906,1,2,0:0:0:0:
217,56,130082,1,0,0:0:0:0:
217,56,130170,1,0,0:0:0:0:
217,56,130258,2,0,L|78:66,1,127.500004863739,8|0,0:0|0:0,0:0:0:0:
94,205,130611,5,2,0:0:0:0:
16,70,130788,1,0,0:0:0:0:
126,137,130964,1,8,0:0:0:0:
20,216,131141,1,2,0:0:0:0:
139,267,131317,1,2,0:0:0:0:
249,257,131494,6,0,L|312:249,1,63.7500024318696,0|0,0:0|0:0,0:0:0:0:
275,205,131670,2,0,L|267:141,1,63.7500024318696,8|0,0:0|0:0,0:0:0:0:
230,101,131847,2,0,L|295:91,1,63.7500024318696,2|0,0:0|0:0,0:0:0:0:
159,38,132023,6,0,B|96:47|96:47|27:17,1,127.500004863739,4|0,0:0|0:0,0:0:0:0:
174,196,132376,2,0,B|110:201|110:201|59:239,1,127.500004863739,8|0,0:0|0:0,0:0:0:0:
178,363,132729,2,0,P|249:360|303:282,1,127.500004863739,2|0,0:0|0:0,0:0:0:0:
289,324,132994,1,0,0:0:0:0:
289,324,133082,1,8,0:0:0:0:
211,279,133259,1,0,0:0:0:0:
361,262,133435,6,0,P|425:258|488:269,1,127.500004863739,2|0,0:0|0:0,0:0:0:0:
295,331,133788,1,8,0:0:0:0:
361,262,133964,1,2,0:0:0:0:
213,130,134141,2,0,P|213:66|255:19,2,127.500004863739,2|0|8,0:0|0:0|0:0,0:0:0:0:
281,223,134670,1,0,0:0:0:0:
213,130,134847,6,0,B|161:117|161:117|82:150,1,127.500004863739,2|0,0:1|0:0,0:0:0:0:
45,221,135200,1,8,0:0:0:0:
45,221,135376,1,0,0:0:0:0:
51,36,135553,2,0,P|92:82|92:145,1,127.500004863739,2|0,0:1|0:0,0:0:0:0:
45,221,135906,1,8,0:0:0:0:
91,145,136082,1,0,0:0:0:0:
113,282,136259,5,2,0:0:0:0:
160,205,136435,1,0,0:0:0:0:
45,221,136611,1,8,0:0:0:0:
239,153,136788,1,2,0:0:0:0:
255,193,136876,1,0,0:0:0:0:
250,240,136964,1,2,0:1:0:0:
311,384,137317,5,0,0:0:0:0:
311,384,137494,1,0,0:0:0:0:
392,348,137670,6,0,L|335:334,1,31.8750012159348,2|0,2:0|0:0,0:0:0:0:
331,300,137847,2,0,L|273:301,1,31.8750012159348,2|0,2:0|0:0,0:0:0:0:
210,292,138023,6,0,P|255:219|307:205,1,144.500002756119,4|0,2:1|0:0,0:0:0:0:
307,204,138288,1,2,0:0:0:0:
307,204,138376,1,0,0:0:0:0:
448,170,138553,5,2,2:0:0:0:
448,170,138641,1,0,0:0:0:0:
448,170,138729,1,0,0:0:0:0:
360,52,138906,1,2,0:0:0:0:
316,60,138994,1,2,0:0:0:0:
273,68,139082,1,8,0:0:0:0:
300,177,139258,1,2,0:0:0:0:
160,21,139435,2,0,P|152:99|202:164,1,152.999995330811,8|2,0:0|0:0,0:0:0:0:
300,177,139788,5,8,0:3:0:0:
278,285,139964,1,2,0:0:0:0:
169,263,140141,1,8,0:3:0:0:
192,157,140317,1,2,0:0:0:0:
365,248,140494,6,0,P|398:182|372:107,1,152.999995330811,8|2,0:0|0:0,0:0:0:0:
300,177,140847,1,8,0:0:0:0:
263,86,141023,1,2,0:0:0:0:
263,86,141111,1,0,0:0:0:0:
263,86,141200,1,2,0:0:0:0:
166,109,141376,6,0,P|164:71|177:35,1,76.4999976654053,10|0,0:0|0:0,0:0:0:0:
157,2,141553,2,0,P|132:73|151:149,1,152.999995330811,10|0,0:0|0:0,0:0:0:0:
52,271,141906,6,0,P|110:302|229:273,1,152.999995330811,2|0,0:0|0:0,0:0:0:0:
194,294,142170,1,0,0:0:0:0:
194,294,142258,1,10,0:0:0:0:
265,210,142435,6,0,L|342:235,1,76.4999976654053,2|0,0:0|0:0,0:0:0:0:
381,247,142611,2,0,P|401:165|457:127,1,152.999995330811,10|0,0:0|0:0,0:0:0:0:
448,325,142964,1,10,0:0:0:0:
484,228,143141,1,2,0:3:0:0:
336,346,143317,6,0,P|263:349|202:302,1,152.999995330811,6|0,2:0|0:0,0:0:0:0:
187,157,143670,2,0,P|128:110|53:113,1,152.999995330811,2|0,2:0|0:0,0:0:0:0:
49,139,143935,2,0,L|41:216,1,76.4999976654053,0|2,0:0|0:0,0:0:0:0:
41,215,144111,1,2,0:0:0:0:
41,215,144200,1,2,0:0:0:0:
30,364,144376,1,2,0:0:0:0:
123,310,144553,1,2,0:0:0:0:
135,353,144641,1,0,0:0:0:0:
179,364,144729,6,0,P|257:364|366:377,1,152.999995330811,8|2,0:0|0:0,0:0:0:0:
184,202,145082,2,0,P|111:187|41:215,1,152.999995330811,8|2,0:0|0:0,0:0:0:0:
256,148,145435,2,0,P|273:220|232:283,1,152.999995330811,8|2,0:3|0:0,0:0:0:0:
123,310,145788,1,8,0:3:0:0:
324,297,145964,1,2,0:0:0:0:
184,202,146141,6,0,P|169:132|229:60,1,152.999995330811,2|0,0:1|0:0,0:0:0:0:
366,52,146494,1,2,0:0:0:0:
256,148,146670,1,0,0:0:0:0:
437,89,146847,2,0,P|480:149|467:223,1,152.999995330811,2|0,0:1|0:0,0:0:0:0:
363,247,147200,1,2,0:0:0:0:
466,223,147376,1,0,0:0:0:0:
490,327,147553,5,2,0:1:0:0:
386,351,147729,1,0,0:0:0:0:
363,247,147906,1,2,0:0:0:0:
271,247,148082,1,0,0:0:0:0:
274,284,148170,1,0,0:0:0:0:
297,313,148258,1,2,0:1:0:0:
256,192,148435,12,8,149670,0:3:0:0:
343,141,150376,5,4,0:0:0:0:
343,50,150553,1,0,0:0:0:0:
423,96,150729,1,8,0:0:0:0:
335,136,150906,5,2,0:0:0:0:
352,45,151082,1,0,0:0:0:0:
422,106,151258,1,8,0:0:0:0:
328,128,151435,5,2,0:0:0:0:
362,43,151611,1,0,0:0:0:0:
419,115,151788,1,8,0:0:0:0:
322,120,151964,5,2,0:0:0:0:
372,43,152141,1,0,0:0:0:0:
414,124,152317,1,8,0:0:0:0:
368,200,152494,6,0,P|302:211|250:177,1,127.500004863739,2|0,0:0|0:0,0:0:0:0:
217,98,152847,2,0,P|172:147|170:208,1,127.500004863739,8|0,0:0|0:0,0:0:0:0:
142,292,153200,5,2,0:0:0:0:
169,205,153376,1,0,0:0:0:0:
80,224,153553,1,8,0:0:0:0:
152,289,153729,5,2,0:0:0:0:
162,198,153906,1,0,0:0:0:0:
78,234,154082,1,8,0:0:0:0:
160,285,154258,5,2,0:0:0:0:
154,192,154435,1,0,0:0:0:0:
77,244,154611,1,8,0:0:0:0:
168,278,154788,5,2,0:0:0:0:
144,190,154964,1,0,0:0:0:0:
80,254,155141,1,8,0:0:0:0:
242,219,155317,5,2,0:0:0:0:
242,219,155406,1,0,0:0:0:0:
242,219,155494,1,2,0:0:0:0:
255,302,155670,1,2,0:0:0:0:
312,154,155847,1,2,0:0:0:0:
332,248,156023,5,4,0:0:0:0:
396,184,156200,1,0,0:0:0:0:
420,272,156376,1,8,0:0:0:0:
329,238,156553,5,2,0:0:0:0:
406,186,156729,1,0,0:0:0:0:
412,279,156906,1,8,0:0:0:0:
330,228,157082,5,2,0:0:0:0:
414,192,157258,1,0,0:0:0:0:
404,283,157435,1,8,0:0:0:0:
332,218,157611,5,2,0:0:0:0:
421,199,157788,1,0,0:0:0:0:
394,286,157964,1,8,0:0:0:0:
295,135,158141,6,0,P|250:184|248:245,1,127.500004863739,2|0,0:0|0:0,0:0:0:0:
302,310,158494,2,0,P|238:327|182:299,1,127.500004863739,8|0,0:0|0:0,0:0:0:0:
138,220,158847,5,2,0:0:0:0:
48,203,159023,1,0,0:0:0:0:
78,289,159200,1,8,0:0:0:0:
133,210,159376,5,2,0:0:0:0:
42,211,159553,1,0,0:0:0:0:
88,290,159729,1,8,0:0:0:0:
128,202,159906,5,2,0:0:0:0:
37,220,160082,1,0,0:0:0:0:
221,226,160258,6,0,P|218:164|175:119,1,127.500004863739,8|0,0:0|0:0,0:0:0:0:
150,296,160611,1,2,0:0:0:0:
222,226,160788,2,0,B|286:213|286:213|367:240,1,127.500004863739,0|2,0:0|0:0,0:0:0:0:
383,316,161141,2,0,L|381:385,2,63.7500024318696,0|0|0,3:0|3:0|0:0,0:0:0:0:
444,260,161494,1,0,3:0:0:0:
423,186,161670,5,4,0:0:0:0:
377,123,161847,1,0,0:0:0:0:
309,158,162023,1,8,0:0:0:0:
423,186,162200,5,2,0:0:0:0:
350,158,162376,1,0,0:0:0:0:
312,224,162553,1,8,0:0:0:0:
423,186,162729,5,2,0:0:0:0:
346,202,162906,1,0,0:0:0:0:
350,278,163082,1,8,0:0:0:0:
423,186,163258,5,2,0:0:0:0:
367,241,163435,1,0,0:0:0:0:
411,302,163611,1,8,0:0:0:0:
470,253,163788,6,0,P|504:194|481:130,1,127.500004863739,2|0,0:0|0:0,0:0:0:0:
421,104,164141,2,0,L|273:121,1,127.500004863739,8|0,0:0|0:0,0:0:0:0:
180,146,164494,5,2,0:0:0:0:
226,83,164670,1,0,0:0:0:0:
294,118,164847,1,8,0:0:0:0:
180,146,165023,5,2,0:0:0:0:
253,118,165200,1,0,0:0:0:0:
291,184,165376,1,8,0:0:0:0:
180,146,165553,5,2,0:0:0:0:
257,162,165729,1,0,0:0:0:0:
253,238,165906,1,8,0:0:0:0:
180,146,166082,5,2,0:0:0:0:
236,201,166258,1,0,0:0:0:0:
192,262,166435,1,8,0:0:0:0:
132,212,166611,5,2,0:0:0:0:
132,212,166700,1,0,0:0:0:0:
132,212,166788,1,2,0:0:0:0:
124,90,166964,2,0,P|180:66|248:103,1,127.500004863739,2|2,0:0|0:0,0:0:0:0:
236,201,167317,5,4,0:0:0:0:
282,264,167494,1,0,0:0:0:0:
350,229,167670,1,8,0:0:0:0:
236,201,167847,5,2,0:0:0:0:
309,229,168023,1,0,0:0:0:0:
347,163,168200,1,8,0:0:0:0:
236,201,168376,5,2,0:0:0:0:
313,185,168553,1,0,0:0:0:0:
309,109,168729,1,8,0:0:0:0:
236,201,168906,5,2,0:0:0:0:
292,146,169082,1,0,0:0:0:0:
248,85,169258,1,8,0:0:0:0:
195,140,169435,6,0,P|133:161|68:127,2,127.500004863739,2|0|8,0:0|0:0|0:0,0:0:0:0:
138,82,169964,1,0,0:0:0:0:
78,138,170141,5,2,0:0:0:0:
66,211,170317,1,0,0:0:0:0:
135,240,170494,1,8,0:0:0:0:
78,138,170670,5,2,0:0:0:0:
107,210,170847,1,0,0:0:0:0:
181,193,171023,1,8,0:0:0:0:
78,138,171200,5,2,0:0:0:0:
142,183,171376,1,0,0:0:0:0:
196,124,171553,1,8,0:0:0:0:
211,225,171729,5,0,0:0:0:0:
283,287,171906,2,0,P|343:304|406:294,1,127.500004863739,8|0,0:0|0:0,0:0:0:0:
145,293,172258,2,0,P|84:311|22:302,1,127.500004863739,2|2,0:0|0:0,0:0:0:0:
19,190,172611,2,0,P|79:171|142:183,1,127.500004863739,2|2,0:0|0:0,0:0:0:0:
219,49,172964,6,0,L|304:39,1,85,4|0,0:0|0:0,0:0:0:0:
276,166,173317,6,0,L|327:173,1,50.9999984436036,4|0,0:0|0:0,0:0:0:0:
430,25,173670,1,4,0:0:0:0:
487,198,173847,2,0,L|487:212,2,10.625,2|2|6,0:0|0:0|0:1,0:0:0:0:
