osu file format v14

[General]
AudioFilename: audio.ogg
AudioLeadIn: 0
PreviewTime: 50298
Countdown: 0
SampleSet: Soft
StackLeniency: 0.7
Mode: 3
LetterboxInBreaks: 0
SpecialStyle: 0
WidescreenStoryboard: 0

[Editor]
DistanceSpacing: 1
BeatDivisor: 4
GridSize: 32
TimelineZoom: 1.6

[Metadata]
Title:More One Night (Assertive Hardcore Bootleg) (Cut Ver.)
TitleUnicode:More One Night (Assertive Hardcore Bootleg) (Cut Ver.)
Artist:Chito (CV: Minase Inori), Yuuri (CV: Kubo Yurika)
ArtistUnicode:チト(CV:水瀬いのり)、ユーリ(CV:久保ユリカ)
Creator:Carol
Version:Insane
Source:少女終末旅行
Tags:anime electronic japanese girls’ last tour shoujo shuumatsu ryokou remix ed ending
BeatmapID:2115385
BeatmapSetID:1010542

[Difficulty]
HPDrainRate:8.5
CircleSize:4
OverallDifficulty:8.5
ApproachRate:5
SliderMultiplier:1.4
SliderTickRate:1

[Events]
//Background and Video events
0,0,"dab BG.png",0,0
//Break Periods
//Storyboard Layer 0 (Background)
//Storyboard Layer 1 (Fail)
//Storyboard Layer 2 (Pass)
//Storyboard Layer 3 (Foreground)
//Storyboard Layer 4 (Overlay)
//Storyboard Sound Samples

[TimingPoints]
181,352.941176470588,4,2,1,40,1,0
25592,-74.0740740740741,4,2,1,40,0,0
25680,-153.846153846154,4,2,1,40,0,0
25769,-74.0740740740741,4,2,1,40,0,0
25857,-153.846153846154,4,2,1,40,0,0
25945,-74.0740740740741,4,2,1,40,0,0
26033,-153.846153846154,4,2,1,40,0,0
26122,-74.0740740740741,4,2,1,40,0,0
26210,-153.846153846154,4,2,1,40,0,0
26298,-100,4,2,1,40,0,0
26651,-100,4,2,1,40,0,0
27004,-100,4,2,1,40,0,0
37945,-100,4,2,1,40,0,0
38298,-100,4,2,1,40,0,1
48886,-100,4,2,1,40,0,0
51004,-100,4,2,1,40,0,1
63357,-100,4,2,1,40,0,0

[HitObjects]
64,192,181,5,2,0:0:0:0:
192,192,181,1,0,0:0:0:0:
320,192,269,1,0,0:0:0:0:
448,192,357,1,0,0:0:0:0:
64,192,445,1,0,0:0:0:0:
320,192,533,1,2,0:0:0:0:
448,192,533,1,0,0:0:0:0:
192,192,622,1,0,0:0:0:0:
64,192,710,1,0,0:0:0:0:
448,192,798,1,0,0:0:0:0:
192,192,886,1,2,0:0:0:0:
64,192,886,1,0,0:0:0:0:
320,192,975,1,0,0:0:0:0:
448,192,1063,1,0,0:0:0:0:
64,192,1151,1,0,0:0:0:0:
320,192,1239,1,2,0:0:0:0:
448,192,1239,1,0,0:0:0:0:
192,192,1328,1,0,0:0:0:0:
64,192,1416,1,0,0:0:0:0:
448,192,1504,1,0,0:0:0:0:
192,192,1592,1,2,0:0:0:0:
64,192,1592,1,0,0:0:0:0:
320,192,1680,1,0,0:0:0:0:
448,192,1769,1,0,0:0:0:0:
64,192,1857,1,0,0:0:0:0:
320,192,1945,1,2,0:0:0:0:
448,192,1945,1,0,0:0:0:0:
192,192,2033,1,0,0:0:0:0:
64,192,2122,1,0,0:0:0:0:
448,192,2210,1,0,0:0:0:0:
64,192,2298,1,2,0:0:0:0:
192,192,2298,1,0,0:0:0:0:
320,192,2386,1,0,0:0:0:0:
448,192,2475,1,0,0:0:0:0:
64,192,2563,1,0,0:0:0:0:
320,192,2651,1,2,0:0:0:0:
448,192,2651,1,0,0:0:0:0:
192,192,2739,1,0,0:0:0:0:
64,192,2828,1,0,0:0:0:0:
448,192,2916,1,0,0:0:0:0:
64,192,3004,128,0,4063:0:0:0:0:
448,192,3357,1,0,0:0:0:0:
448,192,3710,1,0,0:0:0:0:
448,192,4063,128,0,4416:0:0:0:0:
64,192,4416,1,2,0:0:0:0:
192,192,4416,1,4,0:0:0:0:
320,192,4416,1,0,0:0:0:0:
448,192,4592,1,0,0:0:0:0:
64,192,4769,1,8,0:0:0:0:
192,192,4769,1,0,0:0:0:0:
448,192,4945,1,0,0:0:0:0:
64,192,5033,1,0,0:0:0:0:
320,192,5122,1,0,0:0:0:0:
448,192,5122,1,0,0:0:0:0:
64,192,5210,1,0,0:0:0:0:
448,192,5386,1,0,0:0:0:0:
320,192,5386,1,0,0:0:0:0:
64,192,5475,1,8,0:0:0:0:
192,192,5475,1,0,0:0:0:0:
64,192,5651,1,0,0:0:0:0:
448,192,5651,1,0,0:0:0:0:
448,192,5828,1,0,0:0:0:0:
64,192,6004,1,0,0:0:0:0:
320,192,6180,1,8,0:0:0:0:
448,192,6180,1,0,0:0:0:0:
64,192,6357,1,0,0:0:0:0:
448,192,6445,1,0,0:0:0:0:
64,192,6622,1,0,0:0:0:0:
64,192,6798,1,0,0:0:0:0:
320,192,6886,128,8,7239:0:0:0:0:
448,192,6886,128,0,7239:0:0:0:0:
64,192,7239,1,0,0:0:0:0:
192,192,7239,1,0,0:0:0:0:
448,192,7416,1,0,0:0:0:0:
192,192,7592,1,8,0:0:0:0:
64,192,7592,1,0,0:0:0:0:
448,192,7769,1,0,0:0:0:0:
64,192,7857,1,0,0:0:0:0:
320,192,7945,1,0,0:0:0:0:
448,192,7945,1,0,0:0:0:0:
64,192,8033,1,0,0:0:0:0:
320,192,8210,1,0,0:0:0:0:
448,192,8210,1,0,0:0:0:0:
192,192,8298,1,8,0:0:0:0:
64,192,8298,1,0,0:0:0:0:
64,192,8475,1,0,0:0:0:0:
448,192,8475,1,0,0:0:0:0:
448,192,8651,1,0,0:0:0:0:
64,192,8828,1,0,0:0:0:0:
320,192,9004,1,8,0:0:0:0:
448,192,9004,1,0,0:0:0:0:
64,192,9180,1,0,0:0:0:0:
448,192,9269,1,0,0:0:0:0:
192,192,9357,1,0,0:0:0:0:
64,192,9357,1,0,0:0:0:0:
448,192,9445,1,0,0:0:0:0:
320,192,9533,1,0,0:0:0:0:
64,192,9592,1,0,0:0:0:0:
192,192,9651,1,0,0:0:0:0:
320,192,9710,128,8,10063:0:0:0:0:
448,192,9710,128,0,10063:0:0:0:0:
192,192,10063,1,8,0:0:0:0:
64,192,10063,1,4,0:0:0:0:
448,192,10239,1,0,0:0:0:0:
192,192,10328,1,0,0:0:0:0:
64,192,10416,1,8,0:0:0:0:
320,192,10416,1,0,0:0:0:0:
448,192,10592,1,0,0:0:0:0:
64,192,10680,1,0,0:0:0:0:
320,192,10769,1,8,0:0:0:0:
192,192,10769,1,0,0:0:0:0:
448,192,10857,1,0,0:0:0:0:
320,192,10945,1,0,0:0:0:0:
64,192,11033,1,0,0:0:0:0:
192,192,11033,1,0,0:0:0:0:
320,192,11122,1,8,0:0:0:0:
448,192,11122,1,0,0:0:0:0:
448,192,11298,1,0,0:0:0:0:
64,192,11298,1,0,0:0:0:0:
320,192,11386,1,0,0:0:0:0:
64,192,11475,1,8,0:0:0:0:
192,192,11475,1,0,0:0:0:0:
448,192,11651,1,0,0:0:0:0:
192,192,11739,1,0,0:0:0:0:
320,192,11828,1,8,0:0:0:0:
64,192,11828,1,0,0:0:0:0:
448,192,12004,1,0,0:0:0:0:
64,192,12092,1,0,0:0:0:0:
192,192,12180,1,8,0:0:0:0:
320,192,12180,1,0,0:0:0:0:
448,192,12269,1,0,0:0:0:0:
64,192,12445,1,0,0:0:0:0:
192,192,12533,1,8,0:0:0:0:
448,192,12533,1,0,0:0:0:0:
320,192,12710,1,0,0:0:0:0:
192,192,12798,1,0,0:0:0:0:
448,192,12886,1,8,0:0:0:0:
64,192,12886,1,0,0:0:0:0:
448,192,13063,1,8,0:0:0:0:
64,192,13063,1,0,0:0:0:0:
192,192,13239,1,8,0:0:0:0:
320,192,13239,1,0,0:0:0:0:
320,192,13416,1,8,0:0:0:0:
192,192,13416,1,0,0:0:0:0:
192,192,13592,1,8,0:0:0:0:
64,192,13592,1,0,0:0:0:0:
192,192,13769,1,8,0:0:0:0:
64,192,13769,1,0,0:0:0:0:
320,192,13945,1,8,0:0:0:0:
448,192,13945,1,0,0:0:0:0:
320,192,14122,1,8,0:0:0:0:
448,192,14122,1,0,0:0:0:0:
192,192,14298,1,8,0:0:0:0:
64,192,14298,1,0,0:0:0:0:
320,192,14386,1,8,0:0:0:0:
64,192,14475,1,8,0:0:0:0:
448,192,14475,1,0,0:0:0:0:
192,192,14563,1,8,0:0:0:0:
320,192,14651,1,8,0:0:0:0:
448,192,14651,1,0,0:0:0:0:
64,192,14739,1,8,0:0:0:0:
192,192,14828,1,8,0:0:0:0:
320,192,14828,1,0,0:0:0:0:
448,192,14916,1,8,0:0:0:0:
64,192,15004,1,8,0:0:0:0:
192,192,15004,1,0,0:0:0:0:
320,192,15092,1,8,0:0:0:0:
448,192,15092,1,0,0:0:0:0:
64,192,15180,1,8,0:0:0:0:
192,192,15180,1,0,0:0:0:0:
448,192,15269,1,8,0:0:0:0:
320,192,15269,1,0,0:0:0:0:
64,192,15357,1,0,0:0:0:0:
192,192,15357,128,0,15710:0:0:0:0:
64,192,15710,1,2,0:0:0:0:
320,192,15710,1,4,0:0:0:0:
448,192,15710,128,0,16063:0:0:0:0:
64,192,16063,1,2,0:0:0:0:
320,192,16063,128,8,16239:0:0:0:0:
192,192,16239,128,0,16416:0:0:0:0:
64,192,16416,128,2,16592:0:0:0:0:
448,192,16416,1,0,0:0:0:0:
192,192,16592,1,0,0:0:0:0:
320,192,16680,1,0,0:0:0:0:
448,192,16769,128,2,16945:0:0:0:0:
64,192,16769,1,8,0:0:0:0:
192,192,16945,128,0,17122:0:0:0:0:
64,192,17122,1,2,0:0:0:0:
320,192,17122,128,0,17298:0:0:0:0:
448,192,17298,128,0,17475:0:0:0:0:
64,192,17475,128,2,17651:0:0:0:0:
320,192,17475,1,8,0:0:0:0:
192,192,17651,128,0,17828:0:0:0:0:
64,192,17828,1,2,0:0:0:0:
448,192,17828,128,0,18004:0:0:0:0:
320,192,18004,1,0,0:0:0:0:
192,192,18092,1,0,0:0:0:0:
448,192,18180,128,2,18357:0:0:0:0:
64,192,18180,1,8,0:0:0:0:
192,192,18357,128,0,18533:0:0:0:0:
64,192,18533,128,2,18710:0:0:0:0:
448,192,18533,1,0,0:0:0:0:
448,192,18710,128,0,18886:0:0:0:0:
192,192,18886,128,2,19063:0:0:0:0:
64,192,18886,1,8,0:0:0:0:
320,192,19063,128,0,19239:0:0:0:0:
448,192,19239,1,2,0:0:0:0:
64,192,19239,128,0,19416:0:0:0:0:
192,192,19416,1,0,0:0:0:0:
320,192,19504,1,0,0:0:0:0:
448,192,19592,1,2,0:0:0:0:
64,192,19592,128,8,19769:0:0:0:0:
192,192,19769,128,0,19945:0:0:0:0:
448,192,19945,1,2,0:0:0:0:
320,192,19945,128,0,20122:0:0:0:0:
64,192,20122,128,0,20298:0:0:0:0:
320,192,20298,128,2,20475:0:0:0:0:
448,192,20298,1,8,0:0:0:0:
192,192,20475,128,0,20651:0:0:0:0:
64,192,20651,1,2,0:0:0:0:
448,192,20651,128,0,20828:0:0:0:0:
320,192,20828,1,0,0:0:0:0:
192,192,20916,1,0,0:0:0:0:
448,192,21004,1,2,0:0:0:0:
64,192,21004,128,8,21180:0:0:0:0:
192,192,21180,128,0,21357:0:0:0:0:
448,192,21357,1,2,0:0:0:0:
320,192,21357,128,0,21710:0:0:0:0:
192,192,21710,128,2,21886:0:0:0:0:
64,192,21710,1,8,0:0:0:0:
448,192,21886,128,0,22063:0:0:0:0:
320,192,22063,1,2,0:0:0:0:
64,192,22063,128,0,22239:0:0:0:0:
192,192,22239,1,0,0:0:0:0:
320,192,22328,1,0,0:0:0:0:
64,192,22416,1,2,0:0:0:0:
448,192,22416,128,8,22592:0:0:0:0:
320,192,22592,128,0,22769:0:0:0:0:
64,192,22769,1,2,0:0:0:0:
192,192,22769,128,0,22945:0:0:0:0:
448,192,22945,128,0,23122:0:0:0:0:
320,192,23122,128,2,23298:0:0:0:0:
64,192,23122,1,8,0:0:0:0:
192,192,23298,128,0,23475:0:0:0:0:
64,192,23475,128,2,23651:0:0:0:0:
448,192,23475,1,0,0:0:0:0:
192,192,23651,1,0,0:0:0:0:
320,192,23739,1,0,0:0:0:0:
64,192,23828,1,2,0:0:0:0:
448,192,23828,128,8,24004:0:0:0:0:
192,192,24004,128,0,24180:0:0:0:0:
64,192,24180,128,2,24533:0:0:0:0:
448,192,24180,1,0,0:0:0:0:
320,192,24180,1,0,0:0:0:0:
320,192,24533,128,2,24710:0:0:0:0:
192,192,24533,1,8,0:0:0:0:
448,192,24710,128,0,24886:0:0:0:0:
64,192,24886,1,2,0:0:0:0:
192,192,24886,128,0,25063:0:0:0:0:
320,192,24886,1,0,0:0:0:0:
448,192,25063,128,0,25239:0:0:0:0:
64,192,25239,128,2,25416:0:0:0:0:
192,192,25239,1,8,0:0:0:0:
320,192,25416,128,0,25592:0:0:0:0:
64,192,25592,5,2,0:0:0:0:
192,192,25592,1,0,0:0:0:0:
448,192,25592,1,4,0:0:0:0:
64,192,25769,1,2,0:0:0:0:
192,192,25769,1,0,0:0:0:0:
448,192,25769,1,4,0:0:0:0:
320,192,25945,1,2,0:0:0:0:
448,192,25945,1,0,0:0:0:0:
64,192,25945,1,4,0:0:0:0:
448,192,26122,1,2,0:0:0:0:
320,192,26122,1,0,0:0:0:0:
64,192,26122,1,4,0:0:0:0:
192,192,26298,1,2,0:0:0:0:
448,192,26298,1,4,0:0:0:0:
320,192,26298,1,0,0:0:0:0:
64,192,26475,1,0,0:0:0:0:
192,192,26533,1,0,0:0:0:0:
320,192,26592,1,0,0:0:0:0:
448,192,26651,1,0,0:0:0:0:
64,192,26651,128,0,27004:0:0:0:0:
320,192,27004,1,6,0:0:0:0:
448,192,27004,1,8,0:0:0:0:
192,192,27092,1,0,0:0:0:0:
320,192,27180,1,0,0:0:0:0:
192,192,27269,1,0,0:0:0:0:
64,192,27357,1,8,0:0:0:0:
448,192,27357,1,0,0:0:0:0:
192,192,27533,1,0,0:0:0:0:
320,192,27622,1,0,0:0:0:0:
64,192,27710,1,8,0:0:0:0:
192,192,27710,1,0,0:0:0:0:
320,192,27798,1,0,0:0:0:0:
448,192,27886,1,0,0:0:0:0:
192,192,28063,1,8,0:0:0:0:
64,192,28063,1,0,0:0:0:0:
320,192,28151,1,0,0:0:0:0:
64,192,28239,1,0,0:0:0:0:
192,192,28328,1,0,0:0:0:0:
320,192,28416,1,8,0:0:0:0:
448,192,28416,1,0,0:0:0:0:
192,192,28504,1,0,0:0:0:0:
448,192,28592,1,0,0:0:0:0:
320,192,28680,1,0,0:0:0:0:
192,192,28769,1,8,0:0:0:0:
64,192,28769,1,0,0:0:0:0:
448,192,28857,1,0,0:0:0:0:
192,192,28945,1,0,0:0:0:0:
320,192,29033,1,0,0:0:0:0:
448,192,29122,1,8,0:0:0:0:
64,192,29122,1,0,0:0:0:0:
192,192,29298,1,0,0:0:0:0:
320,192,29386,1,0,0:0:0:0:
192,192,29475,1,8,0:0:0:0:
64,192,29475,1,0,0:0:0:0:
320,192,29563,1,0,0:0:0:0:
448,192,29651,1,0,0:0:0:0:
64,192,29828,1,8,0:0:0:0:
192,192,29828,1,0,0:0:0:0:
320,192,29916,1,0,0:0:0:0:
192,192,30004,1,0,0:0:0:0:
320,192,30092,1,0,0:0:0:0:
64,192,30180,1,0,0:0:0:0:
448,192,30180,1,8,0:0:0:0:
320,192,30357,1,0,0:0:0:0:
192,192,30445,1,0,0:0:0:0:
448,192,30533,1,8,0:0:0:0:
320,192,30533,1,0,0:0:0:0:
192,192,30622,1,0,0:0:0:0:
64,192,30710,1,0,0:0:0:0:
192,192,30886,1,8,0:0:0:0:
448,192,30886,1,0,0:0:0:0:
320,192,30975,1,0,0:0:0:0:
64,192,31063,1,0,0:0:0:0:
448,192,31151,1,0,0:0:0:0:
192,192,31239,1,8,0:0:0:0:
64,192,31239,1,0,0:0:0:0:
320,192,31328,1,0,0:0:0:0:
192,192,31416,1,0,0:0:0:0:
320,192,31504,1,0,0:0:0:0:
64,192,31592,1,8,0:0:0:0:
448,192,31592,1,0,0:0:0:0:
320,192,31769,1,0,0:0:0:0:
192,192,31857,1,0,0:0:0:0:
64,192,31945,1,8,0:0:0:0:
448,192,31945,1,0,0:0:0:0:
320,192,32033,1,0,0:0:0:0:
192,192,32122,1,0,0:0:0:0:
320,192,32210,1,0,0:0:0:0:
448,192,32298,1,8,0:0:0:0:
64,192,32298,1,0,0:0:0:0:
192,192,32475,1,0,0:0:0:0:
320,192,32563,1,0,0:0:0:0:
448,192,32651,1,8,0:0:0:0:
64,192,32651,1,4,0:0:0:0:
192,192,32739,1,0,0:0:0:0:
320,192,32828,1,8,0:0:0:0:
448,192,32828,1,0,0:0:0:0:
64,192,32916,1,0,0:0:0:0:
448,192,33004,1,8,0:0:0:0:
192,192,33004,1,0,0:0:0:0:
64,192,33180,1,8,0:0:0:0:
448,192,33180,1,0,0:0:0:0:
320,192,33269,1,0,0:0:0:0:
64,192,33357,1,8,0:0:0:0:
192,192,33357,1,0,0:0:0:0:
448,192,33445,1,0,0:0:0:0:
64,192,33533,1,8,0:0:0:0:
320,192,33533,1,0,0:0:0:0:
192,192,33710,1,8,0:0:0:0:
448,192,33710,1,0,0:0:0:0:
64,192,33798,1,0,0:0:0:0:
320,192,33886,1,8,0:0:0:0:
448,192,33886,1,0,0:0:0:0:
192,192,33975,1,0,0:0:0:0:
320,192,34063,1,8,0:0:0:0:
64,192,34063,1,0,0:0:0:0:
448,192,34239,1,8,0:0:0:0:
64,192,34239,1,0,0:0:0:0:
320,192,34328,1,0,0:0:0:0:
64,192,34416,1,8,0:0:0:0:
192,192,34416,1,0,0:0:0:0:
448,192,34504,1,0,0:0:0:0:
320,192,34592,1,8,0:0:0:0:
64,192,34592,1,0,0:0:0:0:
192,192,34769,1,8,0:0:0:0:
448,192,34769,1,0,0:0:0:0:
64,192,34857,1,0,0:0:0:0:
320,192,34945,1,8,0:0:0:0:
448,192,34945,1,0,0:0:0:0:
192,192,35033,1,0,0:0:0:0:
64,192,35122,1,8,0:0:0:0:
320,192,35122,1,0,0:0:0:0:
448,192,35298,1,8,0:0:0:0:
192,192,35298,1,0,0:0:0:0:
64,192,35475,1,2,0:0:0:0:
192,192,35475,1,4,0:0:0:0:
320,192,35563,1,0,0:0:0:0:
192,192,35651,1,0,0:0:0:0:
448,192,35651,1,0,0:0:0:0:
64,192,35739,1,0,0:0:0:0:
448,192,35828,1,0,0:0:0:0:
320,192,35828,1,0,0:0:0:0:
192,192,35916,1,0,0:0:0:0:
64,192,36004,1,0,0:0:0:0:
448,192,36004,1,0,0:0:0:0:
320,192,36092,1,0,0:0:0:0:
192,192,36180,1,2,0:0:0:0:
64,192,36180,1,4,0:0:0:0:
320,192,36269,1,0,0:0:0:0:
64,192,36357,1,0,0:0:0:0:
448,192,36357,1,0,0:0:0:0:
192,192,36445,1,0,0:0:0:0:
320,192,36533,1,0,0:0:0:0:
448,192,36533,1,0,0:0:0:0:
64,192,36622,1,0,0:0:0:0:
192,192,36710,1,0,0:0:0:0:
448,192,36710,1,0,0:0:0:0:
320,192,36798,1,0,0:0:0:0:
64,192,36886,1,2,0:0:0:0:
448,192,36886,1,4,0:0:0:0:
192,192,36945,1,0,0:0:0:0:
320,192,37004,1,0,0:0:0:0:
448,192,37063,1,0,0:0:0:0:
192,192,37151,1,0,0:0:0:0:
448,192,37239,1,2,0:0:0:0:
64,192,37239,1,4,0:0:0:0:
320,192,37298,1,0,0:0:0:0:
192,192,37357,1,0,0:0:0:0:
64,192,37416,1,0,0:0:0:0:
448,192,37475,1,0,0:0:0:0:
320,192,37533,1,0,0:0:0:0:
192,192,37592,1,2,0:0:0:0:
64,192,37592,1,4,0:0:0:0:
64,192,37945,1,0,0:0:0:0:
192,192,37945,1,0,0:0:0:0:
320,192,38033,1,0,0:0:0:0:
64,192,38122,1,0,0:0:0:0:
448,192,38122,1,0,0:0:0:0:
448,192,38298,1,2,0:0:0:0:
64,192,38298,128,4,38475:0:0:0:0:
192,192,38298,1,0,0:0:0:0:
320,192,38475,1,0,0:0:0:0:
64,192,38651,128,2,38828:0:0:0:0:
448,192,38651,1,8,0:0:0:0:
320,192,38828,1,0,0:0:0:0:
64,192,39004,1,2,0:0:0:0:
448,192,39004,1,0,0:0:0:0:
192,192,39092,1,0,0:0:0:0:
320,192,39180,1,0,0:0:0:0:
64,192,39269,1,0,0:0:0:0:
320,192,39357,1,2,0:0:0:0:
448,192,39357,1,8,0:0:0:0:
192,192,39445,1,0,0:0:0:0:
64,192,39533,128,0,39710:0:0:0:0:
192,192,39710,1,2,0:0:0:0:
320,192,39710,128,0,39886:0:0:0:0:
448,192,39886,128,0,40063:0:0:0:0:
320,192,40063,1,2,0:0:0:0:
192,192,40063,128,8,40239:0:0:0:0:
64,192,40239,128,0,40416:0:0:0:0:
192,192,40416,1,2,0:0:0:0:
320,192,40416,1,0,0:0:0:0:
448,192,40592,1,0,0:0:0:0:
320,192,40680,1,0,0:0:0:0:
64,192,40769,1,2,0:0:0:0:
192,192,40769,1,8,0:0:0:0:
320,192,40945,1,0,0:0:0:0:
448,192,41122,128,2,41298:0:0:0:0:
64,192,41122,1,0,0:0:0:0:
192,192,41298,1,0,0:0:0:0:
64,192,41475,1,2,0:0:0:0:
448,192,41475,128,8,41651:0:0:0:0:
192,192,41651,1,0,0:0:0:0:
64,192,41828,1,2,0:0:0:0:
448,192,41828,1,0,0:0:0:0:
320,192,41916,1,0,0:0:0:0:
192,192,42004,1,0,0:0:0:0:
448,192,42092,1,0,0:0:0:0:
192,192,42180,1,2,0:0:0:0:
64,192,42180,1,8,0:0:0:0:
320,192,42269,1,0,0:0:0:0:
448,192,42357,128,0,42533:0:0:0:0:
64,192,42533,1,2,0:0:0:0:
192,192,42533,128,0,42710:0:0:0:0:
320,192,42710,128,0,42886:0:0:0:0:
192,192,42886,1,2,0:0:0:0:
64,192,42886,128,8,43063:0:0:0:0:
448,192,43063,128,0,43239:0:0:0:0:
192,192,43239,1,2,0:0:0:0:
64,192,43239,1,0,0:0:0:0:
320,192,43416,1,0,0:0:0:0:
448,192,43504,1,0,0:0:0:0:
64,192,43592,1,2,0:0:0:0:
192,192,43592,1,8,0:0:0:0:
320,192,43680,1,0,0:0:0:0:
64,192,43769,1,0,0:0:0:0:
448,192,43769,1,0,0:0:0:0:
192,192,43857,1,0,0:0:0:0:
448,192,43945,128,4,44122:0:0:0:0:
320,192,43945,1,2,0:0:0:0:
64,192,43945,1,0,0:0:0:0:
192,192,44122,1,0,0:0:0:0:
448,192,44298,128,2,44475:0:0:0:0:
320,192,44298,1,8,0:0:0:0:
192,192,44475,1,0,0:0:0:0:
448,192,44651,1,2,0:0:0:0:
64,192,44651,1,0,0:0:0:0:
192,192,44739,1,0,0:0:0:0:
320,192,44828,1,0,0:0:0:0:
64,192,44916,1,0,0:0:0:0:
448,192,45004,1,2,0:0:0:0:
320,192,45004,1,8,0:0:0:0:
192,192,45092,1,0,0:0:0:0:
448,192,45180,128,0,45357:0:0:0:0:
192,192,45357,1,2,0:0:0:0:
64,192,45357,128,0,45533:0:0:0:0:
320,192,45533,128,0,45710:0:0:0:0:
64,192,45710,1,2,0:0:0:0:
192,192,45710,128,8,45886:0:0:0:0:
448,192,45886,128,0,46063:0:0:0:0:
64,192,46063,1,2,0:0:0:0:
192,192,46063,1,0,0:0:0:0:
320,192,46239,1,0,0:0:0:0:
192,192,46328,1,0,0:0:0:0:
64,192,46416,1,2,0:0:0:0:
448,192,46416,1,8,0:0:0:0:
320,192,46592,1,0,0:0:0:0:
448,192,46769,128,2,47122:0:0:0:0:
320,192,46769,1,0,0:0:0:0:
64,192,46769,1,0,0:0:0:0:
192,192,46945,1,0,0:0:0:0:
320,192,47033,1,0,0:0:0:0:
64,192,47122,1,8,0:0:0:0:
192,192,47122,128,2,47298:0:0:0:0:
320,192,47298,128,0,47475:0:0:0:0:
448,192,47475,1,2,0:0:0:0:
64,192,47475,128,0,47828:0:0:0:0:
192,192,47475,1,0,0:0:0:0:
320,192,47651,1,0,0:0:0:0:
192,192,47739,1,0,0:0:0:0:
320,192,47828,1,2,0:0:0:0:
448,192,47828,128,8,48004:0:0:0:0:
64,192,48004,128,0,48180:0:0:0:0:
448,192,48180,5,2,0:0:0:0:
320,192,48180,1,0,0:0:0:0:
64,192,48269,1,0,0:0:0:0:
192,192,48269,1,0,0:0:0:0:
448,192,48357,1,0,0:0:0:0:
320,192,48357,1,0,0:0:0:0:
192,192,48445,1,0,0:0:0:0:
64,192,48445,1,0,0:0:0:0:
320,192,48533,1,2,0:0:0:0:
448,192,48533,1,8,0:0:0:0:
64,192,48622,1,0,0:0:0:0:
192,192,48622,1,0,0:0:0:0:
320,192,48710,1,0,0:0:0:0:
448,192,48710,1,0,0:0:0:0:
192,192,48798,1,0,0:0:0:0:
448,192,48886,128,2,50298:0:0:0:0:
320,192,48886,1,8,0:0:0:0:
64,192,48886,1,4,0:0:0:0:
320,192,49239,128,0,50298:0:0:0:0:
192,192,49592,128,0,50298:0:0:0:0:
64,192,49945,128,0,50298:0:0:0:0:
64,192,50475,1,0,0:0:0:0:
192,192,50475,1,0,0:0:0:0:
320,192,50563,1,0,0:0:0:0:
448,192,50563,1,0,0:0:0:0:
192,192,50651,1,0,0:0:0:0:
64,192,50651,1,0,0:0:0:0:
320,192,50828,1,0,0:0:0:0:
192,192,50828,1,0,0:0:0:0:
64,192,51004,1,2,0:0:0:0:
320,192,51004,1,4,0:0:0:0:
448,192,51004,1,0,0:0:0:0:
192,192,51180,1,0,0:0:0:0:
64,192,51180,1,0,0:0:0:0:
320,192,51357,1,2,0:0:0:0:
192,192,51357,1,8,0:0:0:0:
448,192,51357,1,0,0:0:0:0:
64,192,51533,1,0,0:0:0:0:
448,192,51533,1,0,0:0:0:0:
192,192,51710,1,2,0:0:0:0:
320,192,51710,1,0,0:0:0:0:
64,192,51886,1,0,0:0:0:0:
448,192,51886,1,0,0:0:0:0:
192,192,52063,1,2,0:0:0:0:
64,192,52063,1,8,0:0:0:0:
320,192,52063,1,0,0:0:0:0:
448,192,52239,1,0,0:0:0:0:
320,192,52239,1,0,0:0:0:0:
192,192,52416,1,2,0:0:0:0:
64,192,52416,1,0,0:0:0:0:
64,192,52592,1,0,0:0:0:0:
448,192,52592,1,0,0:0:0:0:
448,192,52769,1,2,0:0:0:0:
320,192,52769,1,8,0:0:0:0:
192,192,52769,1,0,0:0:0:0:
448,192,52945,1,0,0:0:0:0:
64,192,52945,1,0,0:0:0:0:
320,192,53122,128,2,53210:0:0:0:0:
64,192,53122,128,0,53210:0:0:0:0:
192,192,53298,128,0,53386:0:0:0:0:
448,192,53298,128,0,53386:0:0:0:0:
320,192,53475,128,2,53563:0:0:0:0:
192,192,53475,128,8,53563:0:0:0:0:
64,192,53651,128,0,53739:0:0:0:0:
448,192,53651,128,0,53739:0:0:0:0:
64,192,53828,1,2,0:0:0:0:
192,192,53828,1,0,0:0:0:0:
320,192,54004,1,0,0:0:0:0:
448,192,54004,1,0,0:0:0:0:
448,192,54180,1,2,0:0:0:0:
64,192,54180,1,8,0:0:0:0:
192,192,54180,1,0,0:0:0:0:
192,192,54357,1,0,0:0:0:0:
320,192,54357,1,0,0:0:0:0:
64,192,54533,1,2,0:0:0:0:
448,192,54533,1,0,0:0:0:0:
320,192,54710,1,0,0:0:0:0:
192,192,54710,1,0,0:0:0:0:
64,192,54886,1,2,0:0:0:0:
320,192,54886,1,8,0:0:0:0:
448,192,54886,1,0,0:0:0:0:
192,192,55063,1,0,0:0:0:0:
64,192,55063,1,0,0:0:0:0:
448,192,55239,1,2,0:0:0:0:
320,192,55239,1,0,0:0:0:0:
192,192,55416,1,0,0:0:0:0:
320,192,55416,1,0,0:0:0:0:
64,192,55592,1,2,0:0:0:0:
448,192,55592,1,8,0:0:0:0:
192,192,55592,1,0,0:0:0:0:
320,192,55769,1,0,0:0:0:0:
192,192,55769,1,0,0:0:0:0:
448,192,55945,1,2,0:0:0:0:
64,192,55945,1,0,0:0:0:0:
320,192,56033,1,0,0:0:0:0:
64,192,56122,1,0,0:0:0:0:
192,192,56122,1,0,0:0:0:0:
448,192,56210,1,0,0:0:0:0:
192,192,56298,1,2,0:0:0:0:
320,192,56298,1,8,0:0:0:0:
64,192,56386,1,0,0:0:0:0:
320,192,56475,1,0,0:0:0:0:
448,192,56475,1,0,0:0:0:0:
192,192,56563,1,0,0:0:0:0:
320,192,56651,1,2,0:0:0:0:
448,192,56651,1,4,0:0:0:0:
64,192,56651,1,0,0:0:0:0:
320,192,56828,1,0,0:0:0:0:
192,192,56828,1,0,0:0:0:0:
192,192,57004,1,2,0:0:0:0:
448,192,57004,1,8,0:0:0:0:
64,192,57004,1,0,0:0:0:0:
64,192,57180,1,0,0:0:0:0:
320,192,57180,1,0,0:0:0:0:
192,192,57357,1,2,0:0:0:0:
448,192,57357,1,0,0:0:0:0:
320,192,57533,1,0,0:0:0:0:
64,192,57533,1,0,0:0:0:0:
192,192,57710,1,2,0:0:0:0:
448,192,57710,1,8,0:0:0:0:
320,192,57710,1,0,0:0:0:0:
448,192,57886,1,0,0:0:0:0:
64,192,57886,1,0,0:0:0:0:
192,192,58063,1,2,0:0:0:0:
320,192,58063,1,0,0:0:0:0:
192,192,58239,1,0,0:0:0:0:
448,192,58239,1,0,0:0:0:0:
64,192,58416,1,2,0:0:0:0:
448,192,58416,1,8,0:0:0:0:
320,192,58416,1,0,0:0:0:0:
448,192,58592,1,0,0:0:0:0:
192,192,58592,1,0,0:0:0:0:
192,192,58769,128,2,58857:0:0:0:0:
64,192,58769,128,0,58857:0:0:0:0:
448,192,58945,128,0,59033:0:0:0:0:
320,192,58945,128,0,59033:0:0:0:0:
192,192,59122,128,2,59210:0:0:0:0:
320,192,59122,128,8,59210:0:0:0:0:
64,192,59298,128,0,59386:0:0:0:0:
448,192,59298,128,0,59386:0:0:0:0:
448,192,59475,1,2,0:0:0:0:
320,192,59475,1,0,0:0:0:0:
192,192,59651,1,0,0:0:0:0:
64,192,59651,1,0,0:0:0:0:
320,192,59828,1,2,0:0:0:0:
448,192,59828,1,8,0:0:0:0:
64,192,59828,1,0,0:0:0:0:
448,192,60004,1,0,0:0:0:0:
192,192,60004,1,0,0:0:0:0:
64,192,60180,1,2,0:0:0:0:
320,192,60180,1,0,0:0:0:0:
192,192,60357,1,0,0:0:0:0:
448,192,60357,1,0,0:0:0:0:
320,192,60533,1,2,0:0:0:0:
192,192,60533,1,8,0:0:0:0:
64,192,60533,1,0,0:0:0:0:
448,192,60710,1,0,0:0:0:0:
320,192,60710,1,0,0:0:0:0:
64,192,60886,1,2,0:0:0:0:
192,192,60886,1,0,0:0:0:0:
320,192,60975,1,0,0:0:0:0:
64,192,61063,1,0,0:0:0:0:
448,192,61063,1,0,0:0:0:0:
192,192,61151,1,0,0:0:0:0:
320,192,61239,1,2,0:0:0:0:
448,192,61239,1,8,0:0:0:0:
64,192,61328,1,0,0:0:0:0:
320,192,61416,1,0,0:0:0:0:
192,192,61416,1,0,0:0:0:0:
448,192,61504,1,0,0:0:0:0:
64,192,61592,1,2,0:0:0:0:
192,192,61592,1,0,0:0:0:0:
448,192,61680,1,0,0:0:0:0:
320,192,61680,1,0,0:0:0:0:
192,192,61769,1,0,0:0:0:0:
64,192,61769,1,0,0:0:0:0:
320,192,61857,1,0,0:0:0:0:
64,192,61945,1,2,0:0:0:0:
448,192,61945,1,8,0:0:0:0:
192,192,62033,1,0,0:0:0:0:
320,192,62033,1,0,0:0:0:0:
448,192,62122,1,0,0:0:0:0:
64,192,62122,1,0,0:0:0:0:
192,192,62210,1,0,0:0:0:0:
320,192,62298,128,2,62475:0:0:0:0:
448,192,62298,128,4,62475:0:0:0:0:
64,192,62298,128,0,62475:0:0:0:0:
320,192,62651,128,2,62828:0:0:0:0:
448,192,62651,128,4,62828:0:0:0:0:
64,192,62651,128,0,62828:0:0:0:0:
320,192,63004,128,2,63180:0:0:0:0:
448,192,63004,128,4,63180:0:0:0:0:
64,192,63004,128,0,63180:0:0:0:0:
192,192,63180,1,0,0:0:0:0:
320,192,63269,1,0,0:0:0:0:
448,192,63357,1,0,0:0:0:0:
64,192,63357,1,0,0:0:0:0:
192,192,63357,1,0,0:0:0:0:
