osu file format v14

[General]
AudioFilename: audio.ogg
AudioLeadIn: 0
PreviewTime: 50298
Countdown: 0
SampleSet: Soft
StackLeniency: 0.7
Mode: 3
LetterboxInBreaks: 0
SpecialStyle: 0
WidescreenStoryboard: 0

[Editor]
DistanceSpacing: 1
BeatDivisor: 4
GridSize: 32
TimelineZoom: 2

[Metadata]
Title:More One Night (Assertive Hardcore Bootleg) (Cut Ver.)
TitleUnicode:More One Night (Assertive Hardcore Bootleg) (Cut Ver.)
Artist:Chito (CV: Minase Inori), Yuuri (CV: Kubo Yurika)
ArtistUnicode:チト(CV:水瀬いのり)、ユーリ(CV:久保ユリカ)
Creator:Carol
Version:Easy
Source:少女終末旅行
Tags:anime electronic japanese girls’ last tour shoujo shuumatsu ryokou remix ed ending
BeatmapID:2119233
BeatmapSetID:1010542

[Difficulty]
HPDrainRate:7
CircleSize:4
OverallDifficulty:7
ApproachRate:5
SliderMultiplier:1.4
SliderTickRate:1

[Events]
//Background and Video events
0,0,"dab BG.png",0,0
//Break Periods
//Storyboard Layer 0 (Background)
//Storyboard Layer 1 (Fail)
//Storyboard Layer 2 (Pass)
//Storyboard Layer 3 (Foreground)
//Storyboard Layer 4 (Overlay)
//Storyboard Sound Samples

[TimingPoints]
181,352.941176470588,4,2,1,40,1,0
38298,-100,4,2,1,40,0,1
48886,-100,4,2,1,40,0,0
51004,-100,4,2,1,40,0,1
63357,-100,4,2,1,40,0,0

[HitObjects]
64,192,181,5,2,0:0:0:0:
448,192,181,1,0,0:0:0:0:
192,192,533,1,2,0:0:0:0:
320,192,886,1,2,0:0:0:0:
448,192,886,1,0,0:0:0:0:
64,192,1239,1,2,0:0:0:0:
320,192,1592,1,2,0:0:0:0:
192,192,1592,1,0,0:0:0:0:
448,192,1945,1,2,0:0:0:0:
192,192,2298,1,2,0:0:0:0:
64,192,2298,1,0,0:0:0:0:
320,192,2651,1,2,0:0:0:0:
448,192,3004,128,0,4063:0:0:0:0:
192,192,4063,1,0,0:0:0:0:
448,192,4416,1,4,0:0:0:0:
64,192,4416,128,2,5122:0:0:0:0:
320,192,4769,1,8,0:0:0:0:
192,192,5122,128,0,5475:0:0:0:0:
64,192,5475,1,8,0:0:0:0:
320,192,5651,128,0,6886:0:0:0:0:
448,192,6180,1,8,0:0:0:0:
192,192,6886,128,8,7239:0:0:0:0:
448,192,7239,128,0,7945:0:0:0:0:
64,192,7592,1,8,0:0:0:0:
320,192,7945,128,0,8298:0:0:0:0:
448,192,8298,1,8,0:0:0:0:
192,192,8475,128,0,9357:0:0:0:0:
320,192,9004,1,8,0:0:0:0:
64,192,9357,128,0,9710:0:0:0:0:
448,192,9710,1,8,0:0:0:0:
64,192,10063,1,8,0:0:0:0:
448,192,10063,1,4,0:0:0:0:
192,192,10416,1,8,0:0:0:0:
448,192,10769,1,8,0:0:0:0:
320,192,10769,1,0,0:0:0:0:
192,192,11122,1,8,0:0:0:0:
64,192,11475,1,8,0:0:0:0:
448,192,11475,1,0,0:0:0:0:
320,192,11828,1,8,0:0:0:0:
192,192,12180,1,8,0:0:0:0:
64,192,12180,1,0,0:0:0:0:
320,192,12533,1,8,0:0:0:0:
448,192,12886,128,0,14298:0:0:0:0:
64,192,12886,1,8,0:0:0:0:
192,192,13239,1,8,0:0:0:0:
320,192,13592,1,8,0:0:0:0:
192,192,13945,1,8,0:0:0:0:
64,192,14298,128,8,14651:0:0:0:0:
192,192,14651,128,8,15004:0:0:0:0:
320,192,15004,128,8,15357:0:0:0:0:
448,192,15357,1,0,0:0:0:0:
64,192,15710,128,2,16063:0:0:0:0:
192,192,15710,1,4,0:0:0:0:
448,192,16063,1,10,0:0:0:0:
192,192,16239,1,0,0:0:0:0:
320,192,16416,1,2,0:0:0:0:
64,192,16769,1,10,0:0:0:0:
192,192,16945,1,0,0:0:0:0:
448,192,17122,128,2,17475:0:0:0:0:
320,192,17475,1,10,0:0:0:0:
192,192,17651,1,0,0:0:0:0:
64,192,17828,1,2,0:0:0:0:
320,192,18180,128,10,18533:0:0:0:0:
448,192,18533,1,2,0:0:0:0:
64,192,18710,1,0,0:0:0:0:
448,192,18886,1,10,0:0:0:0:
192,192,19063,1,0,0:0:0:0:
320,192,19239,1,2,0:0:0:0:
64,192,19592,1,10,0:0:0:0:
192,192,19769,1,0,0:0:0:0:
320,192,19945,128,2,20298:0:0:0:0:
192,192,20298,1,10,0:0:0:0:
448,192,20475,1,0,0:0:0:0:
320,192,20651,1,2,0:0:0:0:
64,192,21004,1,10,0:0:0:0:
192,192,21180,1,0,0:0:0:0:
320,192,21357,128,2,21710:0:0:0:0:
448,192,21710,1,10,0:0:0:0:
192,192,21886,1,0,0:0:0:0:
64,192,22063,1,2,0:0:0:0:
192,192,22416,128,10,22769:0:0:0:0:
320,192,22769,1,2,0:0:0:0:
448,192,22945,1,0,0:0:0:0:
320,192,23122,1,10,0:0:0:0:
192,192,23298,1,0,0:0:0:0:
64,192,23475,1,2,0:0:0:0:
192,192,23828,1,10,0:0:0:0:
320,192,24004,1,0,0:0:0:0:
448,192,24180,128,2,24533:0:0:0:0:
320,192,24533,1,10,0:0:0:0:
192,192,24710,1,0,0:0:0:0:
64,192,24886,128,2,25239:0:0:0:0:
320,192,25239,128,10,25592:0:0:0:0:
448,192,25592,1,6,0:0:0:0:
64,192,25769,1,6,0:0:0:0:
448,192,25945,1,6,0:0:0:0:
64,192,26122,1,6,0:0:0:0:
448,192,26298,1,6,0:0:0:0:
192,192,26651,128,0,27004:0:0:0:0:
448,192,27004,1,6,0:0:0:0:
64,192,27004,1,8,0:0:0:0:
448,192,27357,1,8,0:0:0:0:
64,192,27357,1,0,0:0:0:0:
320,192,27710,1,8,0:0:0:0:
192,192,27975,1,0,0:0:0:0:
64,192,28239,1,0,0:0:0:0:
320,192,28416,1,8,0:0:0:0:
448,192,28416,1,0,0:0:0:0:
320,192,28769,1,8,0:0:0:0:
448,192,28769,1,0,0:0:0:0:
64,192,29122,1,8,0:0:0:0:
192,192,29386,1,0,0:0:0:0:
320,192,29651,1,0,0:0:0:0:
64,192,29828,1,8,0:0:0:0:
192,192,29828,1,0,0:0:0:0:
64,192,30180,1,8,0:0:0:0:
192,192,30180,1,0,0:0:0:0:
320,192,30533,1,8,0:0:0:0:
192,192,30798,1,0,0:0:0:0:
64,192,31063,1,0,0:0:0:0:
320,192,31239,1,8,0:0:0:0:
448,192,31239,1,0,0:0:0:0:
320,192,31592,1,8,0:0:0:0:
448,192,31592,1,0,0:0:0:0:
64,192,31945,1,8,0:0:0:0:
192,192,32210,1,0,0:0:0:0:
320,192,32475,1,0,0:0:0:0:
64,192,32651,1,8,0:0:0:0:
448,192,32651,1,4,0:0:0:0:
192,192,33004,1,8,0:0:0:0:
64,192,33004,1,0,0:0:0:0:
448,192,33357,1,8,0:0:0:0:
320,192,33622,1,0,0:0:0:0:
192,192,33886,1,8,0:0:0:0:
448,192,34063,1,8,0:0:0:0:
320,192,34063,1,0,0:0:0:0:
448,192,34416,1,8,0:0:0:0:
64,192,34416,1,0,0:0:0:0:
192,192,34769,1,8,0:0:0:0:
320,192,35033,1,0,0:0:0:0:
448,192,35298,1,8,0:0:0:0:
64,192,35475,1,2,0:0:0:0:
192,192,35475,1,4,0:0:0:0:
320,192,35828,1,0,0:0:0:0:
64,192,36180,1,2,0:0:0:0:
192,192,36180,1,4,0:0:0:0:
320,192,36533,1,0,0:0:0:0:
64,192,36886,1,2,0:0:0:0:
448,192,36886,1,4,0:0:0:0:
64,192,37239,1,2,0:0:0:0:
448,192,37239,1,4,0:0:0:0:
64,192,37592,1,2,0:0:0:0:
448,192,37592,1,4,0:0:0:0:
192,192,37945,1,0,0:0:0:0:
64,192,38122,1,0,0:0:0:0:
320,192,38298,1,2,0:0:0:0:
448,192,38298,1,4,0:0:0:0:
320,192,38651,1,2,0:0:0:0:
448,192,38651,1,8,0:0:0:0:
64,192,39004,1,2,0:0:0:0:
320,192,39357,1,8,0:0:0:0:
192,192,39357,1,2,0:0:0:0:
448,192,39710,1,2,0:0:0:0:
64,192,39886,1,0,0:0:0:0:
448,192,40063,1,10,0:0:0:0:
192,192,40239,1,0,0:0:0:0:
448,192,40416,1,2,0:0:0:0:
192,192,40769,1,2,0:0:0:0:
320,192,40769,1,8,0:0:0:0:
64,192,41122,1,2,0:0:0:0:
448,192,41122,1,0,0:0:0:0:
64,192,41475,1,2,0:0:0:0:
448,192,41475,1,8,0:0:0:0:
192,192,41828,1,2,0:0:0:0:
448,192,42180,1,2,0:0:0:0:
320,192,42180,1,8,0:0:0:0:
64,192,42533,1,2,0:0:0:0:
192,192,42710,1,0,0:0:0:0:
448,192,42886,1,10,0:0:0:0:
320,192,43063,1,0,0:0:0:0:
192,192,43239,1,2,0:0:0:0:
448,192,43592,1,2,0:0:0:0:
320,192,43592,1,8,0:0:0:0:
192,192,43945,1,2,0:0:0:0:
64,192,43945,1,4,0:0:0:0:
192,192,44298,1,2,0:0:0:0:
64,192,44298,1,8,0:0:0:0:
448,192,44651,1,2,0:0:0:0:
320,192,45004,1,2,0:0:0:0:
192,192,45004,1,8,0:0:0:0:
64,192,45357,1,2,0:0:0:0:
448,192,45533,1,0,0:0:0:0:
64,192,45710,1,10,0:0:0:0:
320,192,45886,1,0,0:0:0:0:
64,192,46063,1,2,0:0:0:0:
192,192,46416,1,2,0:0:0:0:
320,192,46416,1,8,0:0:0:0:
448,192,46769,128,2,47122:0:0:0:0:
64,192,46769,1,0,0:0:0:0:
320,192,47122,1,10,0:0:0:0:
192,192,47298,1,0,0:0:0:0:
64,192,47475,128,2,47828:0:0:0:0:
448,192,47475,1,0,0:0:0:0:
192,192,47828,1,10,0:0:0:0:
320,192,48004,1,0,0:0:0:0:
448,192,48180,128,2,48533:0:0:0:0:
320,192,48533,128,10,48886:0:0:0:0:
192,192,48886,128,6,50298:0:0:0:0:
64,192,48886,1,8,0:0:0:0:
320,192,50475,1,0,0:0:0:0:
192,192,50651,1,0,0:0:0:0:
320,192,50828,1,0,0:0:0:0:
448,192,51004,1,2,0:0:0:0:
64,192,51004,1,4,0:0:0:0:
448,192,51357,1,2,0:0:0:0:
64,192,51357,1,8,0:0:0:0:
192,192,51533,1,0,0:0:0:0:
320,192,51710,128,2,52063:0:0:0:0:
448,192,51710,1,0,0:0:0:0:
192,192,52063,128,8,52416:0:0:0:0:
64,192,52063,1,2,0:0:0:0:
448,192,52416,1,2,0:0:0:0:
320,192,52416,1,0,0:0:0:0:
320,192,52769,1,2,0:0:0:0:
448,192,52769,1,8,0:0:0:0:
192,192,52945,1,0,0:0:0:0:
64,192,53122,128,2,53475:0:0:0:0:
448,192,53122,1,0,0:0:0:0:
192,192,53475,1,2,0:0:0:0:
320,192,53475,128,8,53828:0:0:0:0:
64,192,53828,1,2,0:0:0:0:
448,192,53828,1,0,0:0:0:0:
64,192,54180,1,2,0:0:0:0:
448,192,54180,1,8,0:0:0:0:
320,192,54357,1,0,0:0:0:0:
192,192,54533,128,2,54886:0:0:0:0:
64,192,54533,1,0,0:0:0:0:
320,192,54886,128,8,55239:0:0:0:0:
448,192,54886,1,2,0:0:0:0:
192,192,55239,1,2,0:0:0:0:
64,192,55239,1,0,0:0:0:0:
64,192,55592,1,2,0:0:0:0:
192,192,55592,1,8,0:0:0:0:
320,192,55769,1,0,0:0:0:0:
448,192,55945,128,2,56298:0:0:0:0:
64,192,55945,1,0,0:0:0:0:
192,192,56298,128,8,56651:0:0:0:0:
320,192,56298,1,2,0:0:0:0:
448,192,56651,1,2,0:0:0:0:
64,192,56651,1,4,0:0:0:0:
448,192,57004,1,2,0:0:0:0:
64,192,57004,1,8,0:0:0:0:
192,192,57180,1,0,0:0:0:0:
320,192,57357,128,2,57710:0:0:0:0:
448,192,57357,1,0,0:0:0:0:
192,192,57710,128,8,58063:0:0:0:0:
64,192,57710,1,2,0:0:0:0:
448,192,58063,1,2,0:0:0:0:
320,192,58063,1,0,0:0:0:0:
448,192,58416,1,2,0:0:0:0:
320,192,58416,1,8,0:0:0:0:
192,192,58592,1,0,0:0:0:0:
64,192,58769,128,2,59122:0:0:0:0:
448,192,58769,1,0,0:0:0:0:
320,192,59122,128,8,59475:0:0:0:0:
192,192,59122,1,2,0:0:0:0:
448,192,59475,1,2,0:0:0:0:
64,192,59475,1,0,0:0:0:0:
448,192,59828,1,2,0:0:0:0:
64,192,59828,1,8,0:0:0:0:
320,192,60004,1,0,0:0:0:0:
192,192,60180,128,2,60533:0:0:0:0:
64,192,60180,1,0,0:0:0:0:
320,192,60533,128,8,60886:0:0:0:0:
448,192,60533,1,2,0:0:0:0:
64,192,60886,1,2,0:0:0:0:
192,192,60886,1,0,0:0:0:0:
64,192,61239,1,2,0:0:0:0:
192,192,61239,1,8,0:0:0:0:
448,192,61592,128,2,61945:0:0:0:0:
320,192,61592,1,0,0:0:0:0:
64,192,61945,128,8,62298:0:0:0:0:
192,192,61945,1,2,0:0:0:0:
320,192,62298,1,2,0:0:0:0:
448,192,62298,1,4,0:0:0:0:
448,192,62651,1,2,0:0:0:0:
320,192,62651,1,4,0:0:0:0:
320,192,63004,1,2,0:0:0:0:
448,192,63004,1,4,0:0:0:0:
64,192,63357,1,0,0:0:0:0:
