osu file format v14

[General]
AudioFilename: audio.mp3
AudioLeadIn: 0
PreviewTime: 149768
Countdown: 0
SampleSet: Soft
StackLeniency: 0.7
Mode: 2
LetterboxInBreaks: 0
WidescreenStoryboard: 1

[Editor]
Bookmarks: 3376,98847,137670
DistanceSpacing: 1.1
BeatDivisor: 4
GridSize: 32
TimelineZoom: 2.7

[Metadata]
Title:More One Night (Assertive Hardcore Bootleg) [long ver.]
TitleUnicode:More One Night (Assertive Hardcore Bootleg) [long ver.]
Artist:Chito (CV: Minase Inori), Yuuri (CV: Kubo Yurika)
ArtistUnicode:チト (CV:水瀬いのり)、ユーリ (CV:久保ユリカ)
Creator:Spectator
Version:wonjae's Salad
Source:少女終末旅行
Tags:Shoujo Shuumatsu Ryokou Girls Last Tour ending tasuke912 -Plus- Bunnrei Chara wonjae Paranoid Grapes Electronic Japanese Anime
BeatmapID:1854354
BeatmapSetID:875737

[Difficulty]
HPDrainRate:4
CircleSize:3.1
OverallDifficulty:7
ApproachRate:7
SliderMultiplier:1.45
SliderTickRate:1

[Events]
//Background and Video events
0,0,"more_one_night.jpg",0,0
//Break Periods
2,109645,111368
//Storyboard Layer 0 (Background)
//Storyboard Layer 1 (Fail)
//Storyboard Layer 2 (Pass)
//Storyboard Layer 3 (Foreground)
//Storyboard Layer 4 (Overlay)
//Storyboard Sound Samples

[TimingPoints]
34,352.941176470588,4,2,1,65,1,0
386,-100,4,2,1,68,0,0
739,-100,4,2,1,70,0,0
1092,-100,4,2,1,73,0,0
1445,-100,4,2,1,75,0,0
1798,-100,4,2,1,78,0,0
2151,-100,4,2,1,80,0,0
2504,-100,4,2,1,85,0,0
2769,-100,4,2,1,85,0,0
2857,-100,4,2,1,85,0,0
3033,-100,4,2,1,85,0,0
3210,-100,4,2,1,85,0,0
3386,-100,4,2,1,85,0,0
3563,-100,4,2,1,85,0,0
3739,-100,4,2,1,85,0,0
3916,-100,4,2,2,85,0,0
4092,-100,4,2,1,10,0,0
4269,-100,4,2,2,70,0,0
7092,-100,4,2,2,70,0,0
9386,-100,4,2,2,10,0,0
9563,-100,4,2,2,70,0,0
9916,-100,4,2,1,85,0,0
12739,-100,4,2,1,88,0,0
13445,-100,4,2,1,90,0,0
15563,-100,4,1,1,90,0,0
26328,-100,4,1,3,75,0,0
26681,-100,4,1,3,10,0,0
26857,-100,4,2,1,90,0,0
32151,-100,4,2,1,90,0,0
32504,-100,4,2,1,95,0,0
35328,-100,4,2,1,77,0,0
37798,-100,4,2,3,66,0,0
38151,-100,4,1,1,90,0,1
60033,-100,4,2,1,80,0,0
64975,-100,4,2,1,75,0,0
75739,-100,4,2,3,75,0,0
76092,-100,4,2,3,10,0,0
76269,-100,4,2,1,90,0,0
87210,-100,4,2,3,65,0,0
87563,-100,4,1,1,90,0,1
109445,352.941176470588,4,1,1,90,1,0
112268,-100,4,2,1,65,0,0
112621,-100,4,2,1,68,0,0
112974,-100,4,2,1,70,0,0
113327,-100,4,2,1,72,0,0
113680,-100,4,2,1,75,0,0
115092,-100,4,1,1,80,0,0
123562,-90.9090909090909,4,1,1,80,0,0
125327,-90.9090909090909,4,1,1,25,0,0
125503,-90.9090909090909,4,1,1,80,0,0
126033,-90.9090909090909,4,2,1,77,0,0
126386,-100,4,1,1,90,0,0
126739,-100,4,1,1,90,0,1
134150,-100,4,1,1,60,0,1
134503,-100,4,1,1,65,0,1
134856,-100,4,1,1,70,0,1
134944,-100,4,1,1,90,0,1
145444,-100,4,1,1,60,0,1
145797,-100,4,1,1,65,0,1
146150,-100,4,1,1,70,0,1
146327,-100,4,1,1,90,0,1
150209,-100,4,1,1,90,0,0
150386,-100,4,1,1,90,0,1
161503,-100,4,1,1,90,0,0
161680,-100,4,1,1,90,0,1
172621,-100,4,1,1,90,0,1
174033,-100,4,1,3,60,0,0

[Colours]
Combo1 : 249,149,193
Combo2 : 242,239,132
Combo3 : 134,210,104
Combo4 : 169,181,188

[HitObjects]
383,264,34,5,4,0:0:0:0:
312,260,386,1,4,0:0:0:0:
206,259,739,1,4,0:0:0:0:
44,250,1092,1,4,0:0:0:0:
200,177,1445,5,4,0:0:0:0:
74,131,1798,1,4,0:0:0:0:
226,92,2151,1,4,0:0:0:0:
51,53,2504,1,4,0:0:0:0:
222,37,2857,6,0,P|281:73|291:153,1,145
211,166,3386,1,0,0:0:0:0:
125,187,3563,2,0,P|46:246|41:291,1,145,0|2,0:0|0:0,0:0:0:0:
399,313,4269,6,0,L|402:160,1,145,4|8,0:0|0:0,0:0:0:0:
256,115,4975,1,2,0:0:0:0:
275,92,5239,1,2,0:0:0:0:
426,53,5504,2,0,P|445:120|386:191,1,145,2|0,0:0|0:0,0:0:0:0:
322,188,6033,6,0,L|313:31,1,145,8|0,0:0|0:0,0:0:0:0:
150,78,6739,2,0,L|71:78,1,72.5,2|0,0:0|0:0,0:0:0:0:
269,161,7092,6,0,P|320:196|263:243,1,145,2|8,0:0|0:0,0:0:0:0:
165,280,7798,1,2,0:0:0:0:
213,301,8063,1,2,0:0:0:0:
339,308,8328,2,0,P|392:239|383:179,1,145,2|0,0:0|0:0,0:0:0:0:
292,156,8857,6,0,P|234:128|235:35,1,145,8|2,0:0|0:0,0:0:0:0:
366,59,9563,2,0,L|456:59,1,72.5,8|0,0:0|0:0,0:0:0:0:
244,232,9916,5,4,1:0:0:0:
183,182,10092,1,2,0:3:0:0:
184,237,10269,1,8,1:2:0:0:
245,184,10445,1,0,0:0:0:0:
313,180,10622,2,0,L|311:13,1,145,8|8,1:2|1:2,0:0:0:0:
168,52,11328,5,8,1:2:0:0:
170,121,11504,1,2,0:3:0:0:
256,118,11681,1,8,1:2:0:0:
253,201,11857,1,2,0:3:0:0:
341,202,12033,2,0,L|413:201,2,72.5,8|2|8,1:2|0:3|1:2,0:0:0:0:
58,322,12739,5,8,1:2:0:0:
37,246,12916,1,8,1:2:0:0:
67,170,13092,1,8,1:2:0:0:
150,142,13269,1,8,1:2:0:0:
239,119,13445,6,0,L|237:23,1,72.5,8|8,1:2|1:2,0:0:0:0:
145,30,13798,2,0,L|54:30,1,72.5,8|8,1:2|1:2,0:0:0:0:
262,86,14151,6,0,P|431:106|403:338,1,435,8|4,0:0|0:3,0:0:0:0:
111,250,15563,6,0,L|105:87,1,145,4|8,1:2|0:0,0:0:0:0:
203,90,16092,1,2,2:3:0:0:
301,77,16269,1,0,1:0:0:0:
161,126,16622,2,0,L|159:49,1,72.5,8|2,0:0|2:0,0:0:0:0:
253,25,16975,6,0,L|415:25,1,145,0|8,1:0|1:0,0:0:0:0:
309,86,17504,1,2,2:3:0:0:
220,134,17681,1,0,1:0:0:0:
357,213,18033,2,0,L|363:303,1,72.5,8|2,1:0|2:0,0:0:0:0:
253,308,18386,6,0,L|153:305,1,72.5,0|2,1:0|2:0,0:0:0:0:
95,272,18739,1,8,1:0:0:0:
197,246,18916,1,2,2:0:0:0:
300,215,19092,1,0,0:0:0:0:
159,167,19445,2,0,L|157:67,1,72.5,8|2,1:0|2:0,0:0:0:0:
270,73,19798,6,0,L|360:74,2,72.5,0|2|8,1:0|2:0|1:0,0:0:0:0:
169,167,20328,1,2,2:0:0:0:
262,252,20504,1,0,0:0:0:0:
144,264,20857,2,0,L|107:198,1,72.5,8|2,1:0|2:0,0:0:0:0:
295,173,21210,6,0,P|347:128|289:97,1,145,0|8,1:0|1:0,0:0:0:0:
208,72,21739,1,2,2:2:0:0:
304,35,21916,1,0,1:0:0:0:
168,150,22269,6,0,L|171:246,1,72.5,8|0,1:0|2:0,0:0:0:0:
253,277,22622,2,0,L|348:278,1,72.5,0|2,1:0|2:0,0:0:0:0:
268,210,22975,2,0,L|185:209,2,72.5,8|2|0,1:0|2:0|1:0,0:0:0:0:
429,170,23681,6,0,L|427:90,1,72.5,8|2,1:0|2:0,0:0:0:0:
243,113,24033,2,0,P|163:164|163:208,1,145,0|8,1:0|1:0,0:0:0:0:
254,245,24563,1,2,2:0:0:0:
361,266,24739,2,0,L|444:132,1,145,0|8,1:0|1:0,0:0:0:0:
128,215,25445,6,0,L|39:211,2,72.5,4|4|4,1:0|1:0|1:0,0:0:0:0:
233,218,25975,1,4,1:0:0:0:
322,268,26151,6,0,L|149:266,1,145,4|8,1:0|2:0,0:0:0:0:
484,171,26857,6,0,L|483:8,1,145,4|8,1:2|0:0,0:0:0:0:
332,43,27563,2,0,P|387:58|430:151,1,145,8|8,2:0|0:0,0:0:0:0:
331,122,28092,1,0,0:0:0:0:
240,60,28269,6,0,L|241:225,1,145,8|8,2:0|2:0,0:0:0:0:
398,246,28975,2,0,L|236:257,1,145,8|8,2:0|0:0,0:0:0:0:
334,209,29504,1,2,0:0:0:0:
232,204,29681,6,0,L|82:208,1,145,8|8,0:0|0:0,0:0:0:0:
208,159,30386,2,0,L|207:8,1,145,8|8,0:0|0:0,0:0:0:0:
282,24,30916,1,2,0:0:0:0:
370,41,31092,6,0,P|374:152|344:172,1,145,8|8,0:0|0:0,0:0:0:0:
183,240,31798,2,0,P|109:213|102:132,1,145,8|8,0:0|0:0,0:0:0:0:
421,133,32504,6,0,L|523:124,2,72.5,8|10|8,0:0|0:0|0:0,0:0:0:0:
282,207,33210,2,0,L|145:224,2,108.75,8|0|8,0:0|0:0|0:0,0:0:0:0:
367,262,33916,2,0,L|446:280,2,72.5,8|10|8,2:0|0:0|0:0,0:0:0:0:
61,225,34622,2,0,L|29:143,1,72.5,10|0,0:0|0:0,0:0:0:0:
109,106,34975,1,10,0:0:0:0:
440,268,35328,6,0,L|470:201,2,72.5,4|0|8,1:2|1:0|1:2,0:0:0:0:
300,272,36033,2,0,L|227:269,2,72.5,4|0|0,1:2|1:0|1:0,0:0:0:0:
160,238,36739,2,0,L|66:235,1,72.5,4|0,1:2|1:0,0:0:0:0:
34,173,37092,2,0,L|34:76,1,72.5,4|4,1:0|1:0,0:0:0:0:
109,74,37445,1,4,1:0:0:0:
439,190,37798,5,8,0:0:0:0:
114,129,38151,6,0,P|70:70|122:41,1,145,4|8,0:2|0:2,0:0:0:0:
247,23,38857,2,0,L|124:27,2,108.75,4|0|0,1:0|2:0|1:0,0:0:0:0:
250,86,39563,1,4,1:0:0:0:
160,150,39739,2,0,L|60:150,2,72.5,0|8|0,2:0|1:2|2:0,0:0:0:0:
249,223,40269,1,4,1:0:0:0:
161,291,40622,2,0,L|70:268,1,72.5,8|2,0:2|2:0,0:0:0:0:
282,243,40975,6,0,P|366:220|373:146,1,145,4|8,1:0|1:2,0:0:0:0:
194,133,41681,2,0,L|68:136,2,108.75,4|0|2,1:0|2:0|2:0,0:0:0:0:
288,72,42386,2,0,L|289:-3,1,72.5,4|2,1:0|2:0,0:0:0:0:
185,19,42739,2,0,L|99:20,1,72.5,8|2,1:2|2:0,0:0:0:0:
174,88,43092,1,4,1:0:0:0:
301,177,43445,2,0,L|323:268,1,72.5,8|0,0:2|0:0,0:0:0:0:
137,301,43798,6,0,P|89:262|161:230,1,145,4|8,0:2|0:2,0:0:0:0:
321,165,44504,2,0,L|436:156,2,108.75,4|0|2,0:0|2:0|2:0,0:0:0:0:
228,216,45210,2,0,L|230:303,1,72.5,4|2,1:0|2:0,0:0:0:0:
325,333,45563,2,0,L|415:332,1,72.5,8|2,1:2|2:0,0:0:0:0:
354,258,45916,1,4,1:0:0:0:
213,158,46269,1,8,0:2:0:0:
357,64,46622,6,0,P|399:94|381:190,1,145,4|8,1:0|1:2,0:0:0:0:
294,221,47151,1,2,2:0:0:0:
204,285,47328,2,0,L|369:300,2,145,4|8|4,1:0|1:2|0:0,0:0:0:0:
114,211,48210,1,0,0:0:0:0:
114,117,48386,1,8,0:2:0:0:
176,76,48563,1,0,0:0:0:0:
259,67,48739,1,0,1:0:0:0:
392,199,49092,6,0,L|418:302,1,72.5,2|0,2:0|2:0,0:0:0:0:
225,289,49445,6,0,L|125:289,2,72.5,4|2|8,0:2|0:2|1:2,0:0:0:0:
336,220,50063,1,2,1:2:0:0:
231,160,50328,2,0,L|139:158,2,72.5,2|8|0,1:2|1:2|1:0,0:0:0:0:
338,211,50857,6,0,L|339:313,1,72.5,2|2,1:2|1:2,0:0:0:0:
252,323,51210,2,0,L|179:325,1,72.5,8|2,1:2|2:0,0:0:0:0:
253,262,51563,1,2,1:2:0:0:
323,220,51739,1,2,2:2:0:0:
253,185,51916,1,8,1:2:0:0:
182,163,52092,1,2,2:2:0:0:
352,67,52269,6,0,L|445:64,1,72.5,4|2,1:0|2:0,0:0:0:0:
346,115,52622,2,0,L|349:196,1,72.5,8|2,1:2|2:0,0:0:0:0:
445,215,52975,2,0,L|511:273,2,72.5,4|2|8,1:0|1:2|1:2,0:0:0:0:
133,239,53681,6,0,L|-1:238,2,108.75,4|0|2,1:0|2:0|2:0,0:0:0:0:
241,213,54386,2,0,L|237:115,1,72.5,4|2,1:0|1:2,0:0:0:0:
142,87,54739,2,0,L|235:92,1,72.5,8|0,1:2|1:0,0:0:0:0:
403,65,55092,6,0,L|487:65,2,72.5,4|2|8,1:2|0:2|1:2,0:0:0:0:
297,116,55710,2,0,L|299:166,1,36.25,2|0,0:2|0:0,0:0:0:0:
384,219,55975,2,0,L|482:220,2,72.5,2|8|2,0:2|1:2|1:2,0:0:0:0:
273,281,56504,6,0,L|272:185,1,72.5,4|2,1:0|2:0,0:0:0:0:
344,148,56857,2,0,L|432:150,1,72.5,8|2,1:2|1:2,0:0:0:0:
333,94,57210,1,4,1:0:0:0:
264,151,57386,1,2,2:0:0:0:
255,241,57563,1,8,1:2:0:0:
327,286,57739,1,0,0:0:0:0:
404,296,57916,6,0,L|251:301,1,145,4|8,0:0|1:2,0:0:0:0:
166,252,58445,1,2,2:0:0:0:
65,180,58622,2,0,P|49:104|106:51,1,145,4|8,0:0|1:2,0:0:0:0:
271,176,59328,6,0,L|427:176,1,145,8|8,1:2|1:2,0:0:0:0:
327,164,59857,1,4,1:0:0:0:
156,162,60033,1,4,2:0:0:0:
340,275,61622,2,0,L|355:325,2,36.25,0|0|2,0:0|0:0|0:0,0:0:0:0:
256,192,62151,12,0,64269,1:0:0:0:
374,217,64622,6,0,L|373:299,1,72.5,2|8,0:3|0:0,0:0:0:0:
187,307,64975,6,0,P|141:256|199:244,1,145,4|8,0:0|1:1,0:0:0:0:
277,217,65504,1,2,2:0:0:0:
367,205,65681,1,4,1:0:0:0:
264,144,66033,2,0,L|265:58,1,72.5,8|2,1:1|0:0,0:0:0:0:
371,56,66386,6,0,L|463:61,2,72.5,4|0|8,1:0|0:0|1:0,0:0:0:0:
262,112,66916,1,0,0:0:0:0:
171,151,67092,1,4,1:0:0:0:
290,241,67445,2,0,L|365:241,1,72.5,8|2,1:1|0:0,0:0:0:0:
276,187,67798,6,0,P|229:144|286:133,1,145,4|8,1:0|1:0,0:0:0:0:
369,108,68328,1,2,0:0:0:0:
286,53,68504,1,4,1:0:0:0:
147,103,68857,2,0,L|148:231,1,108.75,8|0,1:1|0:0,0:0:0:0:
211,250,69210,6,0,L|317:248,1,72.5,4|2,1:0|0:0,0:0:0:0:
194,175,69563,2,0,L|101:175,2,72.5,8|2|4,1:0|0:0|1:0,0:0:0:0:
306,138,70269,2,0,L|315:51,1,72.5,8|2,1:0|0:0,0:0:0:0:
134,53,70622,6,0,P|82:114|141:140,1,145,4|8,1:0|1:0,0:0:0:0:
209,178,71151,1,0,0:0:0:0:
301,195,71328,1,4,1:0:0:0:
192,306,71681,2,0,L|95:308,1,72.5,8|2,1:1|0:0,0:0:0:0:
208,239,72033,6,0,L|204:142,1,72.5,4|2,1:0|0:0,0:0:0:0:
111,161,72386,2,0,L|31:161,2,72.5,8|2|4,1:0|0:0|1:0,0:0:0:0:
246,104,73092,2,0,L|334:103,1,72.5,8|2,1:0|0:0,0:0:0:0:
137,306,73445,6,0,P|90:262|130:176,1,145,4|8,1:0|1:0,0:0:0:0:
250,157,74151,2,0,L|76:152,1,145,4|8,1:0|1:0,0:0:0:0:
417,93,74857,6,0,L|490:87,2,72.5,4|4|4,1:0|1:0|1:0,0:0:0:0:
349,158,75386,1,4,1:0:0:0:
268,209,75563,2,0,L|436:210,1,145,0|8,1:0|0:0,0:0:0:0:
104,331,76269,6,0,L|92:164,1,145,4|8,1:2|0:0,0:0:0:0:
223,109,76975,2,0,L|89:109,2,108.75,8|8|8,2:0|0:0|2:0,0:0:0:0:
295,125,77681,2,0,L|307:283,1,145,0|8,1:0|2:2,0:0:0:0:
450,305,78386,2,0,L|367:211,2,108.75,8|8|8,2:0|2:0|2:0,2:0:0:0:
257,234,79092,6,0,L|104:230,1,145,0|8,1:0|0:0,0:0:0:0:
256,163,79798,2,0,L|264:39,2,108.75,8|8|8,2:0|2:0|2:0,2:0:0:0:
331,204,80504,2,0,L|491:209,1,145,8|8,0:0|0:0,0:0:0:0:
163,260,81210,2,0,P|99:209|145:151,1,145,8|8,0:0|0:0,0:0:0:0:
441,192,81916,6,0,L|441:99,1,72.5,8|8,0:0|0:0,0:0:0:0:
369,81,82269,1,8,0:0:0:0:
252,170,82622,2,0,L|336:244,2,108.75,8|0|8,0:0|0:0|0:0,0:0:0:0:
161,163,83328,2,0,L|71:161,1,72.5,8|8,0:0|0:0,0:0:0:0:
90,87,83681,1,8,0:0:0:0:
419,98,84033,2,0,P|465:139|427:205,1,145,8|8,0:0|0:0,0:0:0:0:
110,323,84739,6,8,L|48:250,2,72.5,12|8|8,0:2|0:0|0:0,0:0:0:0:
233,246,85445,2,8,L|313:243,2,72.5,12|8|8,0:2|0:0|0:0,0:0:0:0:
403,205,86151,2,8,L|401:107,1,72.5,12|8,0:2|0:0,0:0:0:0:
482,117,86504,2,8,L|483:20,1,72.5,8|8,0:0|0:0,0:0:0:0:
402,30,86857,1,8,2:0:0:0:
76,174,87210,5,8,0:0:0:0:
390,281,87563,6,0,P|439:239|379:212,1,145,4|8,0:2|1:2,0:0:0:0:
262,162,88269,2,0,L|140:155,1,108.75,4|0,1:1|2:0,0:0:0:0:
181,112,88622,2,0,L|271:108,1,72.5,8|2,1:2|2:0,0:0:0:0:
340,200,88975,2,0,L|424:196,2,72.5,4|0|8,1:1|2:0|1:2,0:0:0:0:
269,286,89504,1,0,2:0:0:0:
186,323,89681,1,4,1:0:0:0:
302,335,90033,2,0,L|353:249,1,72.5,8|2,1:2|2:0,0:0:0:0:
155,240,90386,6,0,P|113:196|157:152,1,108.75,4|0,1:1|2:0,0:0:0:0:
157,153,90739,2,0,L|232:153,1,72.5,8|0,1:2|2:0,0:0:0:0:
316,271,91092,2,0,L|443:272,2,108.75,4|0|2,1:1|2:0|2:0,0:0:0:0:
242,212,91798,2,0,L|241:106,1,72.5,4|2,1:0|2:0,0:0:0:0:
319,104,92151,2,0,L|413:100,1,72.5,8|2,1:2|2:0,0:0:0:0:
472,91,92504,1,0,0:0:0:0:
350,194,92857,2,0,L|275:194,1,72.5,8|8,0:2|0:2,0:0:0:0:
100,285,93210,6,0,P|45:254|113:218,1,145,4|8,1:2|1:2,0:0:0:0:
219,153,93916,2,0,L|91:140,2,108.75,4|0|2,1:0|2:0|2:0,0:0:0:0:
261,156,94533,1,0,2:0:0:0:
305,161,94622,2,0,L|304:67,1,72.5,4|2,1:0|2:0,0:0:0:0:
208,59,94975,2,0,P|125:67|85:118,1,145,8|4,1:2|1:0,0:0:0:0:
238,235,95681,2,0,L|324:237,1,72.5,8|2,1:2|2:0,0:0:0:0:
125,198,96033,6,0,P|74:150|127:118,1,145,4|8,1:0|1:2,0:0:0:0:
263,61,96739,2,0,L|97:54,1,145,4|8,1:0|1:2,0:0:0:0:
197,118,97269,1,2,2:0:0:0:
297,186,97445,2,0,L|127:202,2,145,4|8|4,1:0|1:2|2:2,0:0:0:0:
449,246,98504,5,8,1:2:0:0:
138,311,98857,6,0,P|83:274|79:210,1,108.75,4|0,1:2|2:0,0:0:0:0:
112,197,99210,1,8,1:2:0:0:
255,153,99563,1,4,1:0:0:0:
346,64,99739,2,0,L|352:217,1,145,2|2,2:0|2:0,0:0:0:0:
228,118,100269,2,0,P|128:151|118:201,2,145,4|8|4,1:0|1:2|1:0,0:0:0:0:
334,132,101151,1,0,2:0:0:0:
431,158,101328,1,8,1:2:0:0:
133,316,101681,6,0,P|85:263|111:211,1,108.75,4|0,1:0|2:0,0:0:0:0:
137,209,102033,2,0,L|230:208,1,72.5,8|0,1:2|2:0,0:0:0:0:
290,165,102386,2,0,L|290:68,1,72.5,4|0,1:0|0:0,0:0:0:0:
208,62,102739,2,0,L|120:65,1,72.5,8|2,1:2|2:0,0:0:0:0:
233,120,103092,2,0,L|403:157,2,145,4|8|4,1:0|1:2|1:0,0:0:0:0:
84,130,104151,1,8,1:2:0:0:
400,311,104504,6,0,P|448:244|430:206,1,108.75,4|0,2:0|2:0,0:0:0:0:
399,200,104857,2,0,L|318:200,1,72.5,8|0,1:2|2:0,0:0:0:0:
228,142,105210,2,0,L|114:139,2,108.75,4|0|2,1:0|2:0|2:0,0:0:0:0:
318,90,105916,2,0,P|366:124|313:172,1,145,4|8,1:0|1:2,0:0:0:0:
213,171,106445,1,2,2:0:0:0:
61,306,106798,6,0,L|110:242,2,72.5,2|8|2,2:0|1:2|2:0,0:0:0:0:
205,220,107504,2,0,L|152:159,2,72.5,2|8|2,2:0|1:2|2:0,0:0:0:0:
361,286,108210,2,0,L|433:285,2,72.5,2|8|2,2:0|1:2|2:0,0:0:0:0:
174,244,108739,2,0,P|124:200|191:189,1,145,4|8,1:0|0:2,0:0:0:0:
480,123,109445,5,4,2:0:0:0:
379,207,112268,5,4,0:0:0:0:
297,209,112621,1,4,0:0:0:0:
171,211,112974,1,4,0:0:0:0:
18,211,113327,1,4,0:0:0:0:
144,163,113680,5,4,0:0:0:0:
16,109,114033,1,4,0:0:0:0:
196,66,114386,1,4,0:0:0:0:
291,229,115092,6,0,P|273:158|190:138,1,145,4|0,1:0|1:0,0:0:0:0:
257,47,115797,2,0,L|351:48,1,72.5,4|0,1:0|1:0,0:0:0:0:
400,99,116150,2,0,L|401:180,1,72.5,0|0,1:0|1:0,0:0:0:0:
315,211,116503,2,0,L|140:220,2,145,4|4|4,1:2|1:2|1:2,0:0:0:0:
466,272,117562,5,0,0:0:0:0:
172,328,117915,2,0,P|108:304|71:217,1,145,4|0,1:0|1:0,0:0:0:0:
191,171,118621,2,0,L|200:80,1,72.5,4|0,1:0|1:0,0:0:0:0:
97,107,118974,2,0,L|79:34,1,72.5,0|0,1:0|1:0,0:0:0:0:
179,34,119327,2,0,L|336:33,2,145,4|4|4,1:2|1:2|1:2,0:0:0:0:
79,36,120209,2,0,P|52:142|86:196,1,145
250,256,120739,6,0,L|420:266,1,145,4|0,0:2|0:0,0:0:0:0:
217,306,121445,2,0,P|176:243|224:182,1,145,4|0,0:2|0:0,0:0:0:0:
308,148,121974,1,0,0:0:0:0:
412,111,122150,2,0,L|414:15,1,72.5,4|0,0:2|0:0,0:0:0:0:
303,24,122503,2,0,L|207:23,2,72.5,4|0|4,0:2|0:0|0:2,0:0:0:0:
436,96,123209,1,0,0:0:0:0:
130,313,123562,6,0,P|66:266|176:99,1,319.000009735108,4|4,0:2|0:2,0:0:0:0:
313,59,124621,1,0,0:0:0:0:
143,110,124974,2,0,B|143:180|143:180|142:50|142:50|145:186,1,319.000009735108
143,110,126033,1,2,2:0:0:0:
440,175,126386,5,2,2:0:0:0:
151,168,126739,2,0,L|38:168,1,108.75,4|0,0:2|2:0,0:0:0:0:
85,188,127092,2,0,L|192:143,2,108.75,4|0|2,1:0|2:0|2:0,0:0:0:0:
207,278,127974,2,0,L|289:284,2,72.5,2|8|2,2:0|1:2|2:0,0:0:0:0:
117,267,128503,1,4,1:0:0:0:
98,197,128680,1,0,2:0:0:0:
113,137,128856,1,8,1:2:0:0:
195,132,129033,1,2,2:0:0:0:
382,322,129209,6,0,P|427:289|429:221,1,108.75,4|0,1:0|2:0,0:0:0:0:
392,218,129562,2,0,L|311:206,1,72.5,8|0,1:2|2:0,0:0:0:0:
410,155,129915,2,0,P|470:125|474:65,2,108.75,4|0|2,1:0|2:0|2:0,0:0:0:0:
320,207,130621,2,0,L|225:237,2,72.5,4|2|8,0:0|2:0|1:2,0:0:0:0:
408,265,131150,1,2,2:0:0:0:
328,325,131327,1,4,1:0:0:0:
198,276,131680,2,0,L|189:184,1,72.5,8|0,1:2|1:0,0:0:0:0:
378,127,132033,6,0,P|431:107|441:58,1,108.75,4|0,1:2|2:0,0:0:0:0:
409,41,132386,2,0,L|305:41,1,72.5,8|0,1:2|2:0,0:0:0:0:
247,126,132739,2,0,P|173:176|170:211,1,108.75,4|0,1:0|2:0,0:0:0:0:
178,224,133092,2,0,L|255:222,1,72.5,8|2,1:2|2:0,0:0:0:0:
334,307,133445,2,0,L|491:298,1,145,4|8,1:0|1:2,0:0:0:0:
410,301,133974,1,2,2:0:0:0:
337,308,134150,1,2,1:0:0:0:
184,322,134503,1,10,1:0:0:0:
478,309,134856,6,0,P|485:240|420:192,1,145,6|8,1:0|1:2,0:0:0:0:
303,169,135562,2,0,L|314:15,1,145,4|8,1:0|1:2,0:0:0:0:
479,28,136268,1,8,0:2:0:0:
480,105,136444,1,8,0:2:0:0:
447,162,136621,1,8,0:2:0:0:
393,190,136797,1,8,0:2:0:0:
333,193,136974,1,8,0:2:0:0:
135,264,137327,5,2,2:0:0:0:
447,320,137680,5,2,2:0:0:0:
130,209,138033,5,4,1:2:0:0:
62,143,138297,2,0,L|63:96,1,36.25,0|0,1:0|0:0,0:0:0:0:
116,53,138562,2,0,L|214:50,2,72.5,0|8|0,0:0|0:2|0:0,0:0:0:0:
194,144,139092,6,0,L|195:241,1,72.5,0|2,0:0|2:0,0:0:0:0:
106,286,139444,2,0,L|15:287,1,72.5,8|2,0:2|2:0,0:0:0:0:
123,338,139797,1,0,0:0:0:0:
188,285,139974,1,2,2:0:0:0:
188,210,140150,1,8,1:2:0:0:
118,157,140327,1,0,1:0:0:0:
186,84,140503,6,0,L|290:85,1,72.5,4|2,0:0|2:0,0:0:0:0:
347,152,140856,2,0,L|348:255,1,72.5,8|2,1:2|2:0,0:0:0:0:
310,260,141121,1,0,2:0:0:0:
271,275,141209,2,0,L|173:273,2,72.5,4|2|8,0:1|1:2|0:2,0:0:0:0:
440,236,141915,6,0,L|439:105,1,108.75,4|0,1:0|2:0,0:0:0:0:
400,102,142268,2,0,L|298:101,1,72.5,8|2,1:2|2:0,0:0:0:0:
229,200,142621,1,4,1:0:0:0:
230,274,142797,1,2,2:0:0:0:
278,313,142974,1,8,1:2:0:0:
344,314,143150,1,8,1:2:0:0:
162,242,143327,6,0,P|110:197|159:159,1,145,4|8,1:2|1:2,0:0:0:0:
282,117,143944,2,0,L|284:50,1,36.25,2|0,1:2|0:0,0:0:0:0:
170,63,144209,2,0,L|81:72,2,72.5,2|8|2,1:2|1:2|1:2,0:0:0:0:
274,123,144739,2,0,L|275:213,1,72.5,4|2,1:0|2:0,0:0:0:0:
188,251,145092,2,0,L|105:256,1,72.5,8|2,1:2|2:0,0:0:0:0:
221,323,145444,6,0,L|385:327,1,145,2|10,1:1|1:1,0:0:0:0:
282,258,145974,1,2,2:0:0:0:
179,202,146150,2,0,P|116:149|131:73,1,145,6|8,1:1|1:2,0:0:0:0:
261,63,146856,2,0,L|91:66,1,145,4|8,1:0|1:2,0:0:0:0:
430,123,147562,2,0,P|505:190|507:250,2,145,8|8|4,1:2|0:2|1:2,0:0:0:0:
168,255,149856,2,0,L|118:271,2,36.25,8|0|0,0:2|3:0|1:0,0:0:0:0:
482,182,150386,6,0,L|484:79,1,72.5,4|0,2:0|2:0,0:0:0:0:
407,88,150739,1,8,1:2:0:0:
470,188,150915,2,0,L|416:109,1,72.5,2|4,2:0|1:0,0:0:0:0:
345,125,151268,1,2,2:0:0:0:
435,181,151444,2,0,L|335:186,1,72.5,8|0,1:2|2:0,0:0:0:0:
276,192,151797,1,4,1:0:0:0:
375,241,151974,2,0,L|296:305,1,72.5,2|8,2:0|1:2,0:0:0:0:
242,310,152327,1,0,2:0:0:0:
431,316,152503,6,0,L|493:261,2,72.5,4|2|8,1:0|2:2|1:2,0:0:0:0:
121,151,153209,6,0,L|113:69,1,72.5,4|0,1:1|2:0,0:0:0:0:
198,52,153562,1,8,1:2:0:0:
109,108,153739,2,0,L|156:37,1,72.5,0|4,2:0|0:0,0:0:0:0:
246,93,154092,1,0,2:0:0:0:
139,108,154268,2,0,L|221:109,1,72.5,8|0,1:2|2:0,0:0:0:0:
273,142,154621,1,4,0:0:0:0:
168,153,154797,2,0,L|224:215,1,72.5,0|8,2:0|1:2,0:0:0:0:
283,212,155150,1,0,2:0:0:0:
98,272,155327,6,0,L|13:271,2,72.5,4|0|8,1:0|2:0|0:2,0:0:0:0:
391,143,156033,6,0,L|457:205,2,72.5,4|0|8,2:0|2:0|1:2,0:0:0:0:
293,147,156562,2,0,L|240:97,2,72.5,2|4|2,2:0|1:0|2:2,0:0:0:0:
370,208,157092,2,0,L|435:268,2,72.5,8|2|4,1:2|2:0|1:1,0:0:0:0:
285,223,157621,2,0,L|220:173,2,72.5,0|8|2,2:2|1:2|2:2,0:0:0:0:
469,317,158150,2,0,L|484:227,2,72.5,4|2|8,1:0|2:0|1:2,0:0:0:0:
167,166,158856,6,0,L|84:168,2,72.5,4|0|8,1:0|2:0|1:2,0:0:0:0:
248,216,159386,2,0,L|328:214,2,72.5,2|4|2,2:0|1:0|2:2,0:0:0:0:
151,267,159915,2,0,L|73:290,2,72.5,8|2|4,1:2|2:0|1:0,0:0:0:0:
280,221,160621,2,0,L|363:217,2,72.5,8|2|4,1:2|2:0|0:0,0:0:0:0:
140,177,161327,1,8,1:2:0:0:
462,289,161680,6,0,L|459:194,1,72.5,4|0,1:2|2:0,0:0:0:0:
361,176,162033,1,8,1:2:0:0:
462,289,162209,2,0,L|459:182,1,72.5,2|4,2:2|1:0,0:0:0:0:
361,176,162562,1,2,2:2:0:0:
463,284,162739,2,0,L|461:188,1,72.5,8|2,1:2|2:0,0:0:0:0:
361,176,163092,1,4,1:1:0:0:
460,285,163268,2,0,L|462:189,1,72.5,2|8,2:2|1:2,0:0:0:0:
361,176,163621,1,2,2:2:0:0:
175,125,163797,6,0,L|69:122,2,72.5,4|0|8,1:0|2:0|1:2,0:0:0:0:
476,150,164503,2,0,L|478:233,1,72.5,4|0,1:1|2:0,0:0:0:0:
390,254,164856,1,8,1:2:0:0:
472,93,165033,1,2,2:2:0:0:
398,147,165209,1,4,1:0:0:0:
326,197,165386,1,2,2:2:0:0:
414,204,165562,6,0,L|416:294,1,72.5,8|2,1:2|2:0,0:0:0:0:
335,310,165915,1,4,1:1:0:0:
413,207,166092,1,2,2:2:0:0:
346,256,166268,1,8,1:2:0:0:
272,297,166444,1,2,2:2:0:0:
460,339,166621,2,0,L|468:252,2,72.5,4|2|8,1:0|2:0|0:2,0:0:0:0:
155,259,167327,6,0,L|151:157,1,72.5,4|0,2:0|2:0,0:0:0:0:
252,142,167680,1,8,1:2:0:0:
153,258,167856,2,0,L|148:152,1,72.5,2|4,2:0|1:0,0:0:0:0:
252,142,168209,1,2,2:2:0:0:
154,262,168386,2,0,L|146:158,1,72.5,8|2,1:2|2:0,0:0:0:0:
252,142,168739,1,4,1:1:0:0:
151,260,168915,2,0,L|143:155,1,72.5,0|8,2:2|1:2,0:0:0:0:
252,142,169268,1,2,2:2:0:0:
436,177,169444,6,0,L|496:133,2,72.5,4|2|8,1:0|2:0|1:2,0:0:0:0:
120,282,170150,6,0,P|48:252|11:173,3,145,4|8|4|8,1:0|1:2|1:0|1:2,0:0:0:0:
321,154,171562,2,0,L|484:152,1,145,4|8,1:0|1:2,0:0:0:0:
334,217,172268,2,0,L|159:220,1,145,4|8,1:0|1:2,0:0:0:0:
482,74,172974,5,8,1:2:0:0:
349,146,173327,1,8,1:2:0:0:
479,228,173680,1,8,1:2:0:0:
227,273,173944,2,0,L|225:334,1,36.25,2|10,2:0|2:0,0:0:0:0:
