osu file format v14

[General]
AudioFilename: audio.mp3
AudioLeadIn: 0
PreviewTime: 149768
Countdown: 0
SampleSet: Normal
StackLeniency: 0.7
Mode: 2
LetterboxInBreaks: 0
WidescreenStoryboard: 1

[Editor]
Bookmarks: 15553,26847,49435,64965,76259
DistanceSpacing: 1.4
BeatDivisor: 4
GridSize: 8
TimelineZoom: 3.199999

[Metadata]
Title:More One Night (Assertive Hardcore Bootleg) [long ver.]
TitleUnicode:More One Night (Assertive Hardcore Bootleg) [long ver.]
Artist:Chito (CV: Minase Inori), Yuuri (CV: Kubo Yurika)
ArtistUnicode:チト (CV:水瀬いのり)、ユーリ (CV:久保ユリカ)
Creator:Spectator
Version:tasuke's Rain
Source:少女終末旅行
Tags:Shoujo Shuumatsu Ryokou Girls Last Tour ending tasuke912 -Plus- Bunnrei Chara wonjae Paranoid Grapes Electronic Japanese Anime
BeatmapID:2575419
BeatmapSetID:875737

[Difficulty]
HPDrainRate:6
CircleSize:3.8
OverallDifficulty:9
ApproachRate:9
SliderMultiplier:1.85
SliderTickRate:2

[Events]
//Background and Video events
0,0,"more_one_night.jpg",0,0
//Break Periods
//Storyboard Layer 0 (Background)
//Storyboard Layer 1 (Fail)
//Storyboard Layer 2 (Pass)
//Storyboard Layer 3 (Foreground)
//Storyboard Layer 4 (Overlay)
//Storyboard Sound Samples

[TimingPoints]
34,352.941176470588,4,2,1,65,1,0
386,-100,4,2,1,68,0,0
739,-100,4,2,1,70,0,0
1092,-100,4,2,1,73,0,0
1445,-100,4,2,1,75,0,0
1798,-100,4,2,1,78,0,0
2151,-100,4,2,1,80,0,0
2504,-100,4,2,1,85,0,0
3916,-83.3333333333333,4,2,2,85,0,0
4092,-100,4,2,1,10,0,0
4269,-100,4,2,2,70,0,0
6916,-100,4,2,2,10,0,0
7092,-100,4,2,2,70,0,0
9739,-100,4,2,2,10,0,0
9916,-100,4,2,1,85,0,0
12739,-100,4,2,1,88,0,0
13445,-100,4,2,1,90,0,0
15563,-100,4,1,1,90,0,0
26328,-100,4,1,3,75,0,0
26681,-100,4,1,3,10,0,0
26857,-100,4,2,1,90,0,0
32504,-100,4,2,1,95,0,0
35328,-100,4,2,1,77,0,0
37798,-100,4,2,3,66,0,0
38151,-100,4,1,1,90,0,1
60033,-100,4,2,1,80,0,0
60210,-100,4,2,1,25,0,0
60386,-100,4,2,1,80,0,0
60563,-100,4,2,1,25,0,0
60739,-100,4,2,1,80,0,0
60916,-100,4,2,1,25,0,0
61092,-100,4,2,1,80,0,0
61269,-100,4,2,1,25,0,0
61445,-100,4,2,1,80,0,0
64975,-100,4,2,1,75,0,0
75739,-100,4,2,3,75,0,0
76092,-100,4,2,3,10,0,0
76269,-100,4,2,1,90,0,0
87210,-100,4,2,3,65,0,0
87563,-100,4,1,1,90,0,1
109445,352.941176470588,4,1,1,90,1,0
109621,-100,4,1,1,30,0,0
109797,-100,4,1,1,90,0,0
109974,-100,4,1,1,30,0,0
110150,-100,4,1,1,90,0,0
110327,-100,4,1,1,30,0,0
110503,-100,4,1,1,90,0,0
112268,-100,4,2,1,65,0,0
112621,-100,4,2,1,68,0,0
112974,-100,4,2,1,70,0,0
113327,-100,4,2,1,72,0,0
113680,-100,4,2,1,75,0,0
115092,-100,4,1,1,80,0,0
123562,-90.9090909090909,4,1,1,80,0,0
124974,-90.9090909090909,4,1,1,50,0,0
126033,-90.9090909090909,4,2,1,77,0,0
126386,-100,4,1,1,90,0,0
126739,-100,4,1,1,90,0,1
134150,-100,4,1,1,60,0,1
134503,-100,4,1,1,65,0,1
134856,-100,4,1,1,70,0,1
135033,-100,4,1,1,90,0,1
145444,-100,4,1,1,60,0,1
145621,-100,4,1,1,90,0,1
145797,-100,4,1,1,65,0,1
145974,-100,4,1,1,90,0,1
146150,-100,4,1,1,70,0,1
146327,-100,4,1,1,90,0,1
148268,-100,4,1,1,90,0,1
148444,-100,4,1,1,30,0,1
148621,-100,4,1,1,90,0,1
148797,-100,4,1,1,30,0,1
148974,-100,4,1,1,90,0,1
149150,-100,4,1,1,30,0,1
149327,-100,4,1,1,90,0,1
149503,-100,4,1,1,30,0,1
149680,-100,4,1,1,90,0,1
150209,-100,4,1,1,90,0,0
150386,-100,4,1,1,90,0,1
161503,-100,4,1,1,90,0,0
161680,-100,4,1,1,90,0,1
172621,-90.9090909090909,4,1,1,90,0,1
174033,-90.9090909090909,4,1,3,60,0,0

[Colours]
Combo1 : 249,149,193
Combo2 : 242,239,132
Combo3 : 134,210,104
Combo4 : 169,181,188

[HitObjects]
320,56,34,6,0,L|333:155,1,92.5,4|0,0:0|0:0,0:0:0:0:
192,56,386,2,0,L|179:155,1,92.5,4|0,0:0|0:0,0:0:0:0:
323,144,739,2,0,L|358:237,1,92.5,4|0,0:0|0:0,0:0:0:0:
189,144,1092,2,0,L|154:237,1,92.5,4|0,0:0|0:0,0:0:0:0:
464,240,1445,6,0,L|338:249,1,92.5,4|0,0:0|0:0,0:0:0:0:
240,342,1798,2,0,L|366:351,1,92.5,4|0,0:0|0:0,0:0:0:0:
48,240,2151,2,0,L|174:249,1,92.5,4|0,0:0|0:0,0:0:0:0:
270,342,2504,2,0,L|144:351,1,92.5,4|0,0:0|0:0,0:0:0:0:
356,138,3916,6,0,P|333:212|255:211,1,166.499994918823,2|0,0:0|0:0,0:0:0:0:
69,121,4269,2,0,P|25:165|103:265,1,185,4|8,0:0|0:0,0:0:0:0:
278,301,4975,2,0,L|442:284,1,138.75,2|2,0:0|0:0,0:0:0:0:
339,239,5328,1,8,0:0:0:0:
181,253,5504,6,0,P|137:209|270:76,1,277.5,2|8,0:0|0:0,0:0:0:0:
147,53,6386,2,0,L|133:160,1,92.5
287,88,6739,2,0,P|309:135|229:183,1,138.75,2|0,0:0|0:0,0:0:0:0:
150,193,7092,6,0,P|98:262|147:334,1,185,2|8,0:0|0:0,0:0:0:0:
286,316,7798,2,0,L|139:305,1,138.75,2|2,0:0|0:0,0:0:0:0:
223,268,8151,1,8,0:0:0:0:
384,272,8328,6,0,P|393:200|225:73,1,277.5,2|8,0:0|0:0,0:0:0:0:
377,63,9033,1,0,0:0:0:0:
217,138,9210,2,0,L|202:245,1,92.5,2|0,0:0|0:0,0:0:0:0:
381,171,9563,2,0,P|391:105|342:60,1,138.75,8|0,0:0|0:0,0:0:0:0:
144,211,9916,6,0,L|130:319,1,92.5,4|2,1:0|0:3,0:0:0:0:
279,212,10269,2,0,L|293:346,1,92.5,8|0,1:2|0:0,0:0:0:0:
242,308,10533,1,0,0:0:0:0:
76,128,10622,2,0,L|67:64,1,46.25,8|0,1:2|0:0,0:0:0:0:
214,72,10886,2,0,L|223:8,1,46.25,0|8,0:0|1:2,0:0:0:0:
101,128,11151,1,2,0:3:0:0:
343,174,11328,6,0,L|469:161,1,92.5,8|2,1:2|0:3,0:0:0:0:
319,272,11681,2,0,L|193:259,1,92.5,8|2,1:2|0:3,0:0:0:0:
216,217,11945,1,0,0:0:0:0:
382,59,12033,1,8,1:2:0:0:
425,76,12122,2,0,L|440:198,1,92.5
199,92,12386,2,0,L|80:77,1,92.5,8|0,1:2|0:0,0:0:0:0:
369,258,12739,6,0,L|469:250,1,92.5,8|8,1:2|1:2,0:0:0:0:
331,150,13092,2,0,L|431:142,1,92.5,8|8,1:2|1:2,0:0:0:0:
159,320,13445,2,0,L|145:205,1,92.5,8|8,1:2|1:2,0:0:0:0:
415,207,13798,2,0,L|429:92,1,92.5,8|8,1:2|1:2,0:0:0:0:
126,221,14151,5,8,0:0:0:0:
88,204,14239,1,8,0:0:0:0:
61,174,14328,1,8,0:0:0:0:
49,134,14416,1,8,0:0:0:0:
55,93,14504,1,8,0:0:0:0:
79,59,14592,1,8,0:0:0:0:
114,38,14681,1,8,0:0:0:0:
155,34,14769,1,8,0:0:0:0:
341,109,14857,2,8,L|410:101,1,46.25
188,131,15033,2,8,L|120:129,1,46.25
364,183,15210,2,0,L|492:170,1,92.5,4|0,0:3|0:0,0:0:0:0:
178,370,15563,6,0,P|123:300|141:212,1,185,4|8,1:2|0:0,0:0:0:0:
243,159,16092,1,2,2:3:0:0:
107,126,16269,2,0,L|97:21,1,92.5,0|2,1:0|2:0,0:0:0:0:
233,222,16622,2,0,L|136:210,1,92.5,8|2,0:0|2:0,0:0:0:0:
388,42,16975,5,0,1:0:0:0:
460,81,17151,1,2,2:0:0:0:
489,159,17328,1,8,1:0:0:0:
461,237,17504,1,2,2:3:0:0:
385,273,17681,2,0,L|285:291,1,92.5,0|2,1:0|2:0,0:0:0:0:
130,185,18033,2,0,L|230:203,1,92.5,8|2,1:0|2:0,0:0:0:0:
463,38,18386,5,0,1:0:0:0:
345,108,18563,1,2,2:0:0:0:
481,163,18739,2,0,L|491:260,1,92.5,8|2,1:0|2:0,0:0:0:0:
346,262,19092,2,0,L|240:248,1,92.5,0|0,0:0|2:0,0:0:0:0:
102,256,19445,2,0,L|99:364,1,92.5,8|2,1:0|2:0,0:0:0:0:
356,50,19798,5,0,1:0:0:0:
218,51,19975,1,2,2:0:0:0:
366,133,20151,1,8,1:0:0:0:
210,131,20328,1,2,2:0:0:0:
472,373,20504,2,0,L|450:273,1,92.5,0|2,0:0|2:0,0:0:0:0:
312,230,20857,2,0,L|420:218,1,92.5,8|2,1:0|2:0,0:0:0:0:
113,342,21210,6,0,P|70:302|148:209,1,185,0|8,1:0|1:0,0:0:0:0:
238,193,21739,1,2,2:2:0:0:
378,301,21916,2,0,L|277:291,1,92.5,0|2,1:0|2:0,0:0:0:0:
127,37,22269,1,8,1:0:0:0:
217,72,22445,1,0,2:0:0:0:
240,152,22622,5,0,1:0:0:0:
191,241,22798,1,2,2:0:0:0:
69,283,22975,1,8,1:0:0:0:
209,352,23151,1,2,2:0:0:0:
39,337,23328,2,0,L|31:221,1,92.5,0|0,1:0|2:0,0:0:0:0:
337,352,23681,2,0,L|350:249,1,92.5,8|2,1:0|2:0,0:0:0:0:
49,222,24033,6,0,P|22:137|70:62,1,185,0|8,1:0|1:0,0:0:0:0:
172,56,24563,1,2,2:0:0:0:
334,115,24739,1,0,1:0:0:0:
359,194,24916,1,2,2:0:0:0:
319,267,25092,1,8,1:0:0:0:
237,285,25269,1,0,2:3:0:0:
480,184,25445,5,4,1:0:0:0:
232,120,25622,1,4,1:0:0:0:
368,48,25798,1,4,1:0:0:0:
119,49,25975,1,4,1:0:0:0:
388,314,26151,2,0,L|490:301,1,92.5,4|8,1:0|2:0,0:0:0:0:
425,272,26416,1,0,2:0:0:0:
268,270,26504,1,8,2:0:0:0:
150,157,26857,5,4,1:2:0:0:
181,184,26945,1,0,0:0:0:0:
187,225,27033,1,2,0:0:0:0:
168,262,27122,1,0,0:0:0:0:
131,281,27210,1,8,0:0:0:0:
273,85,27386,2,0,L|280:21,1,46.25,2|0,0:0|0:0,0:0:0:0:
201,54,27563,2,0,L|194:-10,1,46.25,8|0,2:0|0:0,0:0:0:0:
273,85,27739,1,0,0:0:0:0:
402,129,27916,1,8,0:0:0:0:
435,153,28004,1,0,0:0:0:0:
445,193,28092,1,0,0:0:0:0:
428,231,28181,1,0,0:0:0:0:
222,361,28269,5,8,2:0:0:0:
186,337,28357,1,0,0:0:0:0:
179,296,28445,1,2,0:0:0:0:
202,260,28533,1,0,0:0:0:0:
242,246,28622,1,8,2:0:0:0:
266,212,28710,1,0,0:0:0:0:
258,170,28798,1,2,0:0:0:0:
227,142,28886,1,0,0:0:0:0:
64,80,28975,2,0,P|45:121|57:166,1,92.5,8|2,2:0|0:0,0:0:0:0:
96,180,29239,1,0,0:0:0:0:
111,219,29328,1,8,0:0:0:0:
98,258,29416,1,0,0:0:0:0:
62,280,29504,1,2,0:0:0:0:
328,40,29681,5,8,0:0:0:0:
362,63,29769,1,0,0:0:0:0:
370,103,29857,1,2,0:0:0:0:
355,141,29945,1,0,0:0:0:0:
318,161,30033,1,8,0:0:0:0:
145,229,30210,1,2,0:0:0:0:
111,252,30298,1,0,0:0:0:0:
103,292,30386,1,8,0:0:0:0:
118,330,30475,1,0,0:0:0:0:
155,350,30563,1,0,0:0:0:0:
399,354,30739,1,8,0:0:0:0:
436,319,30828,1,0,0:0:0:0:
441,268,30916,1,2,0:0:0:0:
409,228,31004,1,0,0:0:0:0:
217,15,31092,5,8,0:0:0:0:
180,36,31181,1,0,0:0:0:0:
169,76,31269,1,2,0:0:0:0:
179,116,31357,1,0,0:0:0:0:
213,138,31445,2,0,L|268:156,1,46.25,8|0,0:0|0:0,0:0:0:0:
328,224,31622,2,0,L|285:239,1,46.25
68,343,31798,1,8,0:0:0:0:
34,317,31886,1,0,0:0:0:0:
27,275,31975,1,0,0:0:0:0:
42,236,32063,1,0,0:0:0:0:
81,212,32151,2,0,L|187:207,1,92.5,8|0,0:0|2:2,0:0:0:0:
488,80,32504,6,0,L|362:69,1,92.5,8|10,0:0|0:0,0:0:0:0:
250,164,32857,2,0,L|376:153,1,92.5,8|10,0:0|0:0,0:0:0:0:
100,141,33210,1,8,0:0:0:0:
234,198,33386,1,10,0:0:0:0:
237,239,33475,1,0,0:0:0:0:
239,280,33563,1,8,0:0:0:0:
101,349,33739,1,8,0:0:0:0:
406,61,33916,6,0,L|286:51,1,92.5,8|10,2:0|0:0,0:0:0:0:
58,58,34269,2,0,L|178:48,1,92.5,8|10,0:0|0:0,0:0:0:0:
417,146,34622,1,10,0:0:0:0:
279,208,34798,2,0,L|274:273,1,46.25
354,278,34975,2,0,L|477:305,1,92.5,10|0,0:0|0:0,0:0:0:0:
96,344,35328,5,4,1:2:0:0:
62,328,35416,1,0,1:0:0:0:
37,301,35504,1,0,1:0:0:0:
25,266,35592,1,0,1:0:0:0:
27,229,35681,1,8,1:2:0:0:
42,196,35769,1,0,1:0:0:0:
70,172,35857,1,0,1:0:0:0:
104,159,35945,1,0,1:0:0:0:
288,219,36033,5,4,1:2:0:0:
317,191,36122,1,0,1:0:0:0:
331,155,36210,1,0,1:0:0:0:
330,117,36298,1,0,1:0:0:0:
315,81,36386,1,0,1:0:0:0:
289,54,36475,1,0,1:0:0:0:
253,40,36563,1,0,1:0:0:0:
214,39,36651,1,0,1:0:0:0:
402,284,36739,6,0,L|468:268,1,46.25,4|0,1:2|1:0,0:0:0:0:
264,332,36916,2,0,L|213:312,1,46.25,0|0,1:0|1:0,0:0:0:0:
451,145,37092,1,0,1:0:0:0:
468,129,37136,1,0,1:0:0:0:
477,108,37181,1,0,1:0:0:0:
477,85,37225,1,0,1:0:0:0:
468,65,37269,1,0,1:0:0:0:
451,49,37313,1,0,1:0:0:0:
429,43,37357,1,0,1:0:0:0:
214,39,37445,6,0,L|83:32,1,92.5,4|0,1:0|0:0,0:0:0:0:
393,197,37798,1,8,0:0:0:0:
398,238,37886,1,0,0:0:0:0:
403,279,37975,1,8,0:0:0:0:
120,159,38151,6,0,L|244:143,1,92.5,4|0,0:2|2:0,0:0:0:0:
357,73,38504,2,0,L|234:64,1,92.5,8|0,0:2|2:0,0:0:0:0:
121,249,38857,2,0,L|297:226,1,138.75,4|0,1:0|2:0,0:0:0:0:
459,333,39210,2,0,L|354:319,1,92.5,8|0,0:2|2:0,0:0:0:0:
115,60,39563,5,4,1:0:0:0:
200,95,39739,1,0,2:0:0:0:
229,182,39916,1,8,1:2:0:0:
192,265,40092,1,0,2:0:0:0:
39,296,40269,2,0,L|31:203,1,92.5,4|2,1:0|2:0,0:0:0:0:
86,201,40533,1,0,2:0:0:0:
324,294,40622,2,0,L|441:269,1,92.5,8|2,0:2|2:0,0:0:0:0:
162,52,40975,6,0,L|39:40,1,92.5,4|0,1:0|2:0,0:0:0:0:
206,148,41328,2,0,L|113:156,1,92.5,8|0,1:2|2:0,0:0:0:0:
359,105,41681,2,0,L|497:116,1,138.75,4|0,1:0|2:0,0:0:0:0:
350,220,42033,2,0,L|243:232,1,92.5,8|2,1:2|2:0,0:0:0:0:
16,96,42386,6,0,L|22:189,1,92.5,4|2,1:0|2:0,0:0:0:0:
170,96,42739,2,0,L|164:189,1,92.5,8|2,1:2|2:0,0:0:0:0:
433,86,43092,2,0,L|440:145,1,46.25,4|0,1:0|0:0,0:0:0:0:
355,155,43269,1,8,2:0:0:0:
328,192,43357,1,0,2:0:0:0:
324,237,43445,1,8,0:2:0:0:
349,275,43533,1,0,2:0:0:0:
394,287,43622,1,8,2:0:0:0:
131,267,43798,6,0,L|-2:254,1,92.5,4|0,0:2|2:0,0:0:0:0:
196,71,44151,2,0,L|306:60,1,92.5,8|0,0:2|2:0,0:0:0:0:
131,169,44504,2,0,L|282:183,1,138.75,4|0,0:0|2:0,0:0:0:0:
452,270,44857,2,0,L|324:283,1,92.5,8|2,0:2|2:0,0:0:0:0:
109,108,45210,6,0,L|98:4,1,92.5,4|2,1:0|2:0,0:0:0:0:
360,100,45563,2,0,L|371:-4,1,92.5,8|2,1:2|2:0,0:0:0:0:
86,354,45916,1,4,1:0:0:0:
57,317,46004,1,0,2:0:0:0:
53,270,46092,1,2,2:0:0:0:
82,233,46181,1,0,2:0:0:0:
125,218,46269,2,0,L|244:205,1,92.5,8|2,0:2|2:0,0:0:0:0:
464,136,46622,6,0,L|480:21,1,92.5,4|0,1:0|2:0,0:0:0:0:
231,136,46975,2,0,L|215:21,1,92.5,8|2,1:2|2:0,0:0:0:0:
504,352,47328,2,0,L|405:343,1,92.5,4|0,1:0|2:0,0:0:0:0:
265,272,47681,2,0,L|373:255,1,92.5,8|2,1:2|2:0,0:0:0:0:
72,288,48033,5,4,0:0:0:0:
41,258,48122,1,2,2:3:0:0:
23,224,48210,1,0,0:0:0:0:
20,185,48298,1,2,2:3:0:0:
27,146,48386,1,0,0:0:0:0:
48,112,48475,1,0,0:0:0:0:
77,88,48563,1,0,0:0:0:0:
115,73,48651,1,0,0:0:0:0:
357,252,48739,6,0,L|450:252,1,92.5,0|0,1:0|2:0,0:0:0:0:
467,294,49004,1,0,2:0:0:0:
449,335,49092,2,0,L|356:335,1,92.5,2|0,2:0|2:0,0:0:0:0:
98,157,49445,6,0,L|85:258,1,92.5,4|2,0:2|0:2,0:0:0:0:
257,145,49798,2,0,L|382:134,1,92.5,8|0,1:2|1:0,0:0:0:0:
188,66,50063,2,0,L|63:55,1,92.5,2|0,1:2|1:0,0:0:0:0:
140,45,50328,1,2,1:2:0:0:
383,343,50504,2,0,L|399:228,1,92.5,8|0,1:2|1:0,0:0:0:0:
349,252,50769,1,0,2:0:0:0:
154,251,50857,6,0,L|263:238,1,92.5,2|2,1:2|1:2,0:0:0:0:
400,134,51210,2,0,L|283:145,1,92.5,8|2,1:2|2:0,0:0:0:0:
55,60,51563,1,2,1:2:0:0:
128,97,51739,1,2,2:2:0:0:
151,177,51916,1,8,1:2:0:0:
124,255,52092,1,2,2:2:0:0:
50,295,52269,5,4,1:0:0:0:
320,154,52445,2,0,L|329:55,1,92.5,2|8,2:0|1:2,0:0:0:0:
182,52,52798,2,0,L|172:91,4,23.125,2|0|0|0|4,2:0|2:0|2:0|0:0|1:0,0:0:0:0:
307,132,53151,1,2,1:2:0:0:
68,325,53328,2,0,P|45:276|104:218,1,138.75,8|0,1:2|2:0,0:0:0:0:
267,234,53681,6,0,P|306:173|251:136,1,138.75,4|0,1:0|2:0,0:0:0:0:
182,52,54033,1,8,1:2:0:0:
138,95,54122,1,0,2:0:0:0:
182,127,54210,1,2,2:0:0:0:
351,83,54386,1,4,1:0:0:0:
386,106,54475,1,0,0:0:0:0:
402,144,54563,1,2,1:2:0:0:
395,184,54651,1,0,0:0:0:0:
361,207,54739,2,0,L|315:214,2,46.25,8|0|0,1:2|1:0|1:0,0:0:0:0:
115,319,55092,6,0,L|22:315,1,92.5,4|2,1:2|0:2,0:0:0:0:
152,226,55445,2,0,L|245:222,1,92.5,8|0,1:2|0:0,0:0:0:0:
424,136,55710,2,0,L|419:36,1,92.5,2|0,0:2|0:0,0:0:0:0:
372,35,55975,1,2,0:2:0:0:
90,128,56151,2,0,L|125:20,1,92.5,8|2,1:2|1:2,0:0:0:0:
160,40,56416,1,2,2:2:0:0:
384,352,56504,5,4,1:0:0:0:
460,318,56681,1,2,2:0:0:0:
493,241,56857,1,8,1:2:0:0:
465,162,57033,1,2,1:2:0:0:
387,131,57210,1,4,1:0:0:0:
241,123,57386,2,0,L|232:4,1,92.5,2|8,2:0|1:2,0:0:0:0:
387,29,57739,1,0,0:0:0:0:
112,232,57916,6,0,L|126:111,1,92.5,4|0,0:0|2:0,0:0:0:0:
256,288,58269,1,8,1:2:0:0:
101,340,58445,1,2,2:0:0:0:
400,231,58622,2,0,L|386:110,1,92.5,4|0,0:0|2:0,0:0:0:0:
256,288,58975,1,8,1:2:0:0:
411,340,59151,1,2,2:2:0:0:
61,43,59328,6,0,L|48:114,1,46.25,8|0,1:2|2:0,0:0:0:0:
133,109,59504,1,2,1:3:0:0:
167,131,59592,1,0,2:0:0:0:
178,171,59681,1,8,1:2:0:0:
167,211,59769,1,2,1:3:0:0:
136,239,59857,1,4,1:0:0:0:
95,245,59945,1,2,1:3:0:0:
316,275,60033,6,0,L|504:240,4,185,4|2|2|0|0,2:0|0:0|0:0|0:0|0:0,0:0:0:0:
72,32,61622,1,0,0:0:0:0:
68,73,61710,1,0,0:0:0:0:
63,114,61798,1,2,0:0:0:0:
317,120,62151,6,0,L|329:25,1,92.5,0|2,1:0|0:0,0:0:0:0:
173,120,62504,2,0,L|162:29,1,92.5,0|2,1:0|0:0,0:0:0:0:
320,288,62857,2,0,P|363:234|377:155,1,138.75,0|2,1:0|0:0,0:0:0:0:
165,280,63210,2,0,L|134:175,1,92.5,0|2,1:0|0:0,0:0:0:0:
416,32,63563,5,0,1:0:0:0:
458,59,63651,1,0,0:0:0:0:
471,107,63739,1,2,0:0:0:0:
445,151,63828,1,0,0:0:0:0:
367,197,63916,2,0,L|291:194,2,46.25,0|0|2,1:0|0:0|0:0,0:0:0:0:
112,112,64269,5,0,1:0:0:0:
357,22,64622,1,2,0:3:0:0:
362,63,64710,1,0,0:0:0:0:
366,104,64798,1,8,0:0:0:0:
95,285,64975,6,0,P|191:277|287:269,1,185,4|8,0:0|1:1,0:0:0:0:
408,260,65504,1,2,2:0:0:0:
288,179,65681,2,0,L|276:81,1,92.5,4|2,1:0|0:0,0:0:0:0:
445,90,66033,2,0,L|432:196,1,92.5,8|2,1:1|0:0,0:0:0:0:
172,123,66386,5,4,1:0:0:0:
98,161,66563,1,0,0:0:0:0:
71,239,66739,1,8,1:0:0:0:
99,317,66916,1,0,0:0:0:0:
179,355,67092,2,0,L|278:350,1,92.5,4|2,1:0|0:0,0:0:0:0:
418,278,67445,2,0,L|298:263,1,92.5,8|2,1:0|0:0,0:0:0:0:
45,117,67798,6,0,L|242:102,1,185,4|8,1:0|1:0,0:0:0:0:
114,211,68328,1,2,0:0:0:0:
269,198,68504,2,0,L|376:188,1,92.5,4|2,1:0|0:0,0:0:0:0:
226,322,68857,2,0,L|109:310,1,92.5,8|2,1:1|0:0,0:0:0:0:
403,352,69210,5,4,1:0:0:0:
308,310,69386,1,2,0:0:0:0:
281,230,69563,1,8,1:0:0:0:
322,158,69739,1,2,0:0:0:0:
480,95,69916,2,0,L|362:70,1,92.5,4|0,1:0|0:0,0:0:0:0:
191,153,70269,2,0,L|184:49,1,92.5,8|2,1:0|0:0,0:0:0:0:
440,351,70622,6,0,P|481:306|412:222,1,185,4|8,1:0|1:0,0:0:0:0:
286,246,71151,1,0,0:0:0:0:
135,255,71328,2,0,L|138:152,1,92.5,4|2,1:0|0:0,0:0:0:0:
427,44,71681,1,8,1:1:0:0:
308,120,71857,1,2,0:0:0:0:
71,150,72033,5,4,1:0:0:0:
64,263,72210,1,2,0:0:0:0:
222,303,72386,1,8,1:0:0:0:
333,311,72563,1,2,0:0:0:0:
82,227,72739,2,0,P|44:185|124:83,1,185,4|8,1:0|1:0,0:0:0:0:
207,71,73269,1,2,0:0:0:0:
472,264,73445,6,0,L|490:61,1,185,4|8,1:0|1:0,0:0:0:0:
317,78,73975,1,2,0:0:0:0:
40,264,74151,2,0,L|22:61,1,185,4|8,1:0|1:0,0:0:0:0:
441,365,74857,5,4,1:0:0:0:
290,327,75033,1,4,1:0:0:0:
449,272,75210,1,4,1:0:0:0:
281,235,75386,1,4,1:0:0:0:
8,96,75563,2,0,L|132:88,1,92.5,0|8,1:0|0:0,0:0:0:0:
297,77,75828,2,0,L|359:70,1,46.25,0|8,0:0|0:0,0:0:0:0:
168,168,76269,5,4,1:2:0:0:
132,197,76357,1,0,0:0:0:0:
122,242,76445,1,2,0:0:0:0:
138,284,76533,1,0,0:0:0:0:
179,306,76622,1,8,0:0:0:0:
324,111,76798,2,0,L|331:47,1,46.25,2|0,0:0|0:0,0:0:0:0:
252,80,76975,2,0,L|245:16,1,46.25,8|0,2:2|0:0,0:0:0:0:
324,111,77151,1,0,0:0:0:0:
474,196,77328,1,8,0:0:0:0:
491,243,77416,1,0,0:0:0:0:
472,290,77504,1,2,0:0:0:0:
425,310,77592,1,0,0:0:0:0:
219,153,77681,5,0,1:0:0:0:
180,178,77769,1,0,0:0:0:0:
167,222,77857,1,2,0:0:0:0:
181,265,77945,1,0,0:0:0:0:
218,291,78033,2,0,L|298:302,1,46.25,8|0,2:2|0:0,0:0:0:0:
66,288,78210,2,0,L|-14:299,2,46.25,2|0|0,0:0|0:0|1:0,0:0:0:0:
214,5,78563,1,2,0:0:0:0:
248,34,78651,1,0,0:0:0:0:
255,78,78739,1,8,2:0:0:0:
234,120,78828,1,0,0:0:0:0:
190,136,78916,1,0,0:0:0:0:
448,181,79092,6,0,L|494:177,1,46.25,0|0,1:0|0:0,0:0:0:0:
447,180,79269,2,0,L|401:184,1,46.25,2|0,0:0|0:0,0:0:0:0:
447,180,79445,1,8,0:0:0:0:
288,352,79622,1,0,0:0:0:0:
250,324,79710,1,0,0:0:0:0:
241,278,79798,1,8,0:0:0:0:
258,236,79886,1,0,0:0:0:0:
299,214,79975,1,0,0:0:0:0:
47,342,80151,1,8,0:0:0:0:
48,296,80239,1,0,0:0:0:0:
76,261,80327,1,0,0:0:0:0:
121,250,80415,1,0,0:0:0:0:
328,8,80504,5,8,0:0:0:0:
370,25,80592,1,0,0:0:0:0:
391,65,80681,1,2,0:0:0:0:
381,110,80769,1,0,0:0:0:0:
344,139,80857,2,0,L|290:149,1,46.25,8|0,0:0|0:0,0:0:0:0:
208,77,81033,2,0,L|279:82,1,46.25
407,356,81210,1,8,0:0:0:0:
441,330,81298,1,0,0:0:0:0:
448,288,81386,1,0,0:0:0:0:
433,249,81475,1,0,0:0:0:0:
394,225,81563,2,0,L|288:220,1,92.5,8|0,0:0|2:0,0:0:0:0:
24,80,81916,6,0,L|116:71,1,92.5,8|8,0:0|0:0,0:0:0:0:
262,164,82269,2,0,L|169:155,1,92.5,8|8,0:0|0:0,0:0:0:0:
412,141,82622,1,8,0:0:0:0:
278,198,82798,1,8,0:0:0:0:
275,239,82886,1,0,0:0:0:0:
273,280,82975,1,8,0:0:0:0:
411,349,83151,1,8,0:0:0:0:
106,61,83328,6,0,L|198:53,1,92.5,8|8,0:0|0:0,0:0:0:0:
453,58,83681,2,0,L|360:50,1,92.5,8|8,0:0|0:0,0:0:0:0:
95,146,84033,1,8,0:0:0:0:
233,208,84210,2,0,L|236:254,1,46.25,8|0,0:0|0:0,0:0:0:0:
158,278,84386,2,0,L|67:297,1,92.5,8|8,0:0|0:0,0:0:0:0:
423,347,84739,5,12,0:2:0:0:
457,331,84828,1,8,0:0:0:0:
482,304,84916,1,8,0:0:0:0:
494,269,85004,1,8,0:0:0:0:
492,232,85092,1,8,0:0:0:0:
477,199,85181,1,8,0:0:0:0:
449,175,85269,1,8,0:0:0:0:
415,162,85357,1,8,0:0:0:0:
224,219,85445,5,12,0:2:0:0:
195,191,85533,1,8,0:0:0:0:
181,155,85622,1,8,0:0:0:0:
182,117,85710,1,8,0:0:0:0:
197,81,85798,1,8,0:0:0:0:
223,54,85886,1,8,0:0:0:0:
259,40,85975,1,8,0:0:0:0:
298,39,86063,1,8,0:0:0:0:
110,284,86151,6,8,L|44:268,1,46.25,12|8,0:2|0:0,0:0:0:0:
248,332,86328,2,8,L|299:312,1,46.25
61,145,86504,1,8,0:0:0:0:
44,129,86548,1,8,0:0:0:0:
35,108,86592,1,8,0:0:0:0:
35,85,86636,1,8,0:0:0:0:
44,65,86681,1,8,0:0:0:0:
61,49,86725,1,8,0:0:0:0:
83,43,86769,1,8,0:0:0:0:
285,98,86857,5,0,1:0:0:0:
414,187,87210,2,0,L|422:263,1,46.25,8|0,0:0|0:0,0:0:0:0:
370,249,87386,1,8,0:0:0:0:
35,297,87563,6,0,L|163:284,1,92.5,4|0,0:2|2:0,0:0:0:0:
256,197,87916,2,0,L|128:184,1,92.5,8|0,1:2|2:0,0:0:0:0:
438,352,88269,2,0,P|469:293|437:234,1,138.75,4|0,1:1|2:0,0:0:0:0:
231,93,88622,2,0,L|129:102,1,92.5,8|2,1:2|2:0,0:0:0:0:
377,210,88975,6,0,L|389:327,1,92.5,4|0,1:1|2:0,0:0:0:0:
228,369,89328,2,0,L|339:356,1,92.5,8|0,1:2|2:0,0:0:0:0:
466,104,89681,2,0,L|349:99,1,92.5,4|2,1:0|2:0,0:0:0:0:
327,98,89945,1,0,2:0:0:0:
126,147,90033,2,0,L|228:131,1,92.5,8|2,1:2|2:0,0:0:0:0:
478,344,90386,6,0,L|487:244,1,92.5,4|0,1:1|2:0,0:0:0:0:
315,220,90739,2,0,L|442:203,1,92.5,8|0,1:2|2:0,0:0:0:0:
241,282,91092,2,0,L|84:266,1,138.75,4|0,1:1|2:0,0:0:0:0:
321,345,91445,2,0,L|432:337,1,92.5,8|2,1:2|2:0,0:0:0:0:
170,80,91798,5,4,1:0:0:0:
39,150,91975,1,2,2:0:0:0:
177,215,92151,1,8,1:2:0:0:
24,176,92328,1,2,2:0:0:0:
270,180,92504,1,0,1:0:0:0:
364,253,92681,1,8,0:2:0:0:
357,297,92769,1,0,0:2:0:0:
334,338,92857,1,8,0:2:0:0:
291,361,92945,1,0,2:2:0:0:
243,363,93033,1,8,0:2:0:0:
488,152,93210,6,0,L|495:59,1,92.5,4|0,1:2|2:0,0:0:0:0:
251,55,93563,2,0,L|158:45,1,92.5,8|0,1:2|2:0,0:0:0:0:
333,164,93916,2,0,L|486:153,1,138.75,4|0,1:0|2:0,0:0:0:0:
264,261,94269,2,0,L|142:245,1,92.5,8|2,1:2|2:0,0:0:0:0:
131,243,94533,1,0,2:0:0:0:
172,248,94622,5,4,1:0:0:0:
330,64,94798,2,0,L|217:72,1,92.5,2|8,2:0|1:2,0:0:0:0:
479,224,95151,2,0,L|485:296,1,46.25,2|0,2:0|2:0,0:0:0:0:
291,360,95328,1,4,1:0:0:0:
188,313,95504,1,0,2:0:0:0:
198,232,95681,1,8,1:2:0:0:
310,206,95857,1,2,2:0:0:0:
43,196,96033,6,0,L|36:89,1,92.5,4|0,1:0|2:0,0:0:0:0:
281,41,96386,2,0,L|176:35,1,92.5,8|2,1:2|2:0,0:0:0:0:
469,188,96739,2,0,L|476:295,1,92.5,4|0,1:0|2:0,0:0:0:0:
231,343,97092,2,0,L|336:349,1,92.5,8|2,1:2|2:0,0:0:0:0:
24,113,97445,6,0,L|153:100,1,92.5,4|0,1:0|1:0,0:0:0:0:
354,99,97798,2,0,L|359:42,1,46.25,8|0,1:2|1:0,0:0:0:0:
264,192,97975,2,0,L|261:140,1,46.25,0|0,1:0|1:0,0:0:0:0:
437,267,98151,2,0,L|454:166,1,92.5,4|0,2:2|2:0,0:0:0:0:
100,252,98504,1,8,1:2:0:0:
97,293,98592,1,0,0:0:0:0:
94,334,98681,1,0,1:0:0:0:
384,324,98857,6,0,L|261:313,1,92.5,4|0,1:2|2:0,0:0:0:0:
148,241,99210,2,0,L|276:225,1,92.5,8|0,1:2|2:0,0:0:0:0:
477,176,99563,2,0,L|484:37,1,138.75,4|0,1:0|2:0,0:0:0:0:
276,54,99916,2,0,L|254:178,1,92.5,8|2,1:2|2:0,0:0:0:0:
399,290,100269,6,0,L|284:302,1,92.5,4|0,1:0|2:0,0:0:0:0:
145,217,100622,2,0,L|246:230,1,92.5,8|2,1:2|2:0,0:0:0:0:
477,176,100975,2,0,L|483:82,1,92.5,4|0,1:0|1:0,0:0:0:0:
436,83,101239,1,0,0:0:0:0:
251,67,101328,2,0,L|158:55,1,92.5,8|0,1:2|1:0,0:0:0:0:
403,305,101681,6,0,L|494:293,1,92.5,4|0,1:0|2:0,0:0:0:0:
345,216,102033,2,0,L|437:206,1,92.5,8|0,1:2|2:0,0:0:0:0:
197,293,102386,2,0,L|58:279,1,138.75,4|0,1:0|2:0,0:0:0:0:
216,123,102739,2,0,L|335:116,1,92.5,8|2,1:2|2:0,0:0:0:0:
54,198,103092,6,0,L|156:209,1,92.5,4|2,1:0|2:0,0:0:0:0:
302,318,103445,2,0,L|199:306,1,92.5,8|2,1:2|2:0,0:0:0:0:
461,55,103798,1,4,1:0:0:0:
360,116,103975,1,8,0:2:0:0:
353,161,104063,1,0,0:2:0:0:
371,206,104151,1,8,1:2:0:0:
414,242,104239,1,0,2:2:0:0:
468,248,104328,1,8,0:2:0:0:
233,49,104504,6,0,L|131:37,1,92.5,4|0,2:0|2:0,0:0:0:0:
297,109,104857,2,0,L|416:98,1,92.5,8|0,1:2|2:0,0:0:0:0:
150,207,105210,2,0,L|12:188,1,138.75,4|0,1:0|2:0,0:0:0:0:
167,304,105563,2,0,L|280:294,1,92.5,8|2,1:2|2:0,0:0:0:0:
500,159,105916,6,0,L|394:144,1,92.5,4|0,1:0|2:0,0:0:0:0:
255,64,106269,2,0,L|385:55,1,92.5,8|2,1:2|2:0,0:0:0:0:
105,62,106622,1,4,1:0:0:0:
26,124,106798,1,2,2:0:0:0:
109,180,106975,1,8,1:2:0:0:
290,200,107151,2,0,L|308:330,1,92.5,2|4,2:0|1:0,0:0:0:0:
162,261,107504,1,2,2:0:0:0:
294,316,107681,5,8,1:2:0:0:
51,340,107857,2,0,L|45:238,1,92.5,2|4,2:0|1:0,0:0:0:0:
305,94,108210,1,2,2:0:0:0:
212,89,108386,1,8,1:2:0:0:
119,81,108563,1,2,2:0:0:0:
356,228,108739,2,0,L|450:222,1,92.5,4|8,1:0|1:2,0:0:0:0:
303,334,109092,2,0,L|225:331,1,46.25,8|8,0:2|0:2,0:0:0:0:
409,301,109269,2,0,L|490:297,1,46.25,8|8,0:2|0:2,0:0:0:0:
208,144,109445,6,0,L|25:111,3,185,4|2|2|2,2:0|2:0|2:0|2:3,0:0:0:0:
276,120,110680,5,2,2:3:0:0:
314,145,110768,1,0,2:3:0:0:
330,189,110856,1,2,2:3:0:0:
318,233,110945,1,0,2:3:0:0:
281,262,111033,1,2,2:3:0:0:
235,263,111121,1,0,2:3:0:0:
197,238,111209,1,2,2:3:0:0:
181,194,111297,1,0,2:0:0:0:
193,150,111386,1,0,2:3:0:0:
230,121,111474,1,0,2:0:0:0:
432,48,111562,5,2,2:3:0:0:
451,59,111606,1,2,2:3:0:0:
464,78,111650,1,2,2:3:0:0:
469,100,111695,1,2,2:3:0:0:
465,123,111739,1,2,2:3:0:0:
452,142,111783,1,2,2:3:0:0:
433,154,111827,1,2,2:3:0:0:
176,40,111915,1,2,2:3:0:0:
392,344,112268,5,4,0:0:0:0:
427,314,112356,1,0,0:0:0:0:
419,267,112445,1,0,0:0:0:0:
376,249,112533,1,0,0:0:0:0:
188,308,112621,1,4,0:0:0:0:
153,278,112709,1,0,0:0:0:0:
161,231,112797,1,0,0:0:0:0:
204,213,112886,1,0,0:0:0:0:
409,158,112974,5,4,0:0:0:0:
438,194,113062,1,0,0:0:0:0:
422,239,113150,1,0,0:0:0:0:
376,249,113239,1,0,0:0:0:0:
204,213,113327,1,4,0:0:0:0:
175,177,113415,1,0,0:0:0:0:
191,132,113503,1,0,0:0:0:0:
237,122,113592,1,0,0:0:0:0:
408,197,113680,6,0,L|415:152,3,46.25,4|0|0|0,0:0|0:0|0:0|0:0,0:0:0:0:
222,85,114033,2,0,L|217:38,3,46.25,4|0|0|0,0:0|0:0|0:0|0:0,0:0:0:0:
434,56,114386,5,4,0:0:0:0:
150,153,115092,6,0,L|137:62,1,92.5,4|0,1:0|1:0,0:0:0:0:
307,142,115445,2,0,L|292:255,1,92.5,0|0,1:0|1:0,0:0:0:0:
40,280,115797,2,0,L|155:267,1,92.5,4|0,1:0|1:0,0:0:0:0:
296,352,116150,2,0,L|411:365,1,92.5,0|0,1:0|1:0,0:0:0:0:
143,175,116503,6,0,L|152:285,1,92.5,4|0,1:2|1:0,0:0:0:0:
435,141,116856,2,0,L|443:49,1,92.5,4|0,1:2|1:0,0:0:0:0:
285,82,117209,1,4,1:2:0:0:
407,307,117562,2,0,P|440:257|390:197,1,138.75
149,153,117915,6,0,L|137:62,1,92.5,4|0,1:0|1:0,0:0:0:0:
307,142,118268,2,0,L|292:255,1,92.5,0|0,1:0|1:0,0:0:0:0:
40,280,118620,2,0,L|155:267,1,92.5,4|0,1:0|1:0,0:0:0:0:
296,352,118973,2,0,L|411:365,1,92.5,0|0,1:0|1:0,0:0:0:0:
104,56,119326,6,0,L|96:148,1,92.5,4|0,1:2|1:0,0:0:0:0:
343,148,119679,2,0,L|336:56,1,92.5,4|0,1:2|1:0,0:0:0:0:
48,152,120033,1,4,1:2:0:0:
203,355,120209,2,0,L|213:250,1,92.5,0|0,0:0|2:0,0:0:0:0:
97,264,120562,1,0,0:0:0:0:
395,84,120739,5,4,0:2:0:0:
431,92,120827,1,0,0:0:0:0:
460,114,120915,1,0,0:0:0:0:
479,146,121003,1,0,0:0:0:0:
484,182,121091,1,0,0:0:0:0:
475,218,121180,1,0,0:0:0:0:
452,247,121268,1,0,0:0:0:0:
421,265,121356,1,0,0:0:0:0:
257,151,121445,1,4,0:2:0:0:
221,159,121533,1,0,0:0:0:0:
192,180,121621,1,0,0:0:0:0:
173,212,121709,1,0,0:0:0:0:
168,249,121797,1,0,0:0:0:0:
177,284,121886,1,0,0:0:0:0:
199,313,121974,1,0,0:0:0:0:
231,331,122062,1,0,0:0:0:0:
407,133,122150,6,0,L|413:65,3,46.25,4|0|0|0,0:2|0:0|0:0|0:0,0:0:0:0:
236,71,122503,2,0,L|222:1,3,46.25,4|0|0|0,0:2|0:0|0:0|0:0,0:0:0:0:
375,46,122856,1,4,0:2:0:0:
496,192,123033,1,0,0:0:0:0:
494,233,123121,1,0,0:0:0:0:
490,274,123209,1,0,0:0:0:0:
386,352,123386,1,0,0:0:0:0:
117,84,123562,5,4,0:2:0:0:
81,92,123650,1,0,0:0:0:0:
52,114,123738,1,0,0:0:0:0:
33,146,123826,1,0,0:0:0:0:
28,182,123914,1,0,0:0:0:0:
37,218,124003,1,0,0:0:0:0:
60,247,124091,1,0,0:0:0:0:
91,265,124179,1,0,0:0:0:0:
255,151,124268,1,4,0:2:0:0:
291,159,124356,1,0,0:0:0:0:
320,180,124444,1,0,0:0:0:0:
339,212,124532,1,0,0:0:0:0:
344,249,124620,1,0,0:0:0:0:
335,284,124709,1,0,0:0:0:0:
313,313,124797,1,0,0:0:0:0:
281,331,124885,1,0,0:0:0:0:
56,50,124974,5,0,0:0:0:0:
39,136,125150,1,0,0:0:0:0:
178,75,125327,1,0,0:0:0:0:
175,156,125503,1,0,0:0:0:0:
172,237,125680,1,0,0:0:0:0:
405,148,126033,2,0,L|416:260,1,101.750003105164,2|0,2:0|2:0,0:0:0:0:
159,345,126386,6,0,L|130:179,1,138.75,2|0,2:0|2:0,0:0:0:0:
350,69,126739,2,0,L|445:59,1,92.5,4|0,0:2|2:0,0:0:0:0:
285,145,127092,2,0,L|269:265,1,92.5,4|0,1:0|0:0,0:0:0:0:
318,242,127356,1,0,2:0:0:0:
472,254,127444,2,0,L|461:345,1,92.5,8|2,1:2|2:0,0:0:0:0:
189,364,127797,6,0,L|204:247,1,92.5,4|2,1:0|2:0,0:0:0:0:
330,345,128150,1,8,1:2:0:0:
192,320,128327,1,2,2:0:0:0:
432,232,128503,2,0,L|441:167,1,46.25,4|2,1:0|2:0,0:0:0:0:
312,88,128768,2,0,L|249:81,2,46.25,2|8|0,2:0|1:2|2:0,0:0:0:0:
357,94,129033,1,2,2:0:0:0:
112,344,129209,6,0,L|96:232,1,92.5,4|0,1:0|2:0,0:0:0:0:
240,184,129562,2,0,L|117:169,1,92.5,8|0,1:2|2:0,0:0:0:0:
341,351,129915,2,0,P|364:290|333:217,1,138.75,4|0,1:0|2:0,0:0:0:0:
191,209,130268,2,0,L|181:100,1,92.5,8|2,1:2|2:0,0:0:0:0:
422,90,130621,6,0,L|310:76,1,92.5,4|2,0:0|2:0,0:0:0:0:
186,11,130974,2,0,L|288:-2,1,92.5,8|2,1:2|2:0,0:0:0:0:
41,58,131327,1,4,1:0:0:0:
143,112,131503,1,8,1:2:0:0:
138,163,131592,1,0,0:0:0:0:
121,205,131680,1,8,1:2:0:0:
82,238,131768,1,0,0:0:0:0:
28,246,131856,1,0,1:0:0:0:
266,302,132033,6,0,L|383:292,1,92.5,4|0,1:2|2:0,0:0:0:0:
209,224,132386,2,0,L|92:214,1,92.5,8|0,1:2|2:0,0:0:0:0:
374,149,132739,2,0,L|213:135,1,138.75,4|0,1:0|2:0,0:0:0:0:
78,72,133092,2,0,L|209:58,1,92.5,8|2,1:2|2:0,0:0:0:0:
412,337,133445,6,0,L|423:210,1,92.5,4|0,1:0|2:0,0:0:0:0:
284,162,133797,2,0,L|391:143,1,92.5,8|2,1:2|2:0,0:0:0:0:
117,287,134150,2,0,L|210:297,1,92.5,2|0,1:0|2:0,0:0:0:0:
47,221,134503,2,0,L|34:104,1,92.5,10|0,1:0|2:0,0:0:0:0:
321,229,134856,6,0,P|359:150|299:87,1,185,6|8,1:1|1:2,0:0:0:0:
167,77,135386,1,2,2:0:0:0:
407,341,135562,2,0,L|419:235,1,92.5,4|0,1:0|2:0,0:0:0:0:
174,342,135915,2,0,L|162:236,1,92.5,8|2,1:2|2:0,0:0:0:0:
405,29,136268,5,8,0:2:0:0:
445,51,136356,1,8,0:2:0:0:
460,94,136444,1,8,0:2:0:0:
448,139,136533,1,8,0:2:0:0:
404,155,136621,2,0,L|329:161,3,46.25,8|8|8|8,0:2|0:2|0:2|0:2,0:0:0:0:
181,202,136974,2,0,L|169:80,1,92.5,8|0,0:2|2:2,0:0:0:0:
16,312,137327,2,0,L|108:323,1,92.5,2|0,2:0|2:0,0:0:0:0:
381,333,137680,6,0,L|508:310,1,92.5,2|0,2:0|2:0,0:0:0:0:
220,193,138033,2,0,L|94:177,1,92.5,4|0,1:2|2:0,0:0:0:0:
311,129,138297,2,0,L|331:31,1,92.5,0|0,1:0|1:0,0:0:0:0:
283,26,138562,1,0,0:0:0:0:
116,251,138739,2,0,L|129:343,1,92.5,8|0,0:2|0:0,0:0:0:0:
175,338,139004,1,0,0:0:0:0:
351,264,139092,6,0,L|237:254,1,92.5,0|2,0:0|2:0,0:0:0:0:
112,134,139445,2,0,L|229:145,1,92.5,8|2,0:2|2:0,0:0:0:0:
457,60,139798,1,0,0:0:0:0:
372,97,139974,1,2,2:0:0:0:
335,182,140151,1,8,1:2:0:0:
370,267,140327,1,0,1:0:0:0:
455,302,140504,5,4,0:0:0:0:
205,354,140680,2,0,L|106:339,1,92.5,2|8,2:0|1:2,0:0:0:0:
261,284,141033,2,0,L|266:252,4,23.125,2|0|0|0|4,2:0|2:0|2:0|0:0|0:1,0:0:0:0:
120,182,141386,1,2,1:2:0:0:
271,105,141562,2,0,L|98:80,1,138.75,8|0,0:2|2:0,0:0:0:0:
333,169,141915,6,0,P|362:120|321:35,1,138.75,4|0,1:0|2:0,0:0:0:0:
164,187,142268,1,8,1:2:0:0:
156,232,142356,1,0,2:0:0:0:
148,277,142444,1,2,2:0:0:0:
412,368,142621,2,0,L|418:294,1,46.25,4|0,1:0|0:0,0:0:0:0:
343,306,142797,1,8,2:0:0:0:
307,275,142886,1,0,2:0:0:0:
300,230,142974,1,8,1:2:0:0:
320,189,143062,1,0,2:0:0:0:
361,171,143150,1,8,1:2:0:0:
111,91,143327,6,0,L|-16:106,1,92.5,4|2,1:2|2:0,0:0:0:0:
154,189,143680,2,0,L|281:174,1,92.5,8|0,1:2|1:0,0:0:0:0:
416,296,143944,2,0,L|446:184,1,92.5,2|0,1:2|0:0,0:0:0:0:
392,182,144209,1,2,1:2:0:0:
134,256,144386,2,0,L|117:350,1,92.5,8|2,1:2|1:2,0:0:0:0:
163,351,144650,1,2,2:0:0:0:
377,346,144739,6,0,L|496:333,1,92.5,4|2,1:0|2:0,0:0:0:0:
333,263,145092,2,0,L|424:253,1,92.5,8|2,1:2|2:0,0:0:0:0:
155,299,145444,1,2,1:1:0:0:
81,241,145621,1,0,2:0:0:0:
79,148,145797,1,10,1:1:0:0:
152,91,145974,1,2,2:0:0:0:
408,232,146150,6,0,L|394:111,1,92.5,6|0,1:0|2:0,0:0:0:0:
264,288,146503,1,8,1:2:0:0:
419,340,146679,1,2,2:0:0:0:
104,232,146856,2,0,L|118:111,1,92.5,4|0,1:0|2:0,0:0:0:0:
248,289,147209,1,8,1:2:0:0:
93,341,147385,1,2,2:0:0:0:
350,37,147562,5,8,1:2:0:0:
390,58,147650,1,0,0:0:0:0:
409,100,147739,1,0,3:0:0:0:
397,144,147827,1,0,0:0:0:0:
357,168,147915,2,0,L|292:181,1,46.25,8|0,2:2|2:2,2:2:0:0:
381,245,148092,2,0,L|446:258,1,46.25,8|8,2:2|2:2,2:2:0:0:
196,275,148268,6,0,L|8:240,4,185,4|2|2|0|0,1:2|2:0|2:0|2:0|2:0,0:0:0:0:
464,56,149857,1,8,0:2:0:0:
468,97,149945,1,0,3:0:0:0:
473,138,150033,1,0,1:0:0:0:
362,196,150209,1,0,1:0:0:0:
104,120,150386,6,0,L|12:109,2,92.5,4|0|8,2:0|2:0|1:2,0:0:0:0:
258,198,150915,2,0,L|262:316,1,92.5,2|4,2:0|1:0,0:0:0:0:
128,312,151268,1,2,2:0:0:0:
408,256,151444,6,0,L|500:267,2,92.5,8|0|4,1:2|2:0|1:0,0:0:0:0:
254,178,151973,2,0,L|250:60,1,92.5,2|8,2:0|1:2,0:0:0:0:
384,72,152327,1,0,2:0:0:0:
139,220,152503,2,0,L|126:325,1,92.5,4|2,1:0|2:2,0:0:0:0:
373,220,152856,2,0,L|386:325,1,92.5,8|2,1:2|2:2,0:0:0:0:
63,171,153209,6,0,L|55:66,1,92.5,4|0,1:1|2:0,0:0:0:0:
176,72,153562,1,8,1:2:0:0:
336,232,153739,1,0,2:0:0:0:
244,244,153915,1,4,0:0:0:0:
151,253,154092,1,0,2:0:0:0:
449,213,154268,6,0,L|457:318,1,92.5,8|0,1:2|2:0,0:0:0:0:
336,312,154621,1,4,0:0:0:0:
176,152,154797,1,0,2:0:0:0:
268,140,154973,1,8,1:2:0:0:
361,131,155150,1,0,2:0:0:0:
116,350,155327,5,4,1:0:0:0:
75,329,155415,1,0,0:0:0:0:
48,292,155503,1,0,1:0:0:0:
41,246,155591,1,0,1:0:0:0:
56,203,155679,1,8,0:2:0:0:
88,171,155768,1,0,0:0:0:0:
132,158,155856,1,8,0:2:0:0:
408,160,156033,6,0,L|311:152,2,92.5,4|0|8,2:0|2:0|1:2,0:0:0:0:
243,222,156562,2,0,L|238:335,1,92.5,2|4,2:0|1:0,0:0:0:0:
360,344,156915,1,2,2:2:0:0:
104,224,157092,6,0,L|201:232,2,92.5,8|2|4,1:2|2:0|1:1,0:0:0:0:
269,162,157621,2,0,L|274:49,1,92.5,0|8,2:2|1:2,0:0:0:0:
152,32,157974,1,2,2:2:0:0:
392,128,158150,2,0,L|402:20,1,92.5,4|2,1:0|2:0,0:0:0:0:
120,128,158503,2,0,L|110:20,1,92.5,8|2,1:2|2:0,0:0:0:0:
401,276,158856,6,0,L|493:280,2,92.5,4|0|8,1:0|2:0|1:2,0:0:0:0:
262,325,159386,2,0,L|145:331,2,92.5,2|4|2,2:0|1:0|2:2,0:0:0:0:
404,191,159915,2,0,L|293:182,1,92.5,8|2,1:2|2:0,0:0:0:0:
40,258,160268,6,0,L|33:63,1,185,4|8,1:0|1:2,0:0:0:0:
168,72,160797,1,2,2:0:0:0:
408,98,160974,2,0,L|404:191,1,92.5,4|4,0:0|0:0,0:0:0:0:
360,208,161239,1,0,2:0:0:0:
343,251,161327,1,8,0:2:0:0:
359,293,161415,1,0,1:0:0:0:
399,315,161503,1,8,0:2:0:0:
148,271,161680,6,0,L|29:258,2,92.5,4|0|8,1:2|2:0|1:2,0:0:0:0:
285,109,162209,1,2,2:2:0:0:
193,121,162386,1,4,1:0:0:0:
101,134,162562,1,2,2:2:0:0:
364,113,162739,6,0,L|483:126,2,92.5,8|2|4,1:2|2:0|1:1,0:0:0:0:
227,275,163268,1,2,2:2:0:0:
319,263,163445,1,8,1:2:0:0:
411,250,163621,1,2,2:2:0:0:
114,166,163797,2,0,L|102:47,1,92.5,4|0,1:0|2:0,0:0:0:0:
398,166,164150,2,0,L|410:47,1,92.5,8|2,1:2|2:0,0:0:0:0:
152,304,164503,6,0,L|59:309,2,92.5,4|0|8,1:1|2:0|1:2,0:0:0:0:
24,224,165033,2,0,L|12:132,1,92.5,2|4,2:2|1:0,0:0:0:0:
120,128,165386,1,2,2:2:0:0:
360,304,165562,6,0,L|468:311,2,92.5,8|2|4,1:2|2:0|1:1,0:0:0:0:
488,224,166092,2,0,L|501:117,1,92.5,2|8,2:2|1:2,0:0:0:0:
392,128,166445,1,2,2:2:0:0:
141,131,166621,5,4,1:0:0:0:
96,144,166709,1,0,1:0:0:0:
68,180,166797,1,0,1:0:0:0:
57,225,166886,1,0,1:0:0:0:
69,269,166974,1,8,1:2:0:0:
101,301,167062,1,0,2:2:0:0:
146,308,167150,1,8,0:2:0:0:
404,73,167327,6,0,L|495:82,2,92.5,4|0|8,2:0|2:0|1:2,0:0:0:0:
168,176,167856,1,2,2:0:0:0:
260,184,168033,1,4,1:0:0:0:
351,196,168209,1,2,2:2:0:0:
108,311,168386,6,0,L|17:302,2,92.5,8|2|4,1:2|2:0|1:1,0:0:0:0:
344,208,168915,1,0,2:2:0:0:
252,200,169092,1,8,1:2:0:0:
161,188,169268,1,2,2:2:0:0:
399,111,169444,2,0,L|407:17,1,92.5,4|2,1:0|2:0,0:0:0:0:
113,111,169797,2,0,L|105:17,1,92.5,8|2,1:2|2:0,0:0:0:0:
376,312,170150,6,0,L|498:305,2,92.5,4|0|8,1:0|2:0|1:2,0:0:0:0:
136,312,170680,2,0,L|14:305,2,92.5,2|4|2,2:0|1:0|2:2,0:0:0:0:
392,203,171209,2,0,L|293:213,1,92.5,8|2,1:2|2:0,0:0:0:0:
55,197,171562,6,0,P|12:122|66:53,1,185,4|8,1:0|1:2,0:0:0:0:
185,59,172092,1,2,2:2:0:0:
420,49,172268,1,4,1:0:0:0:
461,77,172356,1,0,2:0:0:0:
461,127,172444,1,0,2:0:0:0:
415,150,172533,1,0,2:0:0:0:
251,236,172621,2,0,L|179:254,1,50.8750015525818,8|0,1:2|2:0,0:0:0:0:
363,306,172797,2,0,L|412:293,1,50.8750015525818,0|0,2:0|2:0,0:0:0:0:
121,132,172974,6,0,L|117:23,1,101.750003105164,8|0,1:2|2:0,0:0:0:0:
391,132,173327,2,0,L|395:23,1,101.750003105164,8|0,1:2|2:0,0:0:0:0:
55,325,173680,2,0,L|48:224,1,101.750003105164,8|2,1:2|2:0,0:0:0:0:
126,218,173944,1,2,2:0:0:0:
306,223,174033,1,10,2:0:0:0:
