osu file format v14

[General]
AudioFilename: audio.mp3
AudioLeadIn: 0
PreviewTime: 149768
Countdown: 0
SampleSet: Normal
StackLeniency: 0.7
Mode: 2
LetterboxInBreaks: 0
WidescreenStoryboard: 1

[Editor]
Bookmarks: 3376,98847,137670
DistanceSpacing: 1.4
BeatDivisor: 4
GridSize: 32
TimelineZoom: 2.7

[Metadata]
Title:More One Night (Assertive Hardcore Bootleg) [long ver.]
TitleUnicode:More One Night (Assertive Hardcore Bootleg) [long ver.]
Artist:Chito (CV: Minase Inori), Yuuri (CV: Kubo Yurika)
ArtistUnicode:チト (CV:水瀬いのり)、ユーリ (CV:久保ユリカ)
Creator:Spectator
Version:Rei's Platter
Source:少女終末旅行
Tags:Shoujo Shuumatsu Ryokou Girls Last Tour ending tasuke912 -Plus- Bunnrei Chara wonjae Paranoid Grapes Electronic Japanese Anime
BeatmapID:1830020
BeatmapSetID:875737

[Difficulty]
HPDrainRate:5
CircleSize:3.8
OverallDifficulty:8
ApproachRate:8
SliderMultiplier:1.7
SliderTickRate:2

[Events]
//Background and Video events
0,0,"more_one_night.jpg",0,0
//Break Periods
//Storyboard Layer 0 (Background)
//Storyboard Layer 1 (Fail)
//Storyboard Layer 2 (Pass)
//Storyboard Layer 3 (Foreground)
//Storyboard Layer 4 (Overlay)
//Storyboard Sound Samples

[TimingPoints]
34,352.941176470588,4,2,1,65,1,0
386,-100,4,2,1,68,0,0
739,-100,4,2,1,70,0,0
1092,-100,4,2,1,73,0,0
1445,-100,4,2,1,75,0,0
1798,-100,4,2,1,78,0,0
2151,-100,4,2,1,80,0,0
2504,-100,4,2,1,85,0,0
2769,-66.6666666666667,4,2,1,85,0,0
2857,-100,4,2,1,30,0,0
3386,-66.6666666666667,4,2,1,45,0,0
3563,-66.6666666666667,4,2,1,60,0,0
3739,-66.6666666666667,4,2,1,75,0,0
3916,-100,4,2,2,85,0,0
4092,-100,4,2,1,10,0,0
4269,-100,4,2,2,70,0,0
9563,-100,4,2,2,70,0,0
9916,-100,4,2,1,85,0,0
12739,-100,4,2,1,88,0,0
13445,-100,4,2,1,90,0,0
15563,-100,4,1,1,90,0,0
26328,-100,4,1,3,75,0,0
26681,-100,4,1,3,10,0,0
26857,-100,4,2,1,90,0,0
32151,-90.9090909090909,4,2,1,90,0,0
32504,-100,4,2,1,95,0,0
35328,-100,4,2,1,77,0,0
37798,-100,4,2,3,66,0,0
38151,-100,4,1,1,90,0,1
60033,-100,4,2,1,80,0,0
64975,-100,4,2,1,75,0,0
75739,-100,4,2,3,75,0,0
76092,-100,4,2,3,10,0,0
76269,-100,4,2,1,90,0,0
87210,-100,4,2,3,65,0,0
87563,-100,4,1,1,90,0,1
109445,352.941176470588,4,1,1,90,1,0
112268,-100,4,2,1,65,0,0
112621,-100,4,2,1,68,0,0
112974,-100,4,2,1,70,0,0
113327,-100,4,2,1,72,0,0
113680,-100,4,2,1,75,0,0
115092,-100,4,1,1,80,0,0
123562,-90.9090909090909,4,1,1,80,0,0
126033,-90.9090909090909,4,2,1,77,0,0
126386,-100,4,1,1,90,0,0
126739,-100,4,1,1,90,0,1
134150,-100,4,1,1,60,0,1
134327,-100,4,1,1,70,0,1
134503,-100,4,1,1,65,0,1
134680,-100,4,1,1,90,0,1
134856,-100,4,1,1,70,0,1
135033,-100,4,1,1,90,0,1
145444,-100,4,1,1,60,0,1
145533,-100,4,1,1,90,0,1
145797,-100,4,1,1,65,0,1
145974,-100,4,1,1,90,0,1
146150,-100,4,1,1,70,0,1
146327,-100,4,1,1,90,0,1
150209,-100,4,1,1,90,0,0
150386,-100,4,1,1,90,0,1
161503,-100,4,1,1,90,0,0
161680,-100,4,1,1,90,0,1
172621,-100,4,1,1,90,0,1
174033,-100,4,1,3,60,0,0

[Colours]
Combo1 : 249,149,193
Combo2 : 242,239,132
Combo3 : 134,210,104
Combo4 : 169,181,188

[HitObjects]
331,343,34,6,0,L|319:238,1,85,4|0,0:0|0:0,0:0:0:0:
425,217,386,2,0,L|437:112,1,85,4|0,0:0|0:0,0:0:0:0:
248,311,739,2,0,L|219:209,1,85,4|0,0:0|0:0,0:0:0:0:
324,195,1092,2,0,L|353:93,1,85,4|0,0:0|0:0,0:0:0:0:
160,281,1445,6,0,L|131:179,1,85,4|0,0:0|0:0,0:0:0:0:
236,165,1798,2,0,L|265:63,1,85,4|0,0:0|0:0,0:0:0:0:
61,268,2151,2,0,L|12:175,1,85,4|0,0:0|0:0,0:0:0:0:
138,153,2504,2,0,L|178:57,1,85,4|0,0:0|0:0,0:0:0:0:
356,328,2857,6,0,P|379:257|95:13,1,510,0|2,0:0|0:0,0:0:0:0:
425,357,4269,6,0,L|449:99,1,255,4|0,0:0|0:0,0:0:0:0:
329,110,4975,1,2,0:0:0:0:
448,103,5151,2,0,L|395:88,1,42.5,0|2,0:0|0:0,0:0:0:0:
164,185,5504,6,0,L|333:161,1,170,2|0,0:0|0:0,0:0:0:0:
226,308,6033,2,0,P|172:274|239:221,1,170,8|0,0:0|0:0,0:0:0:0:
427,129,6739,2,0,L|314:120,1,85,2|0,0:0|0:0,0:0:0:0:
170,171,7092,6,0,L|459:135,1,255,2|0,0:0|0:0,0:0:0:0:
312,109,7798,1,2,0:0:0:0:
201,96,7975,2,0,L|259:87,1,42.5,0|2,0:0|0:0,0:0:0:0:
485,38,8328,6,0,L|277:24,1,170,2|0,0:0|0:0,0:0:0:0:
204,159,8857,2,0,L|412:145,1,170,8|2,0:0|0:0,0:0:0:0:
263,264,9386,1,0,0:0:0:0:
220,263,9474,1,0,0:0:0:0:
178,263,9563,2,0,L|167:153,1,85,8|0,0:0|0:0,0:0:0:0:
408,288,9916,6,0,L|419:178,1,85,4|2,1:0|0:3,0:0:0:0:
396,166,10181,1,0,0:0:0:0:
359,146,10269,1,8,1:2:0:0:
263,151,10445,1,0,0:0:0:0:
329,82,10622,2,0,L|324:20,1,42.5,8|0,1:2|0:0,0:0:0:0:
219,75,10886,1,0,0:0:0:0:
186,87,10975,2,0,L|99:89,1,85,8|2,1:2|0:3,0:0:0:0:
255,293,11328,6,0,P|269:250|240:206,1,85,8|2,1:2|0:3,0:0:0:0:
203,192,11592,2,0,L|201:146,1,42.5,0|8,0:0|1:2,0:0:0:0:
292,145,11857,1,2,0:3:0:0:
392,145,12033,2,0,L|396:86,1,42.5,8|0,1:2|0:0,0:0:0:0:
294,114,12298,1,0,0:0:0:0:
339,93,12386,2,0,L|343:-7,1,85,8|0,1:2|0:0,0:0:0:0:
71,256,12739,5,8,1:2:0:0:
32,167,12916,1,8,1:2:0:0:
75,81,13092,1,8,1:2:0:0:
168,56,13269,1,8,1:2:0:0:
441,256,13445,1,8,1:2:0:0:
479,167,13622,1,8,1:2:0:0:
436,81,13798,1,8,1:2:0:0:
343,56,13975,1,8,1:2:0:0:
70,100,14151,5,8,0:0:0:0:
43,132,14239,1,8,0:0:0:0:
28,172,14328,1,8,0:0:0:0:
27,214,14416,1,8,0:0:0:0:
40,255,14504,1,8,0:0:0:0:
66,288,14592,1,8,0:0:0:0:
101,312,14681,1,8,0:0:0:0:
142,323,14769,1,8,0:0:0:0:
184,320,14857,5,8,0:0:0:0:
141,314,14945,1,8,0:0:0:0:
99,308,15033,1,8,0:0:0:0:
57,303,15122,1,8,0:0:0:0:
15,297,15210,1,4,0:3:0:0:
465,341,15563,6,0,P|496:281|447:227,1,127.5,4|0,1:2|2:0,0:0:0:0:
422,215,15916,2,0,L|331:215,1,85,8|2,0:0|2:3,0:0:0:0:
209,219,16269,2,0,P|153:171|218:103,1,170,0|8,1:0|0:0,0:0:0:0:
300,105,16798,1,2,2:0:0:0:
101,182,16975,6,0,L|114:279,1,85,0|2,1:0|2:0,0:0:0:0:
237,267,17328,2,0,L|224:364,1,85,8|2,1:0|2:3,0:0:0:0:
107,362,17681,2,0,P|24:333|45:242,1,170,0|8,1:0|1:0,0:0:0:0:
114,237,18210,1,2,2:0:0:0:
288,293,18386,5,0,1:0:0:0:
201,270,18563,1,2,2:0:0:0:
114,237,18739,2,0,L|112:130,1,85,8|2,1:0|2:0,0:0:0:0:
243,76,19092,2,0,P|276:113|181:129,1,170,0|8,0:0|1:0,0:0:0:0:
283,169,19622,1,2,2:0:0:0:
464,115,19798,5,0,1:0:0:0:
453,231,19975,1,2,2:0:0:0:
321,159,20151,1,8,1:0:0:0:
310,43,20328,1,2,2:0:0:0:
496,43,20504,1,0,0:0:0:0:
323,194,20857,2,0,L|416:183,1,85,8|2,1:0|2:0,0:0:0:0:
166,344,21210,6,0,P|108:319|137:224,1,170,0|8,1:0|1:0,0:0:0:0:
228,189,21739,1,2,2:2:0:0:
314,116,21916,2,0,P|284:48|177:31,1,170,0|8,1:0|1:0,0:0:0:0:
92,62,22445,1,0,2:0:0:0:
263,243,22622,6,0,L|278:125,1,85,0|2,1:0|2:0,0:0:0:0:
170,53,22975,2,0,L|288:68,1,85,8|2,1:0|2:0,0:0:0:0:
370,91,23328,2,0,P|395:131|301:157,1,170,0|8,1:0|1:0,0:0:0:0:
319,263,23857,1,2,2:0:0:0:
493,299,24033,6,0,L|307:312,1,170,0|8,1:0|1:0,0:0:0:0:
234,318,24563,1,2,2:0:0:0:
139,327,24739,2,0,P|112:278|147:242,1,85,0|2,1:0|2:0,0:0:0:0:
216,177,25092,2,0,L|122:177,1,85,8|0,1:0|2:3,0:0:0:0:
246,245,25445,6,0,L|368:238,4,85,4|4|4|4|4,1:0|1:0|1:0|1:0|1:0,0:0:0:0:
81,194,26328,1,8,2:0:0:0:
77,236,26416,1,0,2:0:0:0:
74,278,26504,1,8,2:0:0:0:
439,333,26857,6,0,L|453:145,1,170,4|8,1:2|0:0,0:0:0:0:
211,229,27563,2,0,P|196:169|254:130,1,127.5,8|0,2:0|0:0,0:0:0:0:
296,117,27916,2,0,L|192:105,1,85,8|0,0:0|0:0,0:0:0:0:
371,228,28269,6,0,L|165:205,1,170,8|8,2:0|2:0,0:0:0:0:
449,83,28975,2,0,P|476:147|416:191,1,127.5,8|0,2:0|0:0,0:0:0:0:
389,205,29328,2,0,L|497:226,1,85,8|2,0:0|0:0,0:0:0:0:
277,347,29681,6,0,P|238:307|306:235,1,170,8|8,0:0|0:0,0:0:0:0:
487,171,30386,2,0,L|358:156,1,127.5,8|0,0:0|0:0,0:0:0:0:
325,204,30739,2,0,L|222:187,1,85,8|2,0:0|0:0,0:0:0:0:
403,184,31092,6,0,P|442:240|359:282,1,170,8|8,0:0|0:0,0:0:0:0:
170,338,31798,2,0,L|358:316,1,170,8|8,0:0|0:0,0:0:0:0:
145,252,32504,5,8,0:0:0:0:
56,239,32681,2,0,L|40:123,2,85,10|8|10,0:0|0:0|0:0,0:0:0:0:
163,199,33210,1,8,0:0:0:0:
74,186,33386,2,0,L|58:70,2,85,10|8|8,0:0|0:0|0:0,0:0:0:0:
284,329,33916,5,8,2:0:0:0:
373,316,34092,2,0,L|389:200,2,85,10|8|10,0:0|0:0|0:0,0:0:0:0:
266,276,34622,1,10,0:0:0:0:
355,263,34798,2,0,L|371:147,2,85,0|10|0,0:0|0:0|0:0,0:0:0:0:
79,287,35328,6,0,L|71:219,2,42.5,4|0|0,1:2|1:0|1:0,0:0:0:0:
176,302,35681,1,8,1:2:0:0:
79,287,35857,1,0,1:0:0:0:
269,163,36033,6,0,L|277:95,2,42.5,4|0|0,1:2|1:0|1:0,0:0:0:0:
172,178,36386,1,0,1:0:0:0:
269,163,36562,1,0,1:0:0:0:
460,94,36739,5,4,1:2:0:0:
482,129,36828,1,0,1:0:0:0:
481,170,36916,1,0,1:0:0:0:
455,203,37004,1,0,1:0:0:0:
415,216,37092,2,0,L|322:207,1,85,4|4,1:0|1:0,0:0:0:0:
60,202,37445,5,4,1:0:0:0:
195,144,37798,2,0,L|93:131,1,85,8|8,0:0|0:0,0:0:0:0:
385,82,38151,6,0,P|416:152|369:185,1,127.5,4|0,0:2|2:0,0:0:0:0:
342,192,38504,2,0,L|242:202,1,85,8|0,0:2|2:0,0:0:0:0:
61,219,38857,1,4,1:0:0:0:
150,118,39122,1,0,1:0:0:0:
49,57,39386,1,0,1:0:0:0:
255,117,39563,6,0,L|344:109,1,85,4|0,1:0|2:0,0:0:0:0:
447,107,39916,2,0,P|464:148|435:192,1,85,8|0,1:2|2:0,0:0:0:0:
355,218,40269,1,4,1:0:0:0:
475,154,40622,1,8,0:2:0:0:
389,181,40798,1,2,2:0:0:0:
191,214,40975,6,0,P|143:175|127:107,1,127.5,4|0,1:0|2:0,0:0:0:0:
176,64,41328,2,0,L|271:64,1,85,8|0,1:2|2:0,0:0:0:0:
454,179,41681,1,4,1:0:0:0:
354,299,41945,1,0,1:0:0:0:
437,212,42210,1,2,1:2:0:0:
243,209,42386,6,0,L|224:98,1,85,4|2,1:0|2:0,0:0:0:0:
334,113,42739,2,0,L|315:2,1,85,8|2,1:2|2:0,0:0:0:0:
128,32,43092,1,4,1:0:0:0:
33,99,43269,1,0,0:0:0:0:
17,137,43357,1,0,0:0:0:0:
24,179,43445,1,8,0:2:0:0:
52,210,43533,1,0,2:0:0:0:
93,220,43622,1,0,0:0:0:0:
352,221,43798,6,0,P|393:151|350:118,1,127.5,4|0,0:2|2:0,0:0:0:0:
325,107,44151,2,0,L|230:101,1,85,8|0,0:2|2:0,0:0:0:0:
429,62,44504,1,4,1:0:0:0:
341,167,44769,1,0,1:0:0:0:
432,255,45033,1,2,1:2:0:0:
234,323,45210,6,0,L|120:302,1,85,4|2,1:0|2:0,0:0:0:0:
59,260,45563,2,0,L|173:239,1,85,8|2,1:2|2:0,0:0:0:0:
247,162,45916,2,0,L|72:146,1,170,4|8,1:0|0:2,0:0:0:0:
110,39,46445,1,2,2:0:0:0:
272,114,46622,6,0,P|297:166|206:208,1,170,4|8,1:0|1:2,0:0:0:0:
96,238,47151,1,2,2:0:0:0:
289,336,47328,6,0,P|349:313|315:227,1,170,4|8,1:0|1:2,0:0:0:0:
418,212,47857,1,2,2:0:0:0:
238,215,48033,5,4,0:0:0:0:
196,220,48122,1,2,2:3:0:0:
154,211,48210,1,0,0:0:0:0:
118,188,48298,1,2,2:3:0:0:
92,155,48386,1,8,0:2:0:0:
79,115,48475,1,6,2:3:0:0:
80,73,48563,1,0,0:0:0:0:
340,54,48739,6,0,L|437:54,1,85,0|0,1:0|2:0,0:0:0:0:
512,139,49092,2,0,L|415:139,1,85,2|0,2:0|2:0,0:0:0:0:
167,351,49445,5,4,0:2:0:0:
160,251,49622,1,2,0:2:0:0:
274,255,49798,2,0,P|334:237|358:201,1,85,8|0,1:2|1:0,0:0:0:0:
298,170,50063,2,0,L|422:168,1,85,2|0,1:2|1:0,0:0:0:0:
378,126,50328,1,2,1:2:0:0:
191,79,50504,2,0,L|95:71,1,85,8|0,1:2|1:0,0:0:0:0:
209,43,50857,6,0,P|224:89|199:114,1,85,2|2,1:2|1:2,0:0:0:0:
93,219,51210,1,8,1:2:0:0:
184,258,51386,1,2,2:0:0:0:
383,297,51563,2,0,P|391:247|364:214,1,85,2|2,1:2|2:2,0:0:0:0:
238,210,51916,2,0,L|201:115,1,85,8|2,1:2|2:2,0:0:0:0:
411,57,52269,6,0,L|496:57,2,85,4|2|8,1:0|2:0|1:2,0:0:0:0:
294,159,52798,1,2,2:0:0:0:
294,159,52975,1,4,1:0:0:0:
496,57,53151,1,2,1:2:0:0:
411,169,53328,2,0,L|336:107,1,85,8|0,1:2|2:0,0:0:0:0:
137,159,53681,6,0,P|87:221|124:247,1,127.5,4|0,1:0|2:0,0:0:0:0:
149,241,54033,1,8,1:2:0:0:
106,241,54122,1,0,2:0:0:0:
64,241,54210,1,2,2:0:0:0:
242,339,54386,2,0,L|336:332,1,85,4|2,1:0|1:2,0:0:0:0:
431,324,54739,2,0,L|449:207,1,85,8|0,1:2|1:0,0:0:0:0:
166,341,55092,5,4,1:2:0:0:
60,319,55269,1,2,0:2:0:0:
182,279,55445,2,0,P|197:225|176:186,1,85,8|0,1:2|0:0,0:0:0:0:
127,176,55710,2,0,L|213:170,1,85,2|0,0:2|0:0,0:0:0:0:
254,168,55975,1,2,0:2:0:0:
446,157,56151,2,0,P|452:107|421:83,1,85,8|2,1:2|1:2,0:0:0:0:
383,79,56416,1,2,2:2:0:0:
342,60,56504,6,0,L|437:56,2,85,4|2|8,1:0|2:0|1:2,0:0:0:0:
255,66,57033,1,2,1:2:0:0:
447,172,57210,2,0,L|458:261,1,85,4|2,1:0|2:0,0:0:0:0:
377,321,57563,2,0,L|484:327,1,85,8|0,1:2|0:0,0:0:0:0:
249,364,57916,6,0,P|135:345|112:277,1,170,4|8,0:0|1:2,0:0:0:0:
232,238,58445,1,2,2:0:0:0:
429,165,58622,2,0,P|466:221|391:271,1,170,4|8,0:0|1:2,0:0:0:0:
307,256,59151,1,2,2:2:0:0:
109,264,59328,5,8,1:2:0:0:
67,255,59416,1,0,2:0:0:0:
35,228,59504,1,2,1:3:0:0:
20,189,59592,1,0,2:0:0:0:
25,147,59681,1,8,1:2:0:0:
49,113,59769,1,2,1:3:0:0:
87,95,59857,1,4,1:0:0:0:
381,87,60033,5,4,2:0:0:0:
256,192,60386,12,0,61269,0:0:0:0:
98,118,61622,5,0,0:0:0:0:
94,75,61710,1,0,0:0:0:0:
91,33,61798,1,2,0:0:0:0:
408,31,62151,6,0,P|460:130|412:147,1,170,0|0,1:0|1:0,0:0:0:0:
201,273,62857,2,0,L|339:269,2,127.5,0|2|2,1:0|0:0|0:0,0:0:0:0:
96,289,63563,6,0,L|87:195,1,85,0|2,1:0|0:0,0:0:0:0:
184,194,63916,1,0,1:0:0:0:
179,151,64004,1,0,0:0:0:0:
175,109,64092,1,2,0:0:0:0:
71,96,64269,1,0,1:0:0:0:
174,58,64622,1,2,0:3:0:0:
131,54,64710,1,0,0:0:0:0:
89,51,64798,1,8,0:0:0:0:
369,38,64975,6,0,P|402:94|358:143,1,127.5,4|0,0:0|0:0,0:0:0:0:
329,170,65328,2,0,L|244:172,1,85,8|2,1:1|2:0,0:0:0:0:
120,272,65681,2,0,L|304:266,1,170,4|8,1:0|1:1,0:0:0:0:
205,209,66210,1,2,0:0:0:0:
394,239,66386,6,0,L|404:337,1,85,4|0,1:0|0:0,0:0:0:0:
293,284,66739,2,0,L|283:382,1,85,8|0,1:0|0:0,0:0:0:0:
400,363,67092,2,0,P|441:312|394:250,1,127.5,4|0,1:0|0:0,0:0:0:0:
381,230,67445,2,0,L|278:238,1,85,8|2,1:0|0:0,0:0:0:0:
106,259,67798,6,0,P|81:217|131:165,1,127.5,4|0,1:0|0:0,0:0:0:0:
171,152,68151,2,0,L|154:36,1,85,8|2,1:0|0:0,0:0:0:0:
54,49,68504,2,0,L|249:36,1,170,4|8,1:0|1:1,0:0:0:0:
330,29,69033,1,2,0:0:0:0:
139,136,69210,5,4,1:0:0:0:
131,219,69386,1,2,0:0:0:0:
245,229,69563,1,8,1:0:0:0:
237,312,69739,1,2,0:0:0:0:
52,334,69916,1,4,1:0:0:0:
158,281,70269,2,0,L|58:274,1,85,8|2,1:0|0:0,0:0:0:0:
321,152,70622,6,0,P|379:192|340:243,1,127.5,4|0,1:0|0:0,0:0:0:0:
323,270,70975,2,0,L|224:262,1,85,8|0,1:0|0:0,0:0:0:0:
138,190,71328,2,0,L|324:175,1,170,4|8,1:0|1:1,0:0:0:0:
394,168,71857,1,2,0:0:0:0:
206,265,72033,6,0,L|193:163,1,85,4|2,1:0|0:0,0:0:0:0:
296,165,72386,1,8,1:0:0:0:
397,144,72563,1,2,0:0:0:0:
288,109,72739,2,0,P|259:154|364:212,1,170,4|8,1:0|1:0,0:0:0:0:
435,216,73269,1,2,0:0:0:0:
247,355,73445,6,0,L|92:343,1,127.5,4|0,1:0|0:0,0:0:0:0:
171,305,73798,2,0,P|185:262|164:220,1,85,8|2,1:0|0:0,0:0:0:0:
74,136,74151,2,0,L|218:134,1,127.5,4|0,1:0|0:0,0:0:0:0:
261,131,74504,2,0,L|261:31,1,85,8|0,1:0|0:0,0:0:0:0:
140,27,74857,6,0,L|43:22,3,85,4|4|4|4,1:0|1:0|1:0|1:0,0:0:0:0:
369,61,75563,1,4,1:0:0:0:
474,63,75739,2,0,L|489:115,2,42.5,8|0|8,0:0|0:0|0:0,0:0:0:0:
113,254,76269,6,0,P|189:244|284:232,1,170,4|8,1:2|0:0,0:0:0:0:
445,181,76975,2,0,L|296:165,1,127.5,8|0,2:2|0:0,0:0:0:0:
276,163,77328,2,0,P|265:121|296:90,1,85,8|2,0:0|0:0,0:0:0:0:
481,34,77681,2,0,L|287:40,1,170,8|8,2:0|2:2,0:0:0:0:
151,181,78386,2,0,P|127:243|176:276,1,127.5,8|0,2:0|0:0,0:0:0:0:
209,287,78739,2,0,L|313:281,1,85,8|0,2:0|0:0,0:0:0:0:
102,355,79092,6,0,L|83:173,1,170,8|8,2:0|0:0,0:0:0:0:
257,94,79798,2,0,P|286:144|232:185,1,127.5,8|0,0:0|0:0,0:0:0:0:
182,198,80151,2,0,L|164:82,1,85,8|0,0:0|0:0,0:0:0:0:
358,37,80504,2,0,L|169:29,1,170,8|8,0:0|0:0,0:0:0:0:
375,101,81210,2,0,P|404:130|352:208,1,127.5,8|0,0:0|0:0,0:0:0:0:
315,223,81563,2,0,L|429:233,1,85,8|0,0:0|2:0,0:0:0:0:
123,329,81916,5,8,0:0:0:0:
24,302,82092,2,0,L|13:192,1,85,8|8,0:0|0:0,0:0:0:0:
109,173,82445,1,8,0:0:0:0:
214,194,82622,1,8,0:0:0:0:
115,167,82798,2,0,L|104:57,1,85,8|8,0:0|0:0,0:0:0:0:
200,38,83151,1,8,0:0:0:0:
389,329,83328,5,8,0:0:0:0:
488,302,83504,2,0,L|496:217,1,85,8|8,0:0|0:0,0:0:0:0:
403,173,83857,1,8,0:0:0:0:
298,194,84033,1,8,0:0:0:0:
397,167,84210,2,0,L|408:57,1,85,8|8,0:0|0:0,0:0:0:0:
312,38,84563,1,8,0:0:0:0:
53,289,84739,6,0,L|45:221,2,42.5,12|8|8,0:2|0:0|0:0,0:0:0:0:
150,304,85092,1,8,0:0:0:0:
53,289,85268,1,8,0:0:0:0:
243,165,85445,6,0,L|251:97,2,42.5,12|8|8,0:2|0:0|0:0,0:0:0:0:
146,180,85797,1,8,0:0:0:0:
243,165,85975,1,8,0:0:0:0:
54,347,86151,5,12,0:2:0:0:
24,317,86239,1,8,0:0:0:0:
20,275,86328,1,8,0:0:0:0:
42,240,86416,1,8,0:0:0:0:
81,226,86504,1,8,0:0:0:0:
123,219,86592,1,8,0:0:0:0:
165,212,86681,1,8,0:0:0:0:
469,197,86857,6,0,L|476:103,1,85,0|2,1:0|0:0,0:0:0:0:
424,106,87122,1,0,0:0:0:0:
373,229,87210,1,8,0:0:0:0:
376,186,87298,1,0,0:0:0:0:
379,144,87386,1,8,0:0:0:0:
112,107,87563,6,0,P|77:165|149:194,1,127.5,4|0,0:2|2:0,0:0:0:0:
165,206,87916,2,0,L|258:198,1,85,8|0,1:2|2:0,0:0:0:0:
441,185,88269,1,4,1:1:0:0:
339,116,88533,1,0,1:0:0:0:
435,48,88798,1,2,1:2:0:0:
246,130,88975,6,0,L|139:130,1,85,4|0,1:1|2:0,0:0:0:0:
60,210,89328,2,0,P|44:260|67:281,1,85,8|0,1:2|2:0,0:0:0:0:
234,296,89681,1,4,1:0:0:0:
158,153,90033,1,8,1:2:0:0:
56,152,90210,1,2,2:0:0:0:
263,82,90386,6,0,P|342:96|352:140,1,127.5,4|0,1:1|2:0,0:0:0:0:
352,132,90739,2,0,L|251:148,1,85,8|0,1:2|2:0,0:0:0:0:
71,185,91092,1,4,1:1:0:0:
173,116,91357,1,0,1:1:0:0:
77,48,91622,1,2,1:2:0:0:
280,47,91798,6,0,L|371:55,1,85,4|2,1:0|2:0,0:0:0:0:
459,140,92151,2,0,L|368:148,1,85,8|2,1:2|2:0,0:0:0:0:
184,181,92504,1,0,0:0:0:0:
79,227,92681,1,8,0:2:0:0:
43,205,92769,1,0,0:2:0:0:
30,166,92857,1,8,0:2:0:0:
46,128,92945,1,0,2:2:0:0:
83,109,93033,1,8,0:2:0:0:
342,205,93210,6,0,P|387:157|352:106,1,127.5,4|0,1:2|2:0,0:0:0:0:
284,100,93563,2,0,L|271:15,1,85,8|0,1:2|2:0,0:0:0:0:
471,187,93916,1,4,1:0:0:0:
369,118,94181,1,0,1:0:0:0:
469,92,94445,2,0,L|419:93,1,42.5,2|0,2:0|2:0,0:0:0:0:
361,97,94622,6,0,L|458:91,2,85,4|2|8,1:0|2:0|1:2,0:0:0:0:
186,122,95151,1,2,2:0:0:0:
84,163,95328,2,0,P|67:142|117:80,1,85,4|0,1:0|2:0,0:0:0:0:
212,38,95681,2,0,L|90:40,1,85,8|2,1:2|2:0,0:0:0:0:
289,237,96033,6,0,L|482:219,1,170,4|8,1:0|1:2,0:0:0:0:
470,121,96563,1,2,2:0:0:0:
290,135,96739,2,0,L|151:114,1,127.5,4|0,1:0|2:0,0:0:0:0:
216,108,97092,2,0,P|222:154|193:183,1,85,8|2,1:2|2:0,0:0:0:0:
16,251,97445,5,4,1:0:0:0:
124,266,97622,1,0,1:0:0:0:
25,292,97798,2,0,L|8:220,2,42.5,8|0|0,1:2|1:0|1:0,0:0:0:0:
308,355,98151,1,4,2:2:0:0:
487,292,98504,2,0,L|504:220,2,42.5,8|0|0,1:2|1:0|1:0,0:0:0:0:
204,355,98857,6,0,P|187:290|238:255,1,127.5,4|0,1:2|2:0,0:0:0:0:
286,224,99210,2,0,L|268:135,1,85,8|0,1:2|2:0,0:0:0:0:
85,99,99563,1,4,1:0:0:0:
189,182,99828,1,0,1:0:0:0:
102,296,100092,1,2,1:2:0:0:
304,351,100269,6,0,L|399:346,1,85,4|0,1:0|2:0,0:0:0:0:
286,321,100622,2,0,L|284:216,1,85,8|2,1:2|2:0,0:0:0:0:
480,129,100975,2,0,L|295:118,1,170,4|8,1:0|1:2,0:0:0:0:
391,69,101504,1,2,2:0:0:0:
201,193,101681,6,0,P|191:145|249:98,1,127.5,4|0,1:0|2:0,0:0:0:0:
304,73,102033,2,0,L|209:59,1,85,8|0,1:2|2:0,0:0:0:0:
415,115,102386,1,4,1:0:0:0:
311,198,102651,1,0,1:0:0:0:
398,312,102916,1,2,1:2:0:0:
213,347,103092,6,0,L|205:240,1,85,4|2,1:0|2:0,0:0:0:0:
308,180,103445,1,8,1:2:0:0:
213,347,103622,1,2,2:0:0:0:
25,119,103798,1,4,1:0:0:0:
124,110,103975,1,8,0:2:0:0:
146,145,104063,1,0,0:2:0:0:
137,185,104151,1,8,1:2:0:0:
95,189,104239,1,0,2:2:0:0:
53,192,104328,1,8,0:2:0:0:
315,307,104504,6,0,P|356:268|331:205,1,127.5,4|0,2:0|2:0,0:0:0:0:
271,191,104857,2,0,L|251:100,1,85,8|0,1:2|2:0,0:0:0:0:
443,103,105210,1,4,1:0:0:0:
344,187,105475,1,0,1:0:0:0:
453,173,105739,1,2,1:2:0:0:
249,307,105916,6,0,L|141:286,1,85,4|0,1:0|2:0,0:0:0:0:
53,241,106269,2,0,L|161:220,1,85,8|2,1:2|2:0,0:0:0:0:
249,203,106622,1,4,1:0:0:0:
144,180,106798,2,0,L|130:97,1,85,2|8,2:0|1:2,0:0:0:0:
247,69,107151,1,2,2:0:0:0:
437,61,107328,5,4,1:0:0:0:
334,172,107504,2,0,L|320:89,1,85,2|8,2:0|1:2,0:0:0:0:
437,61,107857,1,2,2:0:0:0:
246,246,108033,5,4,1:0:0:0:
143,357,108210,2,0,L|129:274,1,85,2|8,2:0|1:2,0:0:0:0:
246,246,108563,1,2,2:0:0:0:
420,226,108739,6,0,L|427:129,1,85,4|8,1:0|1:2,0:0:0:0:
228,121,109092,1,8,0:2:0:0:
224,78,109181,1,8,0:2:0:0:
221,36,109269,1,8,0:2:0:0:
480,36,109445,1,4,2:0:0:0:
256,192,109621,12,2,111915,2:3:0:0:
347,346,112268,6,0,L|321:243,1,85,4|0,0:0|0:0,0:0:0:0:
233,256,112621,2,0,L|207:153,1,85,4|0,0:0|0:0,0:0:0:0:
377,177,112974,2,0,L|320:87,1,85,4|0,0:0|0:0,0:0:0:0:
236,113,113327,2,0,L|179:23,1,85,4|0,0:0|0:0,0:0:0:0:
357,247,113680,2,0,L|284:169,1,85,4|0,0:0|0:0,0:0:0:0:
197,213,114033,2,0,L|125:135,1,85,4|0,0:0|0:0,0:0:0:0:
318,86,114386,5,4,0:0:0:0:
318,86,115092,5,4,1:0:0:0:
418,91,115268,2,0,L|441:-3,2,85,0|0|0,1:0|1:0|1:0,0:0:0:0:
224,322,115797,1,4,1:0:0:0:
110,326,115974,2,0,L|87:232,2,85,0|0|0,1:0|1:0|1:0,0:0:0:0:
315,208,116503,6,0,L|338:114,1,85,4|0,1:2|1:0,0:0:0:0:
156,136,116856,2,0,L|133:42,1,85,4|0,1:2|1:0,0:0:0:0:
303,40,117209,2,0,L|121:42,1,170,4|0,1:2|0:0,0:0:0:0:
46,136,117915,6,0,L|37:51,1,85,4|0,1:0|1:0,0:0:0:0:
135,128,118268,1,0,1:0:0:0:
36,219,118445,1,0,1:0:0:0:
227,262,118621,2,0,L|235:177,1,85,4|0,1:0|1:0,0:0:0:0:
138,254,118974,1,0,1:0:0:0:
237,345,119150,1,0,1:0:0:0:
422,261,119327,6,0,L|430:176,1,85,4|0,1:2|1:0,0:0:0:0:
238,147,119680,2,0,L|229:62,1,85,4|0,1:2|1:0,0:0:0:0:
328,29,120033,1,4,1:2:0:0:
155,209,120209,2,0,P|112:158|170:67,1,170
453,263,120739,6,0,L|465:193,6,42.5,4|0|0|0|0|0|0,0:2|0:0|0:0|0:0|0:0|0:0|0:0,0:0:0:0:
285,183,121445,6,0,L|297:113,6,42.5,4|0|0|0|0|0|0,0:2|0:0|0:0|0:0|0:0|0:0|0:0,0:0:0:0:
130,243,122150,5,4,0:2:0:0:
88,245,122238,1,0,0:0:0:0:
53,222,122326,1,0,0:0:0:0:
40,182,122414,1,0,0:0:0:0:
54,143,122502,1,4,0:2:0:0:
89,120,122591,1,0,0:0:0:0:
131,124,122679,1,0,0:0:0:0:
241,176,122856,5,4,0:2:0:0:
46,315,123033,1,0,0:0:0:0:
40,272,123121,1,0,0:0:0:0:
34,230,123209,1,0,0:0:0:0:
113,189,123386,1,0,0:0:0:0:
311,350,123562,5,4,0:2:0:0:
357,347,123650,1,0,0:0:0:0:
399,328,123739,1,0,0:0:0:0:
430,294,123827,1,0,0:0:0:0:
446,250,123915,1,0,0:0:0:0:
444,204,124003,1,0,0:0:0:0:
425,161,124092,1,0,0:0:0:0:
122,130,124268,5,4,0:2:0:0:
87,161,124356,1,0,0:0:0:0:
68,204,124444,1,0,0:0:0:0:
66,250,124533,1,0,0:0:0:0:
82,294,124621,1,0,0:0:0:0:
113,328,124709,1,0,0:0:0:0:
155,347,124797,1,0,0:0:0:0:
201,350,124886,1,0,0:0:0:0:
463,357,126386,5,2,2:0:0:0:
49,357,126739,2,0,L|44:258,1,85,4|0,0:2|2:0,0:0:0:0:
237,59,127092,1,4,1:0:0:0:
124,162,127356,1,0,1:2:0:0:
236,266,127621,1,2,1:2:0:0:
424,285,127797,6,0,L|431:185,1,85,4|2,1:0|2:0,0:0:0:0:
344,202,128150,2,0,L|433:200,1,85,8|2,1:2|2:0,0:0:0:0:
275,239,128503,2,0,L|76:249,1,170,4|8,1:0|1:2,0:0:0:0:
211,167,129033,1,2,2:0:0:0:
396,133,129209,6,0,P|433:179|365:221,1,127.5,4|0,1:0|2:0,0:0:0:0:
340,230,129562,2,0,L|245:228,1,85,8|0,1:2|2:0,0:0:0:0:
61,81,129915,1,4,1:0:0:0:
174,184,130180,1,0,1:0:0:0:
62,288,130444,1,2,1:2:0:0:
245,349,130621,6,0,L|261:239,1,85,4|2,0:0|2:0,0:0:0:0:
134,250,130974,2,0,L|150:140,1,85,8|2,1:2|2:0,0:0:0:0:
347,159,131327,1,4,1:0:0:0:
374,127,131415,1,0,0:0:0:0:
375,85,131503,1,8,1:2:0:0:
351,52,131592,1,0,0:0:0:0:
311,40,131680,1,8,1:2:0:0:
353,35,131768,1,0,0:0:0:0:
395,31,131856,1,0,1:0:0:0:
128,307,132033,6,0,P|85:268|138:201,1,127.5,4|0,1:2|2:0,0:0:0:0:
162,163,132386,2,0,L|62:152,1,85,8|0,1:2|2:0,0:0:0:0:
271,54,132739,2,0,L|412:70,2,127.5,4|0|2,1:0|1:0|1:2,0:0:0:0:
82,353,133445,6,0,L|69:237,1,85,4|0,1:0|2:0,0:0:0:0:
174,159,133797,2,0,L|288:148,1,85,8|2,1:2|2:0,0:0:0:0:
150,107,134150,2,0,P|114:161|181:206,1,127.5,2|0,1:0|2:0,0:0:0:0:
201,219,134503,2,0,L|309:214,1,85,10|0,1:0|2:0,0:0:0:0:
489,169,134856,6,0,L|314:177,1,170,6|8,1:0|1:2,0:0:0:0:
416,137,135386,1,2,2:0:0:0:
224,67,135562,2,0,P|169:120|212:188,1,170,4|8,1:0|1:2,0:0:0:0:
314,79,136092,1,2,2:0:0:0:
113,70,136268,5,8,0:2:0:0:
72,82,136356,1,8,0:2:0:0:
44,112,136444,1,8,0:2:0:0:
34,153,136533,1,8,0:2:0:0:
46,194,136621,1,8,0:2:0:0:
76,223,136709,1,8,0:2:0:0:
117,233,136797,1,8,0:2:0:0:
385,223,136974,5,8,0:2:0:0:
482,169,137327,2,0,L|369:167,1,85,2|0,2:0|2:0,0:0:0:0:
388,95,137680,2,0,L|501:93,1,85,2|0,2:0|2:0,0:0:0:0:
207,104,138033,5,4,1:2:0:0:
100,168,138209,1,0,2:0:0:0:
48,168,138297,2,0,P|38:123|83:71,1,85,0|0,1:0|1:0,0:0:0:0:
96,85,138562,1,0,0:0:0:0:
288,34,138739,2,0,L|193:27,1,85,8|0,0:2|0:0,0:0:0:0:
240,77,139003,1,0,0:0:0:0:
304,98,139092,6,0,P|319:141|294:172,1,85,0|2,0:0|2:0,0:0:0:0:
177,257,139444,2,0,L|202:344,1,85,8|2,0:2|2:0,0:0:0:0:
401,354,139797,1,0,0:0:0:0:
427,276,139974,1,2,2:0:0:0:
386,204,140150,1,8,1:2:0:0:
305,189,140327,1,0,1:0:0:0:
112,165,140503,6,0,L|103:78,1,85,4|2,0:0|2:0,0:0:0:0:
208,113,140856,1,8,1:2:0:0:
98,232,141033,1,2,2:0:0:0:
55,232,141121,1,0,2:0:0:0:
98,232,141209,1,4,0:1:0:0:
296,234,141386,1,2,1:2:0:0:
402,230,141562,2,0,L|408:127,1,85,8|0,0:2|2:2,0:0:0:0:
214,54,141915,6,0,L|361:56,1,127.5,4|0,1:0|2:0,0:0:0:0:
404,92,142268,1,8,1:2:0:0:
419,129,142356,1,0,2:0:0:0:
400,165,142444,1,2,2:0:0:0:
209,323,142621,2,0,L|193:222,1,85,4|8,1:0|2:0,0:0:0:0:
319,239,142974,1,8,1:2:0:0:
332,155,143150,1,8,1:2:0:0:
73,114,143327,6,0,P|56:170|75:189,1,85,4|2,1:2|2:0,0:0:0:0:
160,232,143680,2,0,L|60:251,1,85,8|0,1:2|1:0,0:0:0:0:
131,315,143944,2,0,L|231:334,1,85,2|0,1:2|0:0,0:0:0:0:
222,289,144209,1,2,1:2:0:0:
38,270,144386,2,0,L|29:172,1,85,8|2,1:2|1:2,0:0:0:0:
80,166,144650,1,2,2:0:0:0:
129,148,144739,6,0,L|32:139,1,85,4|2,1:0|2:0,0:0:0:0:
143,59,145092,2,0,L|240:50,1,85,8|2,1:2|2:0,0:0:0:0:
418,52,145444,1,2,1:1:0:0:
471,114,145621,1,0,2:0:0:0:
455,194,145797,1,10,1:1:0:0:
381,229,145974,1,2,2:0:0:0:
187,323,146150,6,0,P|131:259|184:207,1,170,6|8,1:1|1:2,0:0:0:0:
281,199,146680,1,2,2:0:0:0:
87,292,146856,2,0,L|60:90,1,170,4|8,1:0|1:2,0:0:0:0:
186,104,147386,1,2,2:0:0:0:
381,104,147562,5,8,1:2:0:0:
420,118,147650,1,0,0:0:0:0:
447,150,147739,1,0,3:0:0:0:
454,191,147827,1,0,0:0:0:0:
440,231,147915,1,8,0:2:0:0:
408,258,148003,1,0,2:0:0:0:
367,266,148092,1,8,2:0:0:0:
58,272,148268,5,4,1:2:0:0:
256,192,148621,12,0,149503,2:0:0:0:
124,182,149856,6,0,L|114:112,1,42.5,8|0,0:2|3:0,0:0:0:0:
171,90,150033,2,0,L|77:99,1,85,0|0,1:0|1:0,0:0:0:0:
336,313,150386,5,4,2:0:0:0:
439,284,150562,2,0,L|456:160,1,85,0|8,2:0|1:2,0:0:0:0:
256,223,150915,1,2,2:0:0:0:
359,194,151092,2,0,L|376:70,1,85,4|2,1:0|2:0,0:0:0:0:
176,235,151444,5,8,1:2:0:0:
279,206,151621,2,0,L|296:82,1,85,0|4,2:0|1:0,0:0:0:0:
96,145,151974,1,2,2:0:0:0:
199,116,152150,2,0,L|216:-8,1,85,8|0,1:2|2:0,0:0:0:0:
114,48,152503,1,4,1:0:0:0:
200,58,152680,1,2,2:2:0:0:
285,70,152856,1,8,1:2:0:0:
370,82,153033,1,2,2:2:0:0:
176,313,153209,5,4,1:1:0:0:
73,284,153386,2,0,L|56:160,1,85,0|8,2:0|1:2,0:0:0:0:
256,223,153739,1,0,2:0:0:0:
153,194,153915,2,0,L|136:70,1,85,4|0,0:0|2:0,0:0:0:0:
336,235,154268,5,8,1:2:0:0:
233,206,154444,2,0,L|216:82,1,85,0|4,2:0|0:0,0:0:0:0:
416,145,154797,1,0,2:0:0:0:
313,116,154974,2,0,L|296:-8,1,85,8|0,1:2|2:0,0:0:0:0:
423,41,155327,5,4,1:0:0:0:
454,67,155415,1,0,0:0:0:0:
460,109,155503,1,0,1:0:0:0:
437,143,155592,1,0,1:0:0:0:
395,140,155680,1,8,0:2:0:0:
437,143,155768,1,0,0:0:0:0:
479,146,155856,1,8,0:2:0:0:
185,335,156033,5,4,2:0:0:0:
82,304,156209,2,0,L|91:193,1,85,0|8,2:0|1:2,0:0:0:0:
280,215,156562,1,2,2:0:0:0:
177,184,156739,2,0,L|186:73,1,85,4|2,1:0|2:2,0:0:0:0:
376,276,157092,5,8,1:2:0:0:
273,245,157268,2,0,L|282:134,1,85,2|4,2:0|1:1,0:0:0:0:
471,156,157621,1,0,2:2:0:0:
368,125,157797,2,0,L|377:14,1,85,8|2,1:2|2:2,0:0:0:0:
440,74,158150,5,4,1:0:0:0:
351,82,158327,1,2,2:0:0:0:
261,111,158503,1,8,1:2:0:0:
172,119,158680,1,2,2:0:0:0:
435,314,158856,6,0,L|441:209,1,85,4|0,1:0|2:0,0:0:0:0:
336,215,159209,1,8,1:2:0:0:
152,281,159386,2,0,L|146:176,1,85,2|4,2:0|1:0,0:0:0:0:
251,182,159739,1,2,2:2:0:0:
437,130,159915,2,0,L|322:119,1,85,8|2,1:2|2:0,0:0:0:0:
160,105,160268,6,0,P|118:165|178:227,1,170,4|8,1:0|1:2,0:0:0:0:
281,263,160797,1,2,2:0:0:0:
168,302,160974,1,4,0:0:0:0:
447,362,161150,1,4,0:0:0:0:
461,322,161239,1,0,2:0:0:0:
452,281,161327,1,8,0:2:0:0:
422,251,161415,1,0,1:0:0:0:
382,241,161503,1,8,0:2:0:0:
125,321,161680,5,4,1:2:0:0:
19,349,161856,1,0,2:0:0:0:
47,242,162033,1,8,1:2:0:0:
237,187,162209,1,2,2:2:0:0:
138,232,162386,1,4,1:0:0:0:
147,122,162562,1,2,2:2:0:0:
338,112,162739,5,8,1:2:0:0:
248,175,162915,1,2,2:0:0:0:
237,65,163092,1,4,1:1:0:0:
427,101,163268,1,2,2:2:0:0:
349,177,163444,1,8,1:2:0:0:
320,70,163621,1,2,2:2:0:0:
421,54,163797,6,0,L|301:60,1,85,4|0,1:0|2:0,0:0:0:0:
144,221,164150,2,0,P|124:151|156:114,1,85,8|2,1:2|2:0,0:0:0:0:
387,321,164503,5,4,1:1:0:0:
493,349,164680,1,0,2:0:0:0:
465,242,164856,1,8,1:2:0:0:
275,187,165033,1,2,2:2:0:0:
374,232,165209,1,4,1:0:0:0:
365,122,165386,1,2,2:2:0:0:
174,112,165562,5,8,1:2:0:0:
264,175,165739,1,2,2:0:0:0:
275,65,165915,1,4,1:1:0:0:
85,101,166092,1,2,2:2:0:0:
163,177,166268,1,8,1:2:0:0:
192,70,166444,1,2,2:2:0:0:
74,130,166621,5,4,1:0:0:0:
173,141,166797,1,2,2:0:0:0:
191,103,166886,1,0,0:0:0:0:
187,61,166974,1,8,0:2:0:0:
162,27,167062,1,0,2:2:0:0:
123,12,167150,1,8,0:2:0:0:
381,217,167327,5,4,2:0:0:0:
476,273,167503,1,0,2:0:0:0:
476,162,167680,1,8,1:2:0:0:
287,144,167856,1,2,2:0:0:0:
391,182,168033,1,4,1:0:0:0:
372,73,168209,1,2,2:2:0:0:
182,168,168386,5,8,1:2:0:0:
291,188,168562,1,2,2:0:0:0:
253,84,168739,1,4,1:1:0:0:
64,238,168915,1,0,2:2:0:0:
174,239,169092,1,8,1:2:0:0:
119,143,169268,1,2,2:2:0:0:
34,91,169444,6,0,L|158:83,1,85,4|2,1:0|2:0,0:0:0:0:
308,240,169797,2,0,L|432:232,1,85,8|2,1:2|2:0,0:0:0:0:
131,217,170150,5,4,1:0:0:0:
36,273,170327,1,0,2:0:0:0:
36,162,170503,1,8,1:2:0:0:
225,144,170680,1,2,2:0:0:0:
121,182,170856,1,4,1:0:0:0:
140,73,171033,1,2,2:2:0:0:
321,56,171209,1,8,1:2:0:0:
222,41,171386,1,2,2:0:0:0:
42,165,171562,6,0,L|58:275,1,85,4|0,1:0|2:0,0:0:0:0:
149,296,171915,2,0,L|25:307,1,85,8|2,1:2|2:2,0:0:0:0:
255,344,172268,1,4,1:0:0:0:
287,318,172356,1,0,2:0:0:0:
296,277,172444,1,0,2:0:0:0:
276,240,172533,1,0,2:0:0:0:
216,235,172621,2,0,L|319:188,1,85,8|0,1:2|2:0,0:0:0:0:
428,78,172974,5,8,1:2:0:0:
258,130,173150,1,0,2:0:0:0:
252,176,173239,1,0,0:0:0:0:
247,222,173327,5,8,1:2:0:0:
75,251,173503,1,0,2:0:0:0:
69,297,173592,1,0,0:0:0:0:
64,343,173680,5,8,1:2:0:0:
356,354,173856,1,2,2:0:0:0:
402,348,173944,1,2,2:0:0:0:
448,343,174033,1,10,2:0:0:0:
