osu file format v14

[General]
AudioFilename: audio.mp3
AudioLeadIn: 0
PreviewTime: 149847
Countdown: 0
SampleSet: Normal
StackLeniency: 0.7
Mode: 1
LetterboxInBreaks: 0
WidescreenStoryboard: 0

[Editor]
DistanceSpacing: 1
BeatDivisor: 4
GridSize: 8
TimelineZoom: 1.599998

[Metadata]
Title:More One Night (Assertive Hardcore Bootleg) [long ver.]
TitleUnicode:More One Night (Assertive Hardcore Bootleg) [long ver.]
Artist:Chito (CV: Minase Inori), Yuuri (CV: Kubo Yurika)
ArtistUnicode:チト (CV:水瀬いのり)、ユーリ (CV:久保ユリカ)
Creator:Rhytoly
Version:Oni
Source:少女終末旅行
Tags:Blackener Blacken Roger ][ -GH- ][ shoujo shuumatsu ryokou girls last tour ending remix
BeatmapID:1959634
BeatmapSetID:938144

[Difficulty]
HPDrainRate:5.5
CircleSize:7
OverallDifficulty:5.5
ApproachRate:10
SliderMultiplier:1.4
SliderTickRate:1

[Events]
//Background and Video events
0,0,"best bg ever lol.png",0,30
//Break Periods
//Storyboard Layer 0 (Background)
//Storyboard Layer 1 (Fail)
//Storyboard Layer 2 (Pass)
//Storyboard Layer 3 (Foreground)
//Storyboard Sound Samples

[TimingPoints]
24,352.941176470588,4,1,0,100,1,0
2847,-100,4,1,0,60,0,0
9906,-100,4,1,0,80,0,0
32494,-100,4,1,0,90,0,0
38141,-100,4,1,0,100,0,1
48729,-100,4,1,0,100,0,0
49435,-100,4,1,0,100,0,1
60023,-100,4,1,0,100,0,0
64965,-100,4,1,0,80,0,0
81906,-100,4,1,0,90,0,0
87553,-100,4,1,0,100,0,1
98141,-100,4,1,0,100,0,0
98847,-100,4,1,0,100,0,1
109435,-100,4,1,0,100,0,0
111553,352.941176470588,4,1,0,100,1,8
112259,352.941176470588,4,1,0,100,1,0
115082,-100,4,1,0,100,0,1
117553,-100,4,1,0,100,0,0
117906,-100,4,1,0,100,0,1
120200,-100,4,1,0,100,0,0
120729,-100,4,1,0,100,0,1
123023,-100,4,1,0,100,0,0
123553,-100,4,1,0,100,0,1
124964,-100,4,1,0,40,0,0
126376,-100,4,1,0,100,0,0
126729,-100,4,1,0,100,0,1
136964,-100,4,1,0,100,0,0
138023,-100,4,1,0,100,0,1
148258,-100,4,1,0,100,0,0
150376,-100,4,1,0,100,0,1
161141,-100,4,1,0,100,0,0
161670,-100,4,1,0,100,0,1
174023,-100,4,1,0,100,0,0

[HitObjects]
51,181,24,5,4,0:0:0:0:
51,181,376,1,4,0:0:0:0:
51,181,729,1,4,0:0:0:0:
51,181,1082,1,4,0:0:0:0:
395,151,1435,1,12,0:0:0:0:
395,151,1788,1,12,0:0:0:0:
395,151,2141,1,12,0:0:0:0:
395,151,2494,1,12,0:0:0:0:
256,192,2847,12,0,3906,0:0:0:0:
257,167,4259,5,4,0:0:0:0:
391,182,4612,1,8,0:0:0:0:
396,160,4965,1,0,0:0:0:0:
396,160,5229,1,0,0:0:0:0:
152,130,5318,1,8,0:0:0:0:
396,160,5494,1,8,0:0:0:0:
396,160,5671,1,0,0:0:0:0:
182,118,6023,1,8,0:0:0:0:
425,250,6376,1,0,0:0:0:0:
417,236,6553,1,0,0:0:0:0:
417,236,6729,1,8,0:0:0:0:
417,236,7082,1,0,0:0:0:0:
354,133,7435,1,8,0:0:0:0:
297,115,7788,1,0,0:0:0:0:
194,66,8053,1,0,0:0:0:0:
194,66,8141,1,8,0:0:0:0:
194,66,8318,1,8,0:0:0:0:
194,66,8494,1,0,0:0:0:0:
351,135,8847,1,8,0:0:0:0:
351,135,9200,1,0,0:0:0:0:
351,135,9376,1,0,0:0:0:0:
351,135,9465,1,0,0:0:0:0:
335,135,9553,1,8,0:0:0:0:
273,162,9729,1,8,0:0:0:0:
269,108,9906,1,0,0:0:0:0:
181,124,10082,1,8,0:0:0:0:
181,124,10171,1,8,0:0:0:0:
181,124,10259,1,0,0:0:0:0:
181,124,10435,1,8,0:0:0:0:
181,124,10523,1,0,0:0:0:0:
181,124,10700,1,8,0:0:0:0:
181,124,10876,1,8,0:0:0:0:
91,136,11318,1,0,0:0:0:0:
150,101,11494,1,8,0:0:0:0:
150,101,11582,1,8,0:0:0:0:
150,101,11671,1,0,0:0:0:0:
150,101,11847,1,8,0:0:0:0:
150,101,11935,1,0,0:0:0:0:
150,101,12112,1,8,0:0:0:0:
150,101,12288,1,8,0:0:0:0:
398,196,12729,1,0,0:0:0:0:
243,103,12906,1,0,0:0:0:0:
307,152,12994,1,0,0:0:0:0:
243,103,13082,1,8,0:0:0:0:
243,103,13259,1,0,0:0:0:0:
243,103,13435,1,8,0:0:0:0:
243,103,13612,1,8,0:0:0:0:
338,143,13700,1,8,0:0:0:0:
243,103,13788,1,8,0:0:0:0:
32,142,13965,1,8,0:0:0:0:
128,133,14141,1,0,0:0:0:0:
128,133,14229,1,0,0:0:0:0:
128,133,14318,1,8,0:0:0:0:
128,133,14494,1,0,0:0:0:0:
128,133,14582,1,0,0:0:0:0:
128,133,14671,1,8,0:0:0:0:
128,133,14847,1,0,0:0:0:0:
128,133,14935,1,0,0:0:0:0:
128,133,15023,1,8,0:0:0:0:
128,133,15112,1,8,0:0:0:0:
128,133,15200,1,0,0:0:0:0:
232,117,15553,1,4,0:0:0:0:
143,139,15729,1,0,0:0:0:0:
143,139,15818,1,0,0:0:0:0:
143,139,15906,1,8,0:0:0:0:
143,139,16082,1,8,0:0:0:0:
143,139,16259,1,0,0:0:0:0:
186,140,16612,1,8,0:0:0:0:
241,132,16788,1,0,0:0:0:0:
241,132,16876,1,0,0:0:0:0:
293,51,16965,1,8,0:0:0:0:
293,51,17141,1,0,0:0:0:0:
313,160,17318,1,8,0:0:0:0:
313,160,17494,1,0,0:0:0:0:
319,183,17582,1,8,0:0:0:0:
323,196,17671,1,0,0:0:0:0:
271,130,18023,1,8,0:0:0:0:
272,120,18200,1,8,0:0:0:0:
272,120,18288,1,0,0:0:0:0:
271,130,18376,1,8,0:0:0:0:
271,130,18553,1,0,0:0:0:0:
382,218,18729,1,8,0:0:0:0:
382,218,18906,1,0,0:0:0:0:
382,218,18994,1,0,0:0:0:0:
382,218,19082,1,8,0:0:0:0:
208,132,19435,1,0,0:0:0:0:
208,132,19612,1,0,0:0:0:0:
251,55,19700,1,0,0:0:0:0:
202,134,19788,1,8,0:0:0:0:
148,152,19965,1,0,0:0:0:0:
292,149,20141,1,8,0:0:0:0:
292,149,20318,1,8,0:0:0:0:
292,149,20406,1,8,0:0:0:0:
292,149,20494,1,0,0:0:0:0:
330,178,20847,1,0,0:0:0:0:
330,178,21023,1,0,0:0:0:0:
330,178,21112,1,0,0:0:0:0:
330,178,21200,1,8,0:0:0:0:
330,178,21376,1,0,0:0:0:0:
330,178,21553,1,8,0:0:0:0:
330,178,21729,1,8,0:0:0:0:
330,178,21818,1,0,0:0:0:0:
330,178,21906,1,8,0:0:0:0:
220,100,22259,1,0,0:0:0:0:
220,100,22435,1,0,0:0:0:0:
220,100,22523,1,0,0:0:0:0:
223,100,22612,1,8,0:0:0:0:
223,100,22788,1,8,0:0:0:0:
223,100,22965,1,0,0:0:0:0:
223,100,23053,1,0,0:0:0:0:
223,100,23141,1,8,0:0:0:0:
223,100,23229,1,8,0:0:0:0:
223,100,23318,1,0,0:0:0:0:
194,137,23671,1,0,0:0:0:0:
249,121,23847,1,0,0:0:0:0:
249,121,23935,1,0,0:0:0:0:
249,121,24023,1,8,0:0:0:0:
249,121,24200,1,0,0:0:0:0:
314,146,24376,1,8,0:0:0:0:
314,146,24553,1,8,0:0:0:0:
314,146,24641,1,8,0:0:0:0:
314,146,24729,1,0,0:0:0:0:
280,126,24906,1,8,0:0:0:0:
280,126,24994,1,8,0:0:0:0:
280,126,25082,1,0,0:0:0:0:
280,126,25171,1,0,0:0:0:0:
280,126,25259,1,8,0:0:0:0:
280,126,25435,1,4,0:0:0:0:
280,126,25612,1,4,0:0:0:0:
280,126,25788,1,12,0:0:0:0:
280,126,25965,1,4,0:0:0:0:
280,126,26141,1,12,0:0:0:0:
262,153,26494,1,8,0:0:0:0:
236,127,26847,1,4,0:0:0:0:
228,108,27023,1,0,0:0:0:0:
278,104,27112,1,0,0:0:0:0:
278,104,27200,1,8,0:0:0:0:
394,182,27376,1,0,0:0:0:0:
274,107,27465,1,0,0:0:0:0:
352,119,27553,1,0,0:0:0:0:
352,119,27641,1,0,0:0:0:0:
352,119,27729,1,8,0:0:0:0:
299,119,27906,1,0,0:0:0:0:
290,91,28259,1,0,0:0:0:0:
229,74,28435,1,8,0:0:0:0:
229,74,28523,1,8,0:0:0:0:
229,74,28612,1,0,0:0:0:0:
229,74,28788,1,8,0:0:0:0:
229,74,28965,1,0,0:0:0:0:
229,74,29053,1,0,0:0:0:0:
346,195,29141,1,8,0:0:0:0:
241,107,29229,1,8,0:0:0:0:
335,171,29318,1,0,0:0:0:0:
288,131,29671,1,8,0:0:0:0:
218,122,29847,1,0,0:0:0:0:
218,122,29935,1,0,0:0:0:0:
218,122,30023,1,8,0:0:0:0:
218,122,30200,1,8,0:0:0:0:
261,84,30288,1,8,0:0:0:0:
251,81,30376,1,8,0:0:0:0:
198,14,30465,1,8,0:0:0:0:
218,122,30553,1,0,0:0:0:0:
218,122,30729,1,8,0:0:0:0:
99,149,31082,1,0,0:0:0:0:
376,47,31171,1,0,0:0:0:0:
365,140,31259,1,0,0:0:0:0:
365,140,31347,1,0,0:0:0:0:
365,140,31435,1,8,0:0:0:0:
222,165,31788,1,0,0:0:0:0:
246,150,32141,1,8,0:0:0:0:
298,114,32494,1,8,0:0:0:0:
298,114,32582,1,8,0:0:0:0:
298,114,32671,1,0,0:0:0:0:
298,114,32759,1,0,0:0:0:0:
298,114,32847,1,8,0:0:0:0:
348,167,33023,1,0,0:0:0:0:
205,73,33112,1,0,0:0:0:0:
205,73,33200,1,0,0:0:0:0:
205,73,33288,1,0,0:0:0:0:
205,73,33376,1,8,0:0:0:0:
205,73,33553,1,0,0:0:0:0:
145,127,33906,1,0,0:0:0:0:
313,130,34082,1,0,0:0:0:0:
313,130,34171,1,0,0:0:0:0:
313,130,34259,1,8,0:0:0:0:
313,130,34347,1,8,0:0:0:0:
313,130,34435,1,0,0:0:0:0:
313,130,34612,1,8,0:0:0:0:
313,130,34788,1,0,0:0:0:0:
313,130,34876,1,0,0:0:0:0:
207,68,34965,1,8,0:0:0:0:
313,130,35318,1,4,0:0:0:0:
330,151,35494,1,8,0:0:0:0:
330,151,35582,1,8,0:0:0:0:
330,151,35671,1,8,0:0:0:0:
330,151,35847,1,8,0:0:0:0:
330,147,36023,1,4,0:0:0:0:
331,141,36200,1,8,0:0:0:0:
331,141,36288,1,8,0:0:0:0:
331,141,36376,1,0,0:0:0:0:
331,141,36553,1,8,0:0:0:0:
331,141,36729,1,0,0:0:0:0:
331,141,36818,1,0,0:0:0:0:
331,141,36906,1,8,0:0:0:0:
331,141,36994,1,8,0:0:0:0:
331,141,37082,1,0,0:0:0:0:
331,141,37171,1,0,0:0:0:0:
331,141,37259,1,8,0:0:0:0:
331,141,37347,1,8,0:0:0:0:
331,141,37435,1,0,0:0:0:0:
376,202,37788,1,0,0:0:0:0:
376,202,37965,1,8,0:0:0:0:
376,202,38141,1,4,0:0:0:0:
95,132,38494,1,8,0:0:0:0:
169,135,38671,1,0,0:0:0:0:
187,133,38759,1,0,0:0:0:0:
187,133,38847,1,8,0:0:0:0:
187,133,39023,1,0,0:0:0:0:
187,133,39112,1,8,0:0:0:0:
187,133,39288,1,0,0:0:0:0:
187,133,39376,1,0,0:0:0:0:
187,133,39553,1,8,0:0:0:0:
251,116,39729,1,0,0:0:0:0:
253,107,39818,1,0,0:0:0:0:
253,107,39906,1,8,0:0:0:0:
253,107,39994,1,8,0:0:0:0:
253,107,40082,1,0,0:0:0:0:
253,107,40259,1,8,0:0:0:0:
191,60,40612,1,0,0:0:0:0:
243,71,40788,1,0,0:0:0:0:
243,71,40876,1,0,0:0:0:0:
243,71,40965,1,8,0:0:0:0:
243,71,41141,1,0,0:0:0:0:
243,71,41318,1,8,0:0:0:0:
176,153,41494,1,8,0:0:0:0:
243,71,41582,1,8,0:0:0:0:
236,116,41671,1,0,0:0:0:0:
70,143,41847,1,8,0:0:0:0:
70,143,41935,1,0,0:0:0:0:
86,116,42112,1,0,0:0:0:0:
86,116,42200,1,8,0:0:0:0:
86,116,42376,1,0,0:0:0:0:
86,116,42553,1,8,0:0:0:0:
86,116,42729,1,0,0:0:0:0:
86,116,42818,1,0,0:0:0:0:
86,116,42906,1,8,0:0:0:0:
86,116,43082,1,0,0:0:0:0:
281,103,43259,1,8,0:0:0:0:
281,103,43347,1,0,0:0:0:0:
281,103,43435,1,8,0:0:0:0:
281,103,43523,1,8,0:0:0:0:
281,103,43612,1,0,0:0:0:0:
281,103,43788,1,12,0:0:0:0:
142,90,44141,1,8,0:0:0:0:
279,133,44318,1,0,0:0:0:0:
279,133,44406,1,0,0:0:0:0:
279,133,44494,1,8,0:0:0:0:
279,133,44671,1,0,0:0:0:0:
279,133,44759,1,8,0:0:0:0:
279,133,44935,1,0,0:0:0:0:
279,133,45023,1,8,0:0:0:0:
279,133,45200,1,0,0:0:0:0:
218,164,45376,1,8,0:0:0:0:
230,167,45465,1,8,0:0:0:0:
230,167,45553,1,0,0:0:0:0:
230,167,45641,1,0,0:0:0:0:
230,167,45729,1,8,0:0:0:0:
230,167,45906,1,0,0:0:0:0:
230,167,46259,1,0,0:0:0:0:
261,134,46435,1,8,0:0:0:0:
261,134,46523,1,8,0:0:0:0:
261,134,46612,1,0,0:0:0:0:
153,154,46788,5,0,0:0:0:0:
197,145,46965,1,8,0:0:0:0:
197,145,47141,1,0,0:0:0:0:
197,145,47229,1,8,0:0:0:0:
197,145,47318,1,0,0:0:0:0:
191,140,47494,1,0,0:0:0:0:
191,139,47671,1,8,0:0:0:0:
191,139,47847,1,0,0:0:0:0:
191,139,47935,1,0,0:0:0:0:
191,139,48023,1,8,0:0:0:0:
148,125,48200,1,0,0:0:0:0:
148,125,48288,1,0,0:0:0:0:
148,125,48376,1,8,0:0:0:0:
148,125,48465,1,8,0:0:0:0:
148,125,48553,1,0,0:0:0:0:
148,125,48641,1,0,0:0:0:0:
148,125,48729,1,8,0:0:0:0:
303,189,49082,1,0,0:0:0:0:
291,171,49259,1,8,0:0:0:0:
277,150,49435,1,4,0:0:0:0:
279,109,49612,1,0,0:0:0:0:
183,131,49788,1,8,0:0:0:0:
169,136,49965,1,0,0:0:0:0:
173,137,50053,1,8,0:0:0:0:
189,117,50229,1,0,0:0:0:0:
189,117,50318,1,8,0:0:0:0:
189,117,50406,1,8,0:0:0:0:
189,117,50494,1,0,0:0:0:0:
88,165,50671,1,8,0:0:0:0:
181,10,50759,1,8,0:0:0:0:
146,83,50847,1,0,0:0:0:0:
260,154,51023,1,8,0:0:0:0:
275,153,51200,1,0,0:0:0:0:
275,153,51288,1,0,0:0:0:0:
275,153,51376,1,8,0:0:0:0:
341,122,51553,1,0,0:0:0:0:
329,194,51641,1,0,0:0:0:0:
264,115,51729,1,8,0:0:0:0:
329,194,51818,1,0,0:0:0:0:
341,122,51906,1,8,0:0:0:0:
341,122,52259,1,0,0:0:0:0:
196,169,52435,1,0,0:0:0:0:
271,164,52612,1,8,0:0:0:0:
306,167,52788,1,8,0:0:0:0:
386,199,52876,1,8,0:0:0:0:
386,199,52965,1,0,0:0:0:0:
296,169,53141,1,8,0:0:0:0:
300,168,53318,1,8,0:0:0:0:
271,87,53494,1,0,0:0:0:0:
315,190,53582,1,0,0:0:0:0:
271,87,53671,1,8,0:0:0:0:
315,190,53847,1,0,0:0:0:0:
315,190,53935,1,0,0:0:0:0:
165,118,54023,1,8,0:0:0:0:
315,190,54112,1,8,0:0:0:0:
315,190,54200,1,0,0:0:0:0:
315,190,54376,1,8,0:0:0:0:
284,127,54729,1,0,0:0:0:0:
284,127,54906,1,8,0:0:0:0:
344,171,55082,1,4,0:0:0:0:
298,147,55259,1,0,0:0:0:0:
298,147,55347,1,0,0:0:0:0:
298,147,55435,1,8,0:0:0:0:
137,84,55612,1,0,0:0:0:0:
137,84,55700,1,8,0:0:0:0:
67,140,55876,1,8,0:0:0:0:
71,140,55965,1,8,0:0:0:0:
71,140,56141,1,8,0:0:0:0:
186,111,56318,1,8,0:0:0:0:
186,111,56406,1,8,0:0:0:0:
186,111,56494,1,0,0:0:0:0:
166,112,56671,1,8,0:0:0:0:
186,111,56847,1,0,0:0:0:0:
186,111,56935,1,0,0:0:0:0:
186,111,57023,1,8,0:0:0:0:
186,111,57200,1,0,0:0:0:0:
192,116,57288,1,0,0:0:0:0:
111,116,57376,1,8,0:0:0:0:
146,132,57465,1,8,0:0:0:0:
191,110,57553,1,0,0:0:0:0:
220,136,57906,1,0,0:0:0:0:
263,76,58082,1,0,0:0:0:0:
263,76,58171,1,0,0:0:0:0:
263,76,58259,1,8,0:0:0:0:
263,76,58435,1,0,0:0:0:0:
263,76,58612,1,0,0:0:0:0:
205,125,58788,1,0,0:0:0:0:
208,125,58876,1,0,0:0:0:0:
205,125,58965,1,8,0:0:0:0:
205,125,59141,1,8,0:0:0:0:
205,125,59318,1,0,0:0:0:0:
205,125,59406,1,0,0:0:0:0:
205,125,59494,1,8,0:0:0:0:
205,125,59582,1,8,0:0:0:0:
205,125,59671,1,0,0:0:0:0:
205,125,59759,1,0,0:0:0:0:
208,125,59847,1,8,0:0:0:0:
205,125,59935,1,8,0:0:0:0:
205,125,60023,1,0,0:0:0:0:
281,160,60376,1,8,0:0:0:0:
281,160,60729,1,8,0:0:0:0:
281,160,61082,1,0,0:0:0:0:
281,160,61435,1,0,0:0:0:0:
281,160,61612,1,0,0:0:0:0:
281,160,61700,1,0,0:0:0:0:
281,160,61788,1,8,0:0:0:0:
263,136,62141,1,0,0:0:0:0:
221,100,62318,1,8,0:0:0:0:
221,100,62406,1,8,0:0:0:0:
339,206,62494,1,0,0:0:0:0:
221,100,62671,1,8,0:0:0:0:
429,279,62847,1,0,0:0:0:0:
192,125,63112,1,0,0:0:0:0:
192,125,63376,1,0,0:0:0:0:
78,146,63553,1,8,0:0:0:0:
320,117,63729,1,8,0:0:0:0:
320,117,63906,1,0,0:0:0:0:
320,117,63994,1,0,0:0:0:0:
320,117,64082,1,8,0:0:0:0:
320,117,64259,1,0,0:0:0:0:
331,150,64612,1,0,0:0:0:0:
331,150,64700,1,0,0:0:0:0:
331,150,64788,1,8,0:0:0:0:
331,150,64965,1,4,0:0:0:0:
323,119,65141,1,8,0:0:0:0:
230,152,65318,1,0,0:0:0:0:
252,151,65494,1,8,0:0:0:0:
252,151,65582,1,8,0:0:0:0:
252,151,65671,1,0,0:0:0:0:
204,106,66023,1,0,0:0:0:0:
204,106,66200,1,0,0:0:0:0:
282,70,66288,1,0,0:0:0:0:
204,106,66376,1,8,0:0:0:0:
282,70,66553,1,0,0:0:0:0:
282,70,66729,1,8,0:0:0:0:
282,70,66906,1,8,0:0:0:0:
282,70,66994,1,0,0:0:0:0:
282,70,67082,1,8,0:0:0:0:
216,100,67435,1,8,0:0:0:0:
216,100,67612,1,8,0:0:0:0:
216,100,67700,1,0,0:0:0:0:
216,100,67788,1,8,0:0:0:0:
216,100,67965,1,0,0:0:0:0:
183,62,68141,1,8,0:0:0:0:
366,190,68318,1,0,0:0:0:0:
366,190,68406,1,0,0:0:0:0:
366,190,68494,1,8,0:0:0:0:
128,145,68847,1,0,0:0:0:0:
170,126,69023,1,0,0:0:0:0:
170,126,69112,1,0,0:0:0:0:
170,126,69200,1,8,0:0:0:0:
445,191,69376,1,0,0:0:0:0:
445,191,69553,1,8,0:0:0:0:
448,202,69729,1,8,0:0:0:0:
448,202,69818,1,8,0:0:0:0:
448,202,69906,1,0,0:0:0:0:
177,110,70259,1,0,0:0:0:0:
177,110,70435,1,8,0:0:0:0:
177,110,70523,1,0,0:0:0:0:
177,110,70612,1,8,0:0:0:0:
179,99,70788,1,0,0:0:0:0:
179,99,70965,1,8,0:0:0:0:
179,99,71141,1,0,0:0:0:0:
179,99,71229,1,0,0:0:0:0:
179,99,71318,1,8,0:0:0:0:
144,125,71671,1,0,0:0:0:0:
243,117,71847,1,0,0:0:0:0:
243,117,71935,1,0,0:0:0:0:
243,117,72023,1,8,0:0:0:0:
114,105,72200,1,0,0:0:0:0:
161,58,72376,1,8,0:0:0:0:
279,85,72465,1,0,0:0:0:0:
279,85,72553,1,8,0:0:0:0:
279,85,72641,1,8,0:0:0:0:
279,85,72729,1,0,0:0:0:0:
253,86,73082,1,0,0:0:0:0:
253,86,73259,1,0,0:0:0:0:
253,86,73347,1,0,0:0:0:0:
253,86,73435,1,8,0:0:0:0:
155,126,73612,1,0,0:0:0:0:
155,126,73788,1,8,0:0:0:0:
151,129,73965,1,8,0:0:0:0:
151,129,74053,1,8,0:0:0:0:
146,129,74141,1,0,0:0:0:0:
238,133,74318,1,0,0:0:0:0:
238,133,74406,1,0,0:0:0:0:
238,133,74494,1,8,0:0:0:0:
238,133,74582,1,8,0:0:0:0:
238,133,74671,1,0,0:0:0:0:
238,133,74847,1,12,0:0:0:0:
336,111,75023,1,12,0:0:0:0:
336,111,75200,1,4,0:0:0:0:
336,111,75376,1,4,0:0:0:0:
245,133,75553,1,12,0:0:0:0:
166,99,75906,1,8,0:0:0:0:
236,127,76259,1,4,0:0:0:0:
228,108,76435,1,0,0:0:0:0:
278,104,76524,1,0,0:0:0:0:
278,104,76612,1,8,0:0:0:0:
394,182,76788,1,0,0:0:0:0:
274,107,76877,1,0,0:0:0:0:
352,119,76965,1,8,0:0:0:0:
352,119,77053,1,8,0:0:0:0:
352,119,77141,1,0,0:0:0:0:
299,119,77318,1,8,0:0:0:0:
290,91,77671,1,0,0:0:0:0:
229,74,77847,1,0,0:0:0:0:
229,74,77935,1,0,0:0:0:0:
229,74,78023,1,8,0:0:0:0:
229,74,78200,1,0,0:0:0:0:
229,74,78377,1,8,0:0:0:0:
229,74,78465,1,8,0:0:0:0:
346,195,78553,1,8,0:0:0:0:
241,107,78641,1,8,0:0:0:0:
335,171,78730,1,0,0:0:0:0:
288,131,79083,1,8,0:0:0:0:
218,122,79259,1,0,0:0:0:0:
218,122,79347,1,0,0:0:0:0:
218,122,79435,1,8,0:0:0:0:
218,122,79612,1,0,0:0:0:0:
261,84,79700,1,0,0:0:0:0:
251,81,79788,1,8,0:0:0:0:
198,14,79877,1,8,0:0:0:0:
218,122,79965,1,0,0:0:0:0:
218,122,80141,1,8,0:0:0:0:
99,149,80494,1,0,0:0:0:0:
376,47,80583,1,0,0:0:0:0:
365,140,80671,1,0,0:0:0:0:
365,140,80759,1,0,0:0:0:0:
365,140,80847,1,8,0:0:0:0:
222,165,81200,1,0,0:0:0:0:
381,220,81553,1,0,0:0:0:0:
298,114,81906,1,8,0:0:0:0:
298,114,81994,1,8,0:0:0:0:
298,114,82083,1,8,0:0:0:0:
298,114,82171,1,8,0:0:0:0:
298,114,82259,1,0,0:0:0:0:
348,167,82435,1,8,0:0:0:0:
205,73,82524,1,8,0:0:0:0:
205,73,82612,1,0,0:0:0:0:
205,73,82700,1,0,0:0:0:0:
205,73,82788,1,8,0:0:0:0:
205,73,82965,1,0,0:0:0:0:
145,127,83318,1,0,0:0:0:0:
313,130,83494,1,0,0:0:0:0:
313,130,83583,1,0,0:0:0:0:
313,130,83671,1,0,0:0:0:0:
313,130,83759,1,0,0:0:0:0:
313,130,83847,1,8,0:0:0:0:
313,130,84024,1,8,0:0:0:0:
313,130,84200,1,0,0:0:0:0:
313,130,84288,1,0,0:0:0:0:
313,130,84377,1,8,0:0:0:0:
313,130,84730,1,4,0:0:0:0:
330,151,84906,1,8,0:0:0:0:
330,151,84994,1,8,0:0:0:0:
330,151,85083,1,8,0:0:0:0:
330,151,85259,1,8,0:0:0:0:
330,147,85435,1,4,0:0:0:0:
331,141,85612,1,8,0:0:0:0:
331,141,85700,1,8,0:0:0:0:
331,141,85788,1,0,0:0:0:0:
331,141,85965,1,8,0:0:0:0:
331,141,86141,1,0,0:0:0:0:
331,141,86230,1,0,0:0:0:0:
331,141,86318,1,8,0:0:0:0:
331,141,86406,1,8,0:0:0:0:
331,141,86494,1,0,0:0:0:0:
331,141,86583,1,0,0:0:0:0:
331,141,86671,1,8,0:0:0:0:
331,141,86759,1,8,0:0:0:0:
331,141,86847,1,0,0:0:0:0:
167,94,87112,1,0,0:0:0:0:
167,94,87200,1,8,0:0:0:0:
167,94,87376,1,8,0:0:0:0:
167,94,87553,1,4,0:0:0:0:
299,175,87906,1,8,0:0:0:0:
138,127,88082,1,0,0:0:0:0:
161,127,88171,1,0,0:0:0:0:
161,127,88259,1,8,0:0:0:0:
225,130,88435,1,0,0:0:0:0:
225,130,88523,1,8,0:0:0:0:
225,130,88700,1,0,0:0:0:0:
225,130,88788,1,8,0:0:0:0:
225,130,88965,1,0,0:0:0:0:
135,131,89141,1,8,0:0:0:0:
135,131,89318,1,0,0:0:0:0:
135,131,89406,1,0,0:0:0:0:
135,131,89494,1,8,0:0:0:0:
135,131,89582,1,8,0:0:0:0:
135,131,89671,1,0,0:0:0:0:
104,142,90023,1,0,0:0:0:0:
232,114,90200,1,8,0:0:0:0:
210,98,90288,1,0,0:0:0:0:
232,114,90376,1,8,0:0:0:0:
289,123,90553,1,0,0:0:0:0:
289,123,90729,1,8,0:0:0:0:
239,98,90906,1,0,0:0:0:0:
239,98,90994,1,0,0:0:0:0:
239,98,91082,1,8,0:0:0:0:
239,98,91259,1,0,0:0:0:0:
239,98,91347,1,8,0:0:0:0:
239,98,91523,1,0,0:0:0:0:
239,98,91612,1,0,0:0:0:0:
239,98,91788,1,8,0:0:0:0:
258,104,91965,1,0,0:0:0:0:
258,104,92053,1,0,0:0:0:0:
258,104,92141,1,8,0:0:0:0:
258,104,92318,1,8,0:0:0:0:
258,104,92406,1,8,0:0:0:0:
258,104,92494,1,0,0:0:0:0:
265,93,92671,1,8,0:0:0:0:
265,93,92759,1,8,0:0:0:0:
316,147,92847,1,8,0:0:0:0:
265,93,92935,1,8,0:0:0:0:
301,141,93023,1,0,0:0:0:0:
301,141,93200,1,12,0:0:0:0:
303,153,93553,1,8,0:0:0:0:
295,138,93729,1,0,0:0:0:0:
295,138,93818,1,0,0:0:0:0:
295,138,93906,1,8,0:0:0:0:
295,138,94082,1,8,0:0:0:0:
270,103,94171,1,8,0:0:0:0:
270,103,94347,1,0,0:0:0:0:
270,103,94435,1,8,0:0:0:0:
89,96,94523,1,8,0:0:0:0:
270,103,94612,1,0,0:0:0:0:
131,95,94788,1,8,0:0:0:0:
170,89,94965,1,0,0:0:0:0:
352,98,95141,1,8,0:0:0:0:
352,98,95229,1,8,0:0:0:0:
145,164,95318,1,0,0:0:0:0:
61,135,95671,1,0,0:0:0:0:
209,86,95847,1,8,0:0:0:0:
209,86,95935,1,8,0:0:0:0:
209,86,96023,1,0,0:0:0:0:
366,179,96200,1,0,0:0:0:0:
275,107,96376,1,8,0:0:0:0:
110,135,96553,1,0,0:0:0:0:
110,135,96641,1,8,0:0:0:0:
110,135,96729,1,0,0:0:0:0:
110,135,96906,1,0,0:0:0:0:
110,135,97082,1,8,0:0:0:0:
110,135,97259,1,0,0:0:0:0:
110,135,97347,1,0,0:0:0:0:
110,135,97435,1,8,0:0:0:0:
110,135,97612,1,8,0:0:0:0:
110,135,97788,1,0,0:0:0:0:
110,135,97876,1,0,0:0:0:0:
110,135,97965,1,0,0:0:0:0:
110,135,98141,1,12,0:0:0:0:
329,134,98494,1,0,0:0:0:0:
329,134,98582,1,0,0:0:0:0:
329,134,98671,1,8,0:0:0:0:
332,143,98847,1,4,0:0:0:0:
252,131,99200,1,8,0:0:0:0:
357,156,99376,1,8,0:0:0:0:
340,121,99465,1,8,0:0:0:0:
340,121,99553,1,0,0:0:0:0:
406,191,99729,1,0,0:0:0:0:
406,191,99818,1,8,0:0:0:0:
405,184,99994,1,8,0:0:0:0:
405,184,100082,1,0,0:0:0:0:
405,184,100171,1,0,0:0:0:0:
405,184,100259,1,8,0:0:0:0:
239,73,100435,1,8,0:0:0:0:
239,73,100612,1,0,0:0:0:0:
94,101,100788,1,8,0:0:0:0:
94,101,100876,1,8,0:0:0:0:
94,101,100965,1,0,0:0:0:0:
283,91,101318,1,0,0:0:0:0:
225,100,101494,1,0,0:0:0:0:
225,100,101582,1,0,0:0:0:0:
225,100,101671,1,8,0:0:0:0:
401,212,101847,1,0,0:0:0:0:
337,173,102023,1,8,0:0:0:0:
223,93,102200,1,8,0:0:0:0:
223,93,102288,1,8,0:0:0:0:
223,93,102376,1,0,0:0:0:0:
193,121,102553,1,0,0:0:0:0:
228,114,102641,1,8,0:0:0:0:
228,114,102818,1,0,0:0:0:0:
228,114,102906,1,0,0:0:0:0:
228,114,103082,1,8,0:0:0:0:
226,155,103259,1,0,0:0:0:0:
226,155,103347,1,0,0:0:0:0:
226,155,103435,1,8,0:0:0:0:
229,148,103612,1,0,0:0:0:0:
229,148,103788,1,8,0:0:0:0:
166,113,103965,1,0,0:0:0:0:
174,132,104053,1,0,0:0:0:0:
174,132,104141,1,8,0:0:0:0:
174,132,104229,1,8,0:0:0:0:
174,132,104318,1,0,0:0:0:0:
174,132,104494,1,12,0:0:0:0:
41,132,104847,1,8,0:0:0:0:
172,121,105023,1,0,0:0:0:0:
172,121,105112,1,0,0:0:0:0:
172,121,105200,1,8,0:0:0:0:
172,121,105376,1,0,0:0:0:0:
172,121,105465,1,8,0:0:0:0:
172,121,105641,1,8,0:0:0:0:
172,121,105729,1,8,0:0:0:0:
172,121,105906,1,0,0:0:0:0:
124,145,106082,1,8,0:0:0:0:
129,145,106171,1,8,0:0:0:0:
129,145,106259,1,0,0:0:0:0:
136,166,106435,1,8,0:0:0:0:
251,172,106788,1,0,0:0:0:0:
280,148,106965,1,8,0:0:0:0:
280,148,107141,1,0,0:0:0:0:
241,124,107229,1,8,0:0:0:0:
284,149,107318,1,0,0:0:0:0:
92,127,107494,1,0,0:0:0:0:
92,127,107671,1,8,0:0:0:0:
92,127,107847,1,8,0:0:0:0:
141,128,107935,1,8,0:0:0:0:
92,127,108023,1,0,0:0:0:0:
113,122,108200,1,0,0:0:0:0:
113,122,108376,1,8,0:0:0:0:
113,122,108553,1,8,0:0:0:0:
243,58,108641,1,8,0:0:0:0:
243,58,108729,1,8,0:0:0:0:
234,113,108906,1,8,0:0:0:0:
234,113,109082,1,0,0:0:0:0:
234,113,109171,1,0,0:0:0:0:
234,113,109259,1,8,0:0:0:0:
192,117,109435,1,4,0:0:0:0:
376,142,109788,1,8,0:0:0:0:
376,142,110141,1,8,0:0:0:0:
376,142,110494,1,0,0:0:0:0:
389,233,110671,1,8,0:0:0:0:
389,233,110759,1,8,0:0:0:0:
389,233,110847,1,0,0:0:0:0:
368,217,111023,1,0,0:0:0:0:
183,105,111112,1,0,0:0:0:0:
183,105,111200,1,8,0:0:0:0:
183,105,111376,1,0,0:0:0:0:
235,103,111553,1,8,0:0:0:0:
235,103,111641,1,8,0:0:0:0:
235,103,111729,1,8,0:0:0:0:
235,103,111818,1,8,0:0:0:0:
235,103,111906,1,0,0:0:0:0:
342,136,112259,1,4,0:0:0:0:
342,136,112611,1,4,0:0:0:0:
342,136,112964,1,4,0:0:0:0:
342,136,113317,1,4,0:0:0:0:
342,136,113670,1,12,0:0:0:0:
342,136,114023,1,12,0:0:0:0:
342,136,114376,1,12,0:0:0:0:
326,99,115082,1,4,0:0:0:0:
218,114,115435,1,8,0:0:0:0:
218,114,115611,1,0,0:0:0:0:
218,114,115788,1,4,0:0:0:0:
77,129,116141,1,8,0:0:0:0:
77,129,116317,1,8,0:0:0:0:
77,129,116494,1,4,0:0:0:0:
77,129,116847,1,4,0:0:0:0:
77,129,117200,1,12,0:0:0:0:
332,126,117553,1,8,0:0:0:0:
332,126,117906,1,4,0:0:0:0:
167,104,118259,1,8,0:0:0:0:
167,104,118435,1,0,0:0:0:0:
167,104,118611,1,4,0:0:0:0:
167,104,118964,1,8,0:0:0:0:
167,104,119141,1,8,0:0:0:0:
167,104,119317,1,4,0:0:0:0:
167,104,119670,1,4,0:0:0:0:
167,104,120023,1,12,0:0:0:0:
304,119,120376,1,0,0:0:0:0:
304,119,120553,1,8,0:0:0:0:
326,99,120729,1,4,0:0:0:0:
190,107,120906,1,0,0:0:0:0:
329,126,120994,1,0,0:0:0:0:
190,107,121082,1,8,0:0:0:0:
190,107,121259,1,8,0:0:0:0:
190,107,121435,1,4,0:0:0:0:
190,107,121611,1,8,0:0:0:0:
132,84,121700,1,0,0:0:0:0:
190,107,121788,1,8,0:0:0:0:
190,107,121964,1,8,0:0:0:0:
190,107,122141,1,4,0:0:0:0:
190,107,122317,1,8,0:0:0:0:
190,107,122494,1,4,0:0:0:0:
253,64,122670,1,0,0:0:0:0:
253,64,122847,1,12,0:0:0:0:
118,101,123200,1,8,0:0:0:0:
166,93,123376,1,8,0:0:0:0:
128,53,123553,1,4,0:0:0:0:
336,132,123729,1,8,0:0:0:0:
336,132,123817,1,0,0:0:0:0:
336,132,123906,1,8,0:0:0:0:
336,132,124082,1,8,0:0:0:0:
336,132,124259,1,4,0:0:0:0:
336,132,124435,1,8,0:0:0:0:
336,132,124523,1,8,0:0:0:0:
336,132,124611,1,8,0:0:0:0:
336,132,124788,1,8,0:0:0:0:
336,132,124964,1,0,0:0:0:0:
123,167,125141,1,8,0:0:0:0:
203,145,125317,1,0,0:0:0:0:
203,145,125494,1,0,0:0:0:0:
203,145,125670,1,8,0:0:0:0:
216,146,126023,1,0,0:0:0:0:
216,146,126200,1,0,0:0:0:0:
216,146,126376,1,8,0:0:0:0:
130,109,126729,1,4,0:0:0:0:
348,211,127082,1,8,0:0:0:0:
324,190,127258,1,0,0:0:0:0:
324,190,127347,1,8,0:0:0:0:
304,40,127523,1,0,0:0:0:0:
324,190,127611,1,8,0:0:0:0:
272,56,127700,1,8,0:0:0:0:
272,56,127788,1,0,0:0:0:0:
160,104,127964,1,8,0:0:0:0:
160,104,128141,1,0,0:0:0:0:
160,104,128229,1,0,0:0:0:0:
160,104,128317,1,8,0:0:0:0:
184,88,128406,1,8,0:0:0:0:
160,104,128494,1,0,0:0:0:0:
192,144,128847,1,8,0:0:0:0:
224,192,129023,1,0,0:0:0:0:
232,192,129111,1,0,0:0:0:0:
232,192,129200,1,8,0:0:0:0:
248,96,129376,1,0,0:0:0:0:
248,96,129553,1,8,0:0:0:0:
264,144,129729,1,8,0:0:0:0:
264,144,129817,1,8,0:0:0:0:
264,144,129906,1,0,0:0:0:0:
232,192,130082,1,0,0:0:0:0:
232,192,130170,1,8,0:0:0:0:
232,192,130347,1,8,0:0:0:0:
232,192,130435,1,0,0:0:0:0:
160,136,130523,1,0,0:0:0:0:
232,192,130612,1,8,0:0:0:0:
184,104,130788,1,0,0:0:0:0:
184,104,130876,1,0,0:0:0:0:
184,104,130964,1,8,0:0:0:0:
184,104,131141,1,8,0:0:0:0:
184,104,131229,1,8,0:0:0:0:
184,104,131317,1,0,0:0:0:0:
248,160,131494,1,8,0:0:0:0:
248,160,131582,1,0,0:0:0:0:
248,160,131670,1,8,0:0:0:0:
248,160,131759,1,8,0:0:0:0:
256,160,131847,1,0,0:0:0:0:
248,160,132023,1,12,0:0:0:0:
200,152,132376,1,8,0:0:0:0:
224,120,132553,1,0,0:0:0:0:
224,120,132641,1,0,0:0:0:0:
224,120,132729,1,8,0:0:0:0:
224,120,132906,1,0,0:0:0:0:
384,160,132994,1,8,0:0:0:0:
376,160,133170,1,8,0:0:0:0:
376,160,133259,1,0,0:0:0:0:
376,160,133347,1,0,0:0:0:0:
376,160,133435,1,8,0:0:0:0:
240,112,133611,1,8,0:0:0:0:
240,112,133700,1,0,0:0:0:0:
240,112,133788,1,8,0:0:0:0:
264,112,133964,1,8,0:0:0:0:
224,72,134141,1,0,0:0:0:0:
232,72,134494,1,8,0:0:0:0:
232,168,134670,1,0,0:0:0:0:
240,168,134759,1,8,0:0:0:0:
240,168,134847,1,0,0:0:0:0:
240,168,135023,1,0,0:0:0:0:
208,104,135200,1,8,0:0:0:0:
192,144,135376,1,0,0:0:0:0:
192,144,135464,1,0,0:0:0:0:
192,144,135553,1,8,0:0:0:0:
200,144,135729,1,0,0:0:0:0:
200,144,135906,1,8,0:0:0:0:
200,144,136082,1,0,0:0:0:0:
200,144,136170,1,0,0:0:0:0:
200,144,136259,1,8,0:0:0:0:
200,144,136435,1,0,0:0:0:0:
200,144,136523,1,0,0:0:0:0:
200,144,136611,1,8,0:0:0:0:
200,144,136700,1,0,0:0:0:0:
200,144,136788,1,8,0:0:0:0:
200,144,136876,1,8,0:0:0:0:
200,144,136964,1,0,0:0:0:0:
303,189,137317,1,0,0:0:0:0:
291,171,137494,1,8,0:0:0:0:
277,150,137670,1,0,0:0:0:0:
183,131,138023,1,12,0:0:0:0:
169,136,138200,1,0,0:0:0:0:
173,137,138288,1,8,0:0:0:0:
189,117,138464,1,0,0:0:0:0:
189,117,138553,1,8,0:0:0:0:
189,117,138641,1,8,0:0:0:0:
189,117,138729,1,0,0:0:0:0:
88,165,138906,1,8,0:0:0:0:
181,10,138994,1,8,0:0:0:0:
146,83,139082,1,0,0:0:0:0:
260,154,139258,1,8,0:0:0:0:
275,153,139435,1,0,0:0:0:0:
275,153,139523,1,0,0:0:0:0:
275,153,139611,1,8,0:0:0:0:
341,122,139788,1,0,0:0:0:0:
329,194,139876,1,0,0:0:0:0:
264,115,139964,1,8,0:0:0:0:
329,194,140053,1,0,0:0:0:0:
341,122,140141,1,8,0:0:0:0:
341,122,140494,1,0,0:0:0:0:
196,169,140670,1,0,0:0:0:0:
271,164,140847,1,8,0:0:0:0:
306,167,141023,1,8,0:0:0:0:
386,199,141111,1,8,0:0:0:0:
386,199,141200,1,0,0:0:0:0:
296,169,141376,1,8,0:0:0:0:
300,168,141553,1,8,0:0:0:0:
271,87,141729,1,0,0:0:0:0:
315,190,141817,1,0,0:0:0:0:
271,87,141906,1,8,0:0:0:0:
315,190,142082,1,0,0:0:0:0:
315,190,142170,1,8,0:0:0:0:
165,118,142258,1,0,0:0:0:0:
315,190,142347,1,0,0:0:0:0:
315,190,142435,1,8,0:0:0:0:
315,190,142611,1,8,0:0:0:0:
284,127,142964,1,0,0:0:0:0:
284,127,143141,1,8,0:0:0:0:
344,171,143317,1,4,0:0:0:0:
298,147,143494,1,0,0:0:0:0:
298,147,143582,1,0,0:0:0:0:
298,147,143670,1,8,0:0:0:0:
137,84,143847,1,0,0:0:0:0:
137,84,143935,1,8,0:0:0:0:
67,140,144111,1,8,0:0:0:0:
71,140,144200,1,8,0:0:0:0:
71,140,144376,1,8,0:0:0:0:
186,111,144553,1,8,0:0:0:0:
186,111,144641,1,8,0:0:0:0:
186,111,144729,1,0,0:0:0:0:
166,112,144906,1,8,0:0:0:0:
186,111,145082,1,0,0:0:0:0:
186,111,145170,1,0,0:0:0:0:
186,111,145258,1,8,0:0:0:0:
186,111,145435,1,0,0:0:0:0:
192,116,145523,1,0,0:0:0:0:
111,116,145611,1,8,0:0:0:0:
146,132,145700,1,8,0:0:0:0:
191,110,145788,1,0,0:0:0:0:
220,136,146141,1,0,0:0:0:0:
263,76,146317,1,0,0:0:0:0:
263,76,146406,1,0,0:0:0:0:
263,76,146494,1,8,0:0:0:0:
263,76,146670,1,0,0:0:0:0:
263,76,146847,1,8,0:0:0:0:
205,125,147023,1,0,0:0:0:0:
208,125,147111,1,0,0:0:0:0:
205,125,147200,1,8,0:0:0:0:
205,125,147376,1,8,0:0:0:0:
205,125,147553,1,0,0:0:0:0:
205,125,147641,1,0,0:0:0:0:
205,125,147729,1,8,0:0:0:0:
205,125,147817,1,8,0:0:0:0:
205,125,147906,1,0,0:0:0:0:
205,125,147994,1,0,0:0:0:0:
208,125,148082,1,8,0:0:0:0:
205,125,148170,1,8,0:0:0:0:
205,125,148258,1,0,0:0:0:0:
281,160,148611,1,8,0:0:0:0:
281,160,148964,1,8,0:0:0:0:
281,160,149317,1,0,0:0:0:0:
281,160,149670,1,0,0:0:0:0:
281,160,149847,1,0,0:0:0:0:
281,160,149935,1,0,0:0:0:0:
281,160,150023,1,8,0:0:0:0:
288,128,150200,1,0,0:0:0:0:
304,152,150376,1,12,0:0:0:0:
96,128,150553,1,0,0:0:0:0:
192,96,150641,1,0,0:0:0:0:
168,104,150729,1,8,0:0:0:0:
192,96,150906,1,8,0:0:0:0:
192,96,151082,1,0,0:0:0:0:
272,136,151170,1,0,0:0:0:0:
192,96,151258,1,8,0:0:0:0:
272,136,151435,1,8,0:0:0:0:
272,136,151611,1,0,0:0:0:0:
272,136,151700,1,0,0:0:0:0:
272,136,151788,1,8,0:0:0:0:
272,136,151964,1,8,0:0:0:0:
272,136,152141,1,0,0:0:0:0:
272,136,152229,1,0,0:0:0:0:
272,136,152317,1,8,0:0:0:0:
144,104,152494,1,8,0:0:0:0:
240,64,152670,1,0,0:0:0:0:
240,64,152847,1,8,0:0:0:0:
240,64,153200,1,0,0:0:0:0:
128,96,153376,1,0,0:0:0:0:
128,96,153464,1,0,0:0:0:0:
128,96,153553,1,8,0:0:0:0:
144,120,153729,1,0,0:0:0:0:
168,96,153906,1,0,0:0:0:0:
168,96,153994,1,0,0:0:0:0:
168,96,154082,1,8,0:0:0:0:
168,96,154258,1,0,0:0:0:0:
168,96,154435,1,0,0:0:0:0:
168,96,154523,1,0,0:0:0:0:
168,96,154611,1,8,0:0:0:0:
168,96,154788,1,0,0:0:0:0:
168,96,154964,1,0,0:0:0:0:
168,96,155053,1,0,0:0:0:0:
168,96,155141,1,8,0:0:0:0:
168,96,155317,1,0,0:0:0:0:
168,96,155494,1,0,0:0:0:0:
168,96,155670,1,8,0:0:0:0:
168,96,156023,1,4,0:0:0:0:
224,96,156200,1,8,0:0:0:0:
224,96,156288,1,8,0:0:0:0:
224,96,156376,1,0,0:0:0:0:
224,96,156553,1,0,0:0:0:0:
224,96,156729,1,8,0:0:0:0:
224,96,156817,1,8,0:0:0:0:
224,96,156906,1,0,0:0:0:0:
224,96,157082,1,0,0:0:0:0:
224,96,157258,1,8,0:0:0:0:
224,96,157347,1,8,0:0:0:0:
224,96,157435,1,0,0:0:0:0:
224,96,157611,1,0,0:0:0:0:
224,96,157788,1,8,0:0:0:0:
224,96,157876,1,8,0:0:0:0:
224,96,157964,1,0,0:0:0:0:
224,96,158141,1,8,0:0:0:0:
224,96,158317,1,0,0:0:0:0:
224,96,158494,1,8,0:0:0:0:
112,160,158847,1,8,0:0:0:0:
200,136,159023,1,8,0:0:0:0:
200,136,159111,1,8,0:0:0:0:
184,64,159200,1,0,0:0:0:0:
304,96,159376,1,8,0:0:0:0:
304,96,159553,1,8,0:0:0:0:
304,96,159641,1,8,0:0:0:0:
304,96,159729,1,0,0:0:0:0:
216,144,159906,1,8,0:0:0:0:
216,144,160082,1,8,0:0:0:0:
216,144,160170,1,8,0:0:0:0:
216,144,160258,1,0,0:0:0:0:
216,144,160435,1,8,0:0:0:0:
216,144,160611,1,0,0:0:0:0:
216,144,160788,1,0,0:0:0:0:
216,144,160876,1,0,0:0:0:0:
216,144,160964,1,8,0:0:0:0:
216,144,161141,1,8,0:0:0:0:
216,144,161317,1,0,0:0:0:0:
72,176,161670,1,12,0:0:0:0:
184,168,161847,1,0,0:0:0:0:
192,168,161935,1,0,0:0:0:0:
192,168,162023,1,8,0:0:0:0:
192,168,162200,1,8,0:0:0:0:
192,168,162376,1,0,0:0:0:0:
192,168,162464,1,0,0:0:0:0:
192,168,162553,1,8,0:0:0:0:
192,168,162729,1,8,0:0:0:0:
192,168,162906,1,0,0:0:0:0:
192,168,162994,1,8,0:0:0:0:
192,168,163082,1,0,0:0:0:0:
192,168,163258,1,8,0:0:0:0:
192,168,163435,1,0,0:0:0:0:
192,168,163523,1,8,0:0:0:0:
192,168,163611,1,0,0:0:0:0:
192,168,163788,1,8,0:0:0:0:
192,168,163964,1,8,0:0:0:0:
192,168,164141,1,0,0:0:0:0:
88,136,164494,1,8,0:0:0:0:
184,160,164670,1,0,0:0:0:0:
184,160,164758,1,8,0:0:0:0:
184,160,164847,1,0,0:0:0:0:
184,160,165023,1,8,0:0:0:0:
184,160,165200,1,0,0:0:0:0:
200,72,165288,1,8,0:0:0:0:
184,160,165376,1,0,0:0:0:0:
256,176,165553,5,0,0:0:0:0:
256,176,165729,1,8,0:0:0:0:
256,176,165817,1,8,0:0:0:0:
256,176,165906,1,0,0:0:0:0:
256,176,166082,1,0,0:0:0:0:
256,176,166258,1,8,0:0:0:0:
256,176,166347,1,8,0:0:0:0:
256,176,166435,1,0,0:0:0:0:
256,176,166611,1,0,0:0:0:0:
256,176,166788,1,8,0:0:0:0:
256,176,166964,1,8,0:0:0:0:
96,160,167317,1,4,0:0:0:0:
312,136,167494,1,8,0:0:0:0:
312,136,167582,1,8,0:0:0:0:
312,136,167670,1,0,0:0:0:0:
312,136,167847,1,8,0:0:0:0:
296,296,168023,5,0,0:0:0:0:
296,296,168111,1,8,0:0:0:0:
296,296,168200,1,0,0:0:0:0:
304,288,168376,1,8,0:0:0:0:
288,264,168553,1,0,0:0:0:0:
288,264,168641,1,0,0:0:0:0:
288,264,168729,1,8,0:0:0:0:
288,264,168906,1,0,0:0:0:0:
288,264,169082,1,8,0:0:0:0:
288,264,169170,1,8,0:0:0:0:
288,264,169258,1,0,0:0:0:0:
288,264,169435,1,8,0:0:0:0:
288,264,169611,1,8,0:0:0:0:
288,264,169788,1,0,0:0:0:0:
136,112,170141,1,0,0:0:0:0:
216,80,170317,1,8,0:0:0:0:
216,80,170406,1,8,0:0:0:0:
216,80,170494,1,0,0:0:0:0:
216,80,170670,1,8,0:0:0:0:
216,80,170847,1,0,0:0:0:0:
216,80,170935,1,8,0:0:0:0:
216,80,171023,1,0,0:0:0:0:
216,80,171200,1,8,0:0:0:0:
144,136,171376,1,0,0:0:0:0:
144,136,171464,1,0,0:0:0:0:
144,136,171553,1,8,0:0:0:0:
168,144,171729,1,0,0:0:0:0:
176,144,171906,1,8,0:0:0:0:
328,168,172082,1,0,0:0:0:0:
328,168,172170,1,0,0:0:0:0:
328,168,172258,1,8,0:0:0:0:
328,168,172435,1,0,0:0:0:0:
328,168,172523,1,0,0:0:0:0:
328,168,172611,1,8,0:0:0:0:
328,168,172700,1,8,0:0:0:0:
328,168,172788,1,8,0:0:0:0:
328,168,172964,1,4,0:0:0:0:
328,168,173317,1,4,0:0:0:0:
328,168,173670,1,4,0:0:0:0:
328,168,173847,1,0,0:0:0:0:
328,168,173935,1,0,0:0:0:0:
328,168,174023,1,8,0:0:0:0:
