osu file format v14

[General]
AudioFilename: audio.mp3
AudioLeadIn: 0
PreviewTime: 149847
Countdown: 0
SampleSet: Normal
StackLeniency: 0.7
Mode: 1
LetterboxInBreaks: 0
WidescreenStoryboard: 0

[Editor]
DistanceSpacing: 1
BeatDivisor: 4
GridSize: 8
TimelineZoom: 1.699999

[Metadata]
Title:More One Night (Assertive Hardcore Bootleg) [long ver.]
TitleUnicode:More One Night (Assertive Hardcore Bootleg) [long ver.]
Artist:Chito (CV: Minase Inori), Yuuri (CV: Kubo Yurika)
ArtistUnicode:チト (CV:水瀬いのり)、ユーリ (CV:久保ユリカ)
Creator:Rhytoly
Version:Muzukashii
Source:少女終末旅行
Tags:Blackener Blacken Roger ][ -GH- ][ shoujo shuumatsu ryokou girls last tour ending remix
BeatmapID:1983659
BeatmapSetID:938144

[Difficulty]
HPDrainRate:6
CircleSize:5
OverallDifficulty:5
ApproachRate:5
SliderMultiplier:1.4
SliderTickRate:1

[Events]
//Background and Video events
0,0,"best bg ever lol.png",0,30
//Break Periods
//Storyboard Layer 0 (Background)
//Storyboard Layer 1 (Fail)
//Storyboard Layer 2 (Pass)
//Storyboard Layer 3 (Foreground)
//Storyboard Layer 4 (Overlay)
//Storyboard Sound Samples

[TimingPoints]
24,352.941176470588,4,1,0,100,1,0
2847,-100,4,1,0,60,0,0
9906,-100,4,1,0,80,0,0
32494,-100,4,1,0,90,0,0
38141,-100,4,1,0,100,0,1
48729,-100,4,1,0,100,0,0
49435,-100,4,1,0,100,0,1
60023,-100,4,1,0,100,0,0
64965,-100,4,1,0,80,0,0
81906,-100,4,1,0,90,0,0
87553,-100,4,1,0,100,0,1
98141,-100,4,1,0,100,0,0
98847,-100,4,1,0,100,0,1
109435,-100,4,1,0,100,0,0
111553,352.941176470588,4,1,0,100,1,8
112259,352.941176470588,4,1,0,100,1,0
115082,-100,4,1,0,100,0,1
117553,-100,4,1,0,100,0,0
117906,-100,4,1,0,100,0,1
120200,-100,4,1,0,100,0,0
120729,-100,4,1,0,100,0,1
123023,-100,4,1,0,100,0,0
123553,-100,4,1,0,100,0,1
124964,-100,4,1,0,40,0,0
126376,-100,4,1,0,100,0,0
126729,-100,4,1,0,100,0,1
136964,-100,4,1,0,100,0,0
138023,-100,4,1,0,100,0,1
148258,-100,4,1,0,100,0,0
150376,-100,4,1,0,100,0,1
161141,-100,4,1,0,100,0,0
161670,-100,4,1,0,100,0,1
174023,-100,4,1,0,100,0,0

[HitObjects]
197,237,24,5,4,0:0:0:0:
197,237,376,1,4,0:0:0:0:
197,237,729,1,4,0:0:0:0:
197,237,1082,1,4,0:0:0:0:
197,237,1435,1,12,0:0:0:0:
197,237,1788,1,12,0:0:0:0:
197,237,2141,1,12,0:0:0:0:
197,237,2494,1,12,0:0:0:0:
256,192,2847,12,0,3906,0:0:0:0:
211,154,4259,5,4,0:0:0:0:
216,196,4612,1,8,0:0:0:0:
219,160,4965,1,0,0:0:0:0:
277,161,5229,1,0,0:0:0:0:
277,161,5494,1,8,0:0:0:0:
146,172,6023,1,8,0:0:0:0:
256,190,6376,1,0,0:0:0:0:
258,184,6553,1,0,0:0:0:0:
166,80,6729,1,8,0:0:0:0:
305,185,7082,1,0,0:0:0:0:
305,185,7435,1,8,0:0:0:0:
305,185,7788,1,0,0:0:0:0:
305,185,8053,1,0,0:0:0:0:
305,185,8318,1,8,0:0:0:0:
172,78,8847,1,8,0:0:0:0:
191,168,9200,1,0,0:0:0:0:
304,108,9376,1,0,0:0:0:0:
317,145,9553,1,8,0:0:0:0:
317,145,9906,1,0,0:0:0:0:
247,156,10082,1,8,0:0:0:0:
247,156,10259,1,0,0:0:0:0:
247,156,10435,1,8,0:0:0:0:
247,156,10612,1,0,0:0:0:0:
247,156,10965,1,0,0:0:0:0:
247,156,11318,1,0,0:0:0:0:
247,156,11494,1,8,0:0:0:0:
247,156,11671,1,0,0:0:0:0:
247,156,11847,1,8,0:0:0:0:
247,156,12023,1,0,0:0:0:0:
247,156,12376,1,0,0:0:0:0:
247,156,12729,1,0,0:0:0:0:
165,157,12906,1,0,0:0:0:0:
221,158,13082,1,8,0:0:0:0:
221,158,13259,1,0,0:0:0:0:
221,158,13435,1,8,0:0:0:0:
221,158,13612,1,8,0:0:0:0:
221,158,13788,1,0,0:0:0:0:
272,170,14141,5,0,0:0:0:0:
177,84,14318,1,8,0:0:0:0:
177,84,14406,1,8,0:0:0:0:
216,70,14494,1,8,0:0:0:0:
177,84,14671,1,0,0:0:0:0:
328,216,14847,1,8,0:0:0:0:
328,216,15023,1,8,0:0:0:0:
328,216,15200,1,0,0:0:0:0:
231,197,15553,1,4,0:0:0:0:
143,145,15906,1,8,0:0:0:0:
213,151,16082,1,0,0:0:0:0:
213,151,16259,1,8,0:0:0:0:
295,148,16612,1,0,0:0:0:0:
295,148,16788,1,0,0:0:0:0:
289,127,16965,1,8,0:0:0:0:
289,127,17141,1,0,0:0:0:0:
289,127,17318,1,0,0:0:0:0:
289,127,17494,1,8,0:0:0:0:
289,127,17671,1,0,0:0:0:0:
212,204,18023,1,0,0:0:0:0:
212,204,18200,1,0,0:0:0:0:
212,204,18376,1,8,0:0:0:0:
212,204,18553,1,8,0:0:0:0:
212,204,18729,1,0,0:0:0:0:
212,204,18906,1,8,0:0:0:0:
212,204,19082,1,0,0:0:0:0:
187,174,19435,1,0,0:0:0:0:
192,175,19612,1,0,0:0:0:0:
192,175,19788,1,8,0:0:0:0:
192,175,19965,1,0,0:0:0:0:
192,175,20141,1,0,0:0:0:0:
192,175,20318,1,8,0:0:0:0:
192,175,20494,1,8,0:0:0:0:
228,145,20847,1,0,0:0:0:0:
272,148,21200,1,8,0:0:0:0:
272,148,21553,1,8,0:0:0:0:
272,148,21729,1,8,0:0:0:0:
272,148,21906,1,0,0:0:0:0:
272,148,22259,1,0,0:0:0:0:
272,148,22435,1,0,0:0:0:0:
272,148,22612,1,8,0:0:0:0:
272,148,22788,1,8,0:0:0:0:
272,148,22965,1,0,0:0:0:0:
272,148,23141,1,8,0:0:0:0:
272,148,23318,1,0,0:0:0:0:
82,117,23671,1,0,0:0:0:0:
126,119,23847,1,0,0:0:0:0:
126,119,24023,1,8,0:0:0:0:
278,176,24376,1,0,0:0:0:0:
301,199,24553,1,8,0:0:0:0:
301,199,24729,1,0,0:0:0:0:
301,199,24906,1,0,0:0:0:0:
301,199,25082,1,8,0:0:0:0:
301,199,25259,1,8,0:0:0:0:
301,199,25435,1,4,0:0:0:0:
223,167,25612,1,4,0:0:0:0:
245,170,25788,1,12,0:0:0:0:
245,170,25965,1,4,0:0:0:0:
245,170,26141,1,12,0:0:0:0:
254,182,26847,1,4,0:0:0:0:
241,132,27200,1,8,0:0:0:0:
241,132,27553,1,0,0:0:0:0:
241,132,27729,1,8,0:0:0:0:
354,221,27906,5,0,0:0:0:0:
299,167,27994,1,0,0:0:0:0:
354,221,28082,1,0,0:0:0:0:
341,208,28259,1,8,0:0:0:0:
341,208,28435,1,0,0:0:0:0:
341,208,28612,1,8,0:0:0:0:
341,208,28788,1,8,0:0:0:0:
341,208,28965,1,0,0:0:0:0:
341,208,29318,1,8,0:0:0:0:
249,140,29671,1,0,0:0:0:0:
249,140,29847,1,0,0:0:0:0:
249,140,30023,1,8,0:0:0:0:
244,168,30376,1,0,0:0:0:0:
183,125,30553,1,8,0:0:0:0:
197,129,30729,1,0,0:0:0:0:
389,191,30818,1,0,0:0:0:0:
127,111,30906,1,0,0:0:0:0:
132,111,31082,1,8,0:0:0:0:
132,111,31259,1,0,0:0:0:0:
132,111,31435,1,8,0:0:0:0:
240,165,31788,1,0,0:0:0:0:
360,185,32494,1,8,0:0:0:0:
305,110,32671,1,8,0:0:0:0:
305,110,32847,1,0,0:0:0:0:
297,162,33023,1,8,0:0:0:0:
297,162,33200,1,8,0:0:0:0:
297,162,33376,1,0,0:0:0:0:
297,162,33553,1,8,0:0:0:0:
297,162,33729,1,8,0:0:0:0:
297,162,33906,1,0,0:0:0:0:
297,162,34082,1,8,0:0:0:0:
295,135,34171,1,8,0:0:0:0:
297,162,34259,1,8,0:0:0:0:
295,135,34435,1,0,0:0:0:0:
286,115,34612,1,12,0:0:0:0:
286,115,34965,1,12,0:0:0:0:
286,115,35318,1,4,0:0:0:0:
149,143,35494,1,8,0:0:0:0:
157,142,35671,1,8,0:0:0:0:
158,140,35847,1,8,0:0:0:0:
158,140,36023,1,4,0:0:0:0:
158,140,36200,1,8,0:0:0:0:
158,140,36376,1,8,0:0:0:0:
184,90,36553,1,8,0:0:0:0:
143,140,36729,1,4,0:0:0:0:
143,140,36906,1,8,0:0:0:0:
193,142,37082,1,0,0:0:0:0:
183,142,37171,1,0,0:0:0:0:
193,142,37259,1,0,0:0:0:0:
193,142,37435,1,8,0:0:0:0:
224,197,38141,1,4,0:0:0:0:
156,145,38494,1,8,0:0:0:0:
271,123,38671,1,0,0:0:0:0:
174,168,38847,1,8,0:0:0:0:
252,188,39023,1,0,0:0:0:0:
179,161,39112,1,8,0:0:0:0:
179,161,39376,1,0,0:0:0:0:
156,132,39729,1,8,0:0:0:0:
216,80,39906,1,0,0:0:0:0:
202,83,39994,1,0,0:0:0:0:
216,80,40082,1,8,0:0:0:0:
216,80,40259,1,0,0:0:0:0:
178,143,40788,1,0,0:0:0:0:
178,143,40965,1,8,0:0:0:0:
206,117,41318,1,8,0:0:0:0:
337,194,41494,1,0,0:0:0:0:
245,111,41671,1,8,0:0:0:0:
250,163,41847,1,0,0:0:0:0:
131,118,41935,1,0,0:0:0:0:
216,153,42200,1,0,0:0:0:0:
398,273,42376,1,0,0:0:0:0:
268,161,42553,1,8,0:0:0:0:
268,161,42729,1,8,0:0:0:0:
401,256,42818,1,8,0:0:0:0:
268,161,42906,1,8,0:0:0:0:
268,161,43082,1,0,0:0:0:0:
207,90,43259,1,0,0:0:0:0:
207,90,43435,1,8,0:0:0:0:
198,241,43788,1,4,0:0:0:0:
351,177,44141,1,0,0:0:0:0:
351,177,44318,1,0,0:0:0:0:
351,177,44494,1,8,0:0:0:0:
268,174,44671,1,0,0:0:0:0:
351,177,44759,1,8,0:0:0:0:
351,177,45023,1,8,0:0:0:0:
351,177,45200,1,0,0:0:0:0:
174,163,45376,1,8,0:0:0:0:
290,161,45465,1,8,0:0:0:0:
282,166,45553,1,0,0:0:0:0:
282,166,45729,1,8,0:0:0:0:
282,166,45906,1,0,0:0:0:0:
438,198,46435,1,8,0:0:0:0:
438,198,46612,1,0,0:0:0:0:
183,117,46965,1,8,0:0:0:0:
183,117,47141,1,0,0:0:0:0:
183,117,47318,1,8,0:0:0:0:
147,135,47671,1,8,0:0:0:0:
273,116,47847,1,0,0:0:0:0:
273,116,48023,1,8,0:0:0:0:
359,209,48112,1,8,0:0:0:0:
273,116,48200,1,8,0:0:0:0:
273,116,48376,1,0,0:0:0:0:
273,116,48553,1,0,0:0:0:0:
273,116,48729,1,8,0:0:0:0:
150,188,49435,1,4,0:0:0:0:
220,124,49788,1,8,0:0:0:0:
225,166,49965,1,0,0:0:0:0:
86,131,50053,1,8,0:0:0:0:
176,131,50318,1,8,0:0:0:0:
182,130,50494,1,0,0:0:0:0:
182,130,50671,1,8,0:0:0:0:
185,127,50759,1,8,0:0:0:0:
182,130,50847,1,0,0:0:0:0:
334,165,51023,1,8,0:0:0:0:
142,96,51200,1,0,0:0:0:0:
198,195,51376,1,0,0:0:0:0:
260,144,51553,1,8,0:0:0:0:
234,43,51906,1,0,0:0:0:0:
260,144,52259,1,0,0:0:0:0:
191,140,52435,1,8,0:0:0:0:
264,138,52612,1,0,0:0:0:0:
264,138,52788,1,8,0:0:0:0:
264,138,52876,1,8,0:0:0:0:
264,138,52965,1,0,0:0:0:0:
264,138,53141,1,8,0:0:0:0:
109,98,53318,1,8,0:0:0:0:
199,158,53671,1,8,0:0:0:0:
246,171,53847,1,0,0:0:0:0:
326,194,53935,1,8,0:0:0:0:
355,195,54200,1,0,0:0:0:0:
329,184,54376,1,8,0:0:0:0:
228,181,55082,1,12,0:0:0:0:
316,114,55259,1,0,0:0:0:0:
260,190,55435,1,8,0:0:0:0:
248,171,55612,1,0,0:0:0:0:
353,181,55700,1,8,0:0:0:0:
241,51,55965,1,8,0:0:0:0:
241,51,56141,1,8,0:0:0:0:
172,153,56318,1,0,0:0:0:0:
198,153,56406,1,0,0:0:0:0:
198,153,56494,1,8,0:0:0:0:
321,214,56671,1,8,0:0:0:0:
310,206,56847,1,0,0:0:0:0:
221,182,57023,1,8,0:0:0:0:
251,139,57200,1,0,0:0:0:0:
359,192,57729,1,8,0:0:0:0:
359,192,57906,1,0,0:0:0:0:
256,150,58259,1,8,0:0:0:0:
324,141,58435,1,0,0:0:0:0:
324,141,58612,1,8,0:0:0:0:
366,202,58965,1,8,0:0:0:0:
366,202,59141,1,0,0:0:0:0:
366,202,59229,1,0,0:0:0:0:
366,202,59318,1,8,0:0:0:0:
396,243,59494,1,8,0:0:0:0:
396,237,59671,1,0,0:0:0:0:
396,237,59847,1,8,0:0:0:0:
396,237,60023,1,0,0:0:0:0:
277,183,60376,1,8,0:0:0:0:
277,183,60729,1,8,0:0:0:0:
277,183,61082,1,0,0:0:0:0:
277,183,61435,1,0,0:0:0:0:
313,174,62141,1,0,0:0:0:0:
313,174,62494,1,0,0:0:0:0:
308,142,62847,1,0,0:0:0:0:
308,142,63112,1,0,0:0:0:0:
346,192,63376,1,0,0:0:0:0:
339,177,63553,1,8,0:0:0:0:
325,137,63729,1,8,0:0:0:0:
325,137,63906,1,0,0:0:0:0:
325,137,64082,1,8,0:0:0:0:
325,137,64259,1,0,0:0:0:0:
148,141,64965,1,4,0:0:0:0:
366,82,65318,1,0,0:0:0:0:
366,82,65494,1,0,0:0:0:0:
366,82,65671,1,8,0:0:0:0:
335,142,66023,1,0,0:0:0:0:
335,142,66200,1,8,0:0:0:0:
335,142,66376,1,8,0:0:0:0:
335,142,66553,1,8,0:0:0:0:
335,142,66729,1,0,0:0:0:0:
335,142,66906,1,0,0:0:0:0:
335,142,67082,1,8,0:0:0:0:
335,142,67435,1,0,0:0:0:0:
335,142,67612,1,0,0:0:0:0:
335,142,67788,1,8,0:0:0:0:
335,142,68141,1,8,0:0:0:0:
335,142,68318,1,0,0:0:0:0:
335,142,68494,1,8,0:0:0:0:
335,142,68847,1,0,0:0:0:0:
335,142,69200,1,8,0:0:0:0:
335,142,69376,1,8,0:0:0:0:
335,142,69553,1,0,0:0:0:0:
335,142,69729,1,0,0:0:0:0:
335,142,69906,1,8,0:0:0:0:
335,142,70259,1,0,0:0:0:0:
335,142,70612,1,8,0:0:0:0:
335,142,70965,1,8,0:0:0:0:
335,142,71141,1,0,0:0:0:0:
335,142,71318,1,8,0:0:0:0:
335,142,71671,1,0,0:0:0:0:
335,142,71847,1,8,0:0:0:0:
335,142,72023,1,8,0:0:0:0:
335,142,72200,1,0,0:0:0:0:
335,142,72376,1,8,0:0:0:0:
335,142,72553,1,8,0:0:0:0:
335,142,72729,1,0,0:0:0:0:
335,142,73082,1,0,0:0:0:0:
335,142,73259,1,0,0:0:0:0:
335,142,73435,1,8,0:0:0:0:
335,142,73788,1,8,0:0:0:0:
335,142,73965,1,0,0:0:0:0:
335,142,74141,1,8,0:0:0:0:
335,142,74494,1,8,0:0:0:0:
335,142,74847,1,12,0:0:0:0:
335,142,75023,1,12,0:0:0:0:
335,142,75200,1,4,0:0:0:0:
335,142,75376,1,4,0:0:0:0:
335,142,75553,1,12,0:0:0:0:
127,171,76259,1,4,0:0:0:0:
145,197,76612,1,8,0:0:0:0:
172,200,76965,1,0,0:0:0:0:
172,200,77141,1,8,0:0:0:0:
172,200,77318,1,0,0:0:0:0:
359,200,77406,1,0,0:0:0:0:
172,200,77494,1,0,0:0:0:0:
172,200,77671,1,8,0:0:0:0:
172,200,77847,1,8,0:0:0:0:
172,200,78023,1,0,0:0:0:0:
221,147,78200,1,8,0:0:0:0:
221,147,78376,1,0,0:0:0:0:
167,132,78729,1,8,0:0:0:0:
200,127,79082,1,0,0:0:0:0:
200,127,79259,1,0,0:0:0:0:
200,127,79435,1,8,0:0:0:0:
200,127,79788,1,0,0:0:0:0:
200,127,79965,1,8,0:0:0:0:
200,127,80141,1,0,0:0:0:0:
284,125,80229,1,0,0:0:0:0:
284,125,80318,1,0,0:0:0:0:
200,127,80494,1,8,0:0:0:0:
200,127,80671,1,0,0:0:0:0:
200,127,80847,1,8,0:0:0:0:
200,127,81200,1,0,0:0:0:0:
169,132,81906,1,0,0:0:0:0:
196,132,82082,1,0,0:0:0:0:
196,132,82259,1,8,0:0:0:0:
196,132,82435,1,0,0:0:0:0:
196,132,82612,1,8,0:0:0:0:
196,132,82788,1,8,0:0:0:0:
196,132,82965,1,0,0:0:0:0:
196,132,83141,1,8,0:0:0:0:
196,132,83318,1,8,0:0:0:0:
196,132,83494,1,0,0:0:0:0:
355,182,83582,1,0,0:0:0:0:
355,182,83671,1,0,0:0:0:0:
355,182,83847,1,0,0:0:0:0:
189,133,84023,1,12,0:0:0:0:
205,132,84376,1,12,0:0:0:0:
260,208,84729,1,4,0:0:0:0:
317,117,84906,1,8,0:0:0:0:
178,176,85082,1,8,0:0:0:0:
317,117,85259,1,8,0:0:0:0:
317,117,85435,1,4,0:0:0:0:
317,117,85612,1,8,0:0:0:0:
317,117,85788,1,8,0:0:0:0:
317,117,85965,1,8,0:0:0:0:
317,117,86141,1,4,0:0:0:0:
317,117,86318,1,8,0:0:0:0:
317,117,86494,1,0,0:0:0:0:
280,113,86582,1,0,0:0:0:0:
317,117,86671,1,0,0:0:0:0:
317,117,86847,1,8,0:0:0:0:
212,152,87553,1,4,0:0:0:0:
289,145,87906,1,8,0:0:0:0:
92,59,88082,1,0,0:0:0:0:
325,181,88259,1,8,0:0:0:0:
255,167,88435,1,0,0:0:0:0:
325,181,88523,1,8,0:0:0:0:
220,162,88788,1,0,0:0:0:0:
314,180,89141,1,8,0:0:0:0:
303,148,89318,1,8,0:0:0:0:
144,136,89406,1,8,0:0:0:0:
295,134,89494,1,8,0:0:0:0:
295,134,89671,1,0,0:0:0:0:
294,188,90200,1,0,0:0:0:0:
294,182,90376,1,8,0:0:0:0:
322,164,90729,1,8,0:0:0:0:
414,258,90906,1,0,0:0:0:0:
322,164,91082,1,8,0:0:0:0:
225,210,91259,1,0,0:0:0:0:
322,164,91347,1,0,0:0:0:0:
322,164,91612,1,8,0:0:0:0:
322,164,91788,1,0,0:0:0:0:
322,164,91965,1,8,0:0:0:0:
322,164,92141,1,0,0:0:0:0:
162,137,92229,1,0,0:0:0:0:
322,164,92318,1,8,0:0:0:0:
322,164,92494,1,0,0:0:0:0:
185,102,92671,1,0,0:0:0:0:
185,102,92847,1,8,0:0:0:0:
322,221,93200,1,4,0:0:0:0:
217,157,93553,1,0,0:0:0:0:
442,290,93729,1,0,0:0:0:0:
240,151,93906,1,8,0:0:0:0:
261,175,94082,1,0,0:0:0:0:
240,151,94171,1,8,0:0:0:0:
242,175,94435,1,8,0:0:0:0:
242,175,94523,1,8,0:0:0:0:
242,175,94612,1,0,0:0:0:0:
242,175,94788,1,0,0:0:0:0:
242,175,94965,1,8,0:0:0:0:
242,175,95141,1,0,0:0:0:0:
242,175,95229,1,8,0:0:0:0:
330,226,95847,1,8,0:0:0:0:
330,226,96023,1,0,0:0:0:0:
394,254,96376,1,0,0:0:0:0:
427,279,96553,1,0,0:0:0:0:
394,254,96729,1,8,0:0:0:0:
182,151,97082,1,0,0:0:0:0:
196,148,97259,1,0,0:0:0:0:
196,148,97435,1,8,0:0:0:0:
196,148,97612,1,8,0:0:0:0:
196,148,97788,1,0,0:0:0:0:
155,146,97876,1,0,0:0:0:0:
196,148,97965,1,0,0:0:0:0:
196,148,98141,1,12,0:0:0:0:
404,270,98847,1,4,0:0:0:0:
206,84,99200,1,0,0:0:0:0:
432,287,99376,1,0,0:0:0:0:
271,154,99553,1,8,0:0:0:0:
217,165,99729,1,0,0:0:0:0:
271,154,99818,1,8,0:0:0:0:
271,154,100082,1,8,0:0:0:0:
271,154,100259,1,0,0:0:0:0:
91,109,100435,1,8,0:0:0:0:
91,109,100612,1,0,0:0:0:0:
91,109,100700,1,0,0:0:0:0:
91,109,100788,1,8,0:0:0:0:
91,109,100965,1,0,0:0:0:0:
16,137,101494,1,0,0:0:0:0:
189,127,101671,1,8,0:0:0:0:
189,127,102023,1,8,0:0:0:0:
426,259,102200,1,0,0:0:0:0:
189,127,102376,1,8,0:0:0:0:
221,157,102553,1,0,0:0:0:0:
189,127,102641,1,0,0:0:0:0:
189,127,102906,1,8,0:0:0:0:
189,127,103082,1,0,0:0:0:0:
189,127,103259,1,8,0:0:0:0:
157,172,103347,1,8,0:0:0:0:
189,127,103435,1,8,0:0:0:0:
189,127,103612,1,8,0:0:0:0:
223,163,103788,1,0,0:0:0:0:
299,176,104494,1,4,0:0:0:0:
232,132,104847,1,0,0:0:0:0:
459,271,105023,1,0,0:0:0:0:
302,127,105200,1,8,0:0:0:0:
226,164,105376,1,0,0:0:0:0:
302,127,105465,1,8,0:0:0:0:
302,127,105729,1,8,0:0:0:0:
302,127,105906,1,0,0:0:0:0:
302,127,106082,1,8,0:0:0:0:
222,112,106171,1,8,0:0:0:0:
302,127,106259,1,0,0:0:0:0:
302,127,106435,1,8,0:0:0:0:
261,151,106965,1,0,0:0:0:0:
265,137,107141,1,8,0:0:0:0:
300,94,107494,1,0,0:0:0:0:
300,94,107671,1,8,0:0:0:0:
300,94,107847,1,8,0:0:0:0:
300,94,108200,1,0,0:0:0:0:
300,94,108376,1,8,0:0:0:0:
300,94,108553,1,0,0:0:0:0:
300,94,108729,1,8,0:0:0:0:
98,164,108818,1,8,0:0:0:0:
300,94,108906,1,8,0:0:0:0:
300,94,109082,1,0,0:0:0:0:
300,94,109259,1,8,0:0:0:0:
300,94,109435,1,4,0:0:0:0:
335,190,109788,1,8,0:0:0:0:
154,122,110141,1,8,0:0:0:0:
154,122,110494,1,0,0:0:0:0:
256,192,110671,12,0,111906,0:0:0:0:
314,187,112259,5,4,0:0:0:0:
297,140,112611,1,4,0:0:0:0:
297,140,112964,1,4,0:0:0:0:
297,140,113317,1,4,0:0:0:0:
297,140,113670,1,12,0:0:0:0:
297,140,114023,1,12,0:0:0:0:
297,140,114376,1,12,0:0:0:0:
131,161,115082,1,4,0:0:0:0:
254,192,115435,1,8,0:0:0:0:
254,192,115611,1,8,0:0:0:0:
167,161,115788,1,4,0:0:0:0:
254,192,116141,1,8,0:0:0:0:
254,192,116317,1,8,0:0:0:0:
167,161,116494,1,4,0:0:0:0:
167,161,116847,1,4,0:0:0:0:
278,142,117200,1,12,0:0:0:0:
131,172,117906,1,4,0:0:0:0:
258,177,118259,1,8,0:0:0:0:
258,177,118435,1,8,0:0:0:0:
146,172,118611,1,4,0:0:0:0:
258,177,118964,1,8,0:0:0:0:
258,177,119141,1,8,0:0:0:0:
146,172,119317,1,4,0:0:0:0:
146,172,119670,1,4,0:0:0:0:
146,172,120023,1,12,0:0:0:0:
202,155,120729,1,4,0:0:0:0:
181,137,120906,1,8,0:0:0:0:
181,137,121082,1,8,0:0:0:0:
181,137,121259,1,8,0:0:0:0:
181,137,121435,1,4,0:0:0:0:
181,137,121611,1,8,0:0:0:0:
181,137,121788,1,8,0:0:0:0:
181,137,121964,1,8,0:0:0:0:
341,115,122141,1,4,0:0:0:0:
181,137,122317,1,8,0:0:0:0:
341,115,122494,1,4,0:0:0:0:
181,137,122670,1,0,0:0:0:0:
341,115,122847,1,12,0:0:0:0:
258,159,123553,1,4,0:0:0:0:
248,161,123729,1,8,0:0:0:0:
278,162,123906,1,8,0:0:0:0:
278,162,124082,1,8,0:0:0:0:
258,159,124259,1,4,0:0:0:0:
284,160,124435,1,8,0:0:0:0:
284,160,124611,1,8,0:0:0:0:
284,160,124788,1,8,0:0:0:0:
397,113,124964,1,0,0:0:0:0:
216,122,126023,1,0,0:0:0:0:
216,122,126200,1,0,0:0:0:0:
178,122,126376,1,8,0:0:0:0:
103,176,126729,1,4,0:0:0:0:
255,155,127082,1,8,0:0:0:0:
198,78,127258,1,0,0:0:0:0:
236,137,127347,1,8,0:0:0:0:
236,137,127611,1,8,0:0:0:0:
236,137,127964,1,0,0:0:0:0:
236,137,128141,1,8,0:0:0:0:
135,147,128229,1,8,0:0:0:0:
158,146,128317,1,0,0:0:0:0:
158,146,128494,1,8,0:0:0:0:
186,164,129023,1,0,0:0:0:0:
196,152,129200,1,8,0:0:0:0:
203,130,129553,1,8,0:0:0:0:
316,93,129729,1,8,0:0:0:0:
217,105,129906,1,0,0:0:0:0:
202,112,130082,1,0,0:0:0:0:
217,105,130170,1,8,0:0:0:0:
217,105,130435,1,8,0:0:0:0:
217,105,130611,1,0,0:0:0:0:
192,135,130788,1,8,0:0:0:0:
192,135,130964,1,8,0:0:0:0:
192,135,131053,1,8,0:0:0:0:
192,135,131141,1,8,0:0:0:0:
192,135,131317,1,0,0:0:0:0:
256,103,131494,1,0,0:0:0:0:
208,87,131670,1,8,0:0:0:0:
250,174,132023,1,4,0:0:0:0:
279,181,132376,1,0,0:0:0:0:
92,113,132553,1,0,0:0:0:0:
298,157,132729,1,8,0:0:0:0:
204,77,132906,1,0,0:0:0:0:
298,157,132994,1,8,0:0:0:0:
298,157,133259,1,0,0:0:0:0:
298,157,133435,1,8,0:0:0:0:
173,141,133611,1,0,0:0:0:0:
173,141,133700,1,0,0:0:0:0:
173,141,133788,1,8,0:0:0:0:
173,141,133964,1,8,0:0:0:0:
322,168,134141,1,0,0:0:0:0:
247,137,134670,1,8,0:0:0:0:
247,137,134847,1,0,0:0:0:0:
203,141,135200,1,8,0:0:0:0:
203,141,135376,1,0,0:0:0:0:
203,141,135553,1,8,0:0:0:0:
203,141,135906,1,8,0:0:0:0:
203,141,136082,1,0,0:0:0:0:
203,141,136259,1,8,0:0:0:0:
203,141,136347,1,8,0:0:0:0:
203,141,136435,1,8,0:0:0:0:
203,141,136611,1,0,0:0:0:0:
203,141,136788,1,0,0:0:0:0:
203,141,136964,1,8,0:0:0:0:
416,235,137670,1,0,0:0:0:0:
317,183,138023,1,12,0:0:0:0:
181,78,138200,1,0,0:0:0:0:
261,131,138288,1,8,0:0:0:0:
321,150,138553,1,0,0:0:0:0:
91,168,138729,1,8,0:0:0:0:
150,139,138906,1,0,0:0:0:0:
150,139,138994,1,0,0:0:0:0:
150,139,139082,1,8,0:0:0:0:
150,139,139258,1,8,0:0:0:0:
150,139,139435,1,0,0:0:0:0:
382,100,139611,1,0,0:0:0:0:
308,196,139788,1,8,0:0:0:0:
199,39,140141,1,0,0:0:0:0:
377,261,140494,1,0,0:0:0:0:
336,207,140670,1,8,0:0:0:0:
336,207,140847,1,0,0:0:0:0:
359,223,141023,1,8,0:0:0:0:
359,223,141111,1,8,0:0:0:0:
359,223,141200,1,0,0:0:0:0:
359,223,141376,1,8,0:0:0:0:
359,223,141553,1,0,0:0:0:0:
220,128,141906,1,8,0:0:0:0:
184,81,142082,1,0,0:0:0:0:
226,117,142170,1,8,0:0:0:0:
226,117,142435,1,0,0:0:0:0:
226,117,142611,1,8,0:0:0:0:
214,153,143317,1,12,0:0:0:0:
239,107,143494,1,0,0:0:0:0:
226,131,143670,1,8,0:0:0:0:
239,107,143847,1,0,0:0:0:0:
185,110,143935,1,8,0:0:0:0:
185,110,144200,1,8,0:0:0:0:
185,110,144376,1,8,0:0:0:0:
343,199,144553,1,0,0:0:0:0:
343,199,144641,1,0,0:0:0:0:
343,199,144729,1,8,0:0:0:0:
343,199,144906,1,0,0:0:0:0:
339,179,145082,1,8,0:0:0:0:
339,179,145258,1,8,0:0:0:0:
339,179,145435,1,0,0:0:0:0:
165,150,145964,1,8,0:0:0:0:
156,150,146141,1,0,0:0:0:0:
230,102,146494,1,8,0:0:0:0:
161,97,146670,1,0,0:0:0:0:
252,111,146847,1,8,0:0:0:0:
252,111,147200,1,8,0:0:0:0:
252,111,147376,1,0,0:0:0:0:
252,111,147553,1,8,0:0:0:0:
252,111,147641,1,8,0:0:0:0:
252,111,147729,1,8,0:0:0:0:
252,111,147906,1,0,0:0:0:0:
252,111,148082,1,8,0:0:0:0:
252,111,148258,1,0,0:0:0:0:
271,86,148611,1,0,0:0:0:0:
267,130,148964,1,8,0:0:0:0:
262,130,149317,1,8,0:0:0:0:
165,50,149670,1,0,0:0:0:0:
265,168,150376,1,4,0:0:0:0:
211,152,150553,1,0,0:0:0:0:
211,152,150729,1,8,0:0:0:0:
265,95,150906,1,0,0:0:0:0:
265,95,151082,1,0,0:0:0:0:
265,95,151258,1,8,0:0:0:0:
265,95,151435,1,0,0:0:0:0:
265,95,151611,1,0,0:0:0:0:
265,95,151788,1,8,0:0:0:0:
265,95,151964,1,0,0:0:0:0:
265,95,152141,1,0,0:0:0:0:
265,95,152317,1,8,0:0:0:0:
265,95,152494,1,8,0:0:0:0:
340,222,152847,1,0,0:0:0:0:
323,41,153200,1,0,0:0:0:0:
265,95,153376,1,0,0:0:0:0:
316,187,153553,1,8,0:0:0:0:
316,187,153729,1,0,0:0:0:0:
316,187,153906,1,0,0:0:0:0:
316,187,154082,1,8,0:0:0:0:
316,187,154258,1,0,0:0:0:0:
316,187,154435,1,0,0:0:0:0:
316,187,154611,1,8,0:0:0:0:
316,187,154788,1,0,0:0:0:0:
316,187,154964,1,0,0:0:0:0:
316,187,155141,1,8,0:0:0:0:
316,187,155317,1,0,0:0:0:0:
257,200,155670,1,8,0:0:0:0:
316,187,156023,1,4,0:0:0:0:
316,187,156200,1,8,0:0:0:0:
316,187,156376,1,0,0:0:0:0:
316,187,156553,1,0,0:0:0:0:
316,187,156729,1,8,0:0:0:0:
316,187,156906,1,0,0:0:0:0:
316,187,157082,1,0,0:0:0:0:
316,187,157258,1,8,0:0:0:0:
316,187,157435,1,0,0:0:0:0:
316,187,157611,1,0,0:0:0:0:
316,187,157788,1,8,0:0:0:0:
316,187,157964,1,0,0:0:0:0:
316,187,158141,1,8,0:0:0:0:
216,83,158494,1,8,0:0:0:0:
316,187,158847,1,0,0:0:0:0:
316,187,159023,1,8,0:0:0:0:
316,187,159200,1,0,0:0:0:0:
316,187,159376,1,0,0:0:0:0:
316,187,159553,1,8,0:0:0:0:
316,187,159729,1,0,0:0:0:0:
316,187,159906,1,0,0:0:0:0:
316,187,160082,1,8,0:0:0:0:
316,187,160258,1,0,0:0:0:0:
316,187,160611,1,0,0:0:0:0:
316,187,160788,1,8,0:0:0:0:
316,187,160964,1,0,0:0:0:0:
265,168,161670,1,4,0:0:0:0:
211,152,161847,1,8,0:0:0:0:
211,152,162023,1,8,0:0:0:0:
265,95,162200,1,0,0:0:0:0:
265,95,162376,1,0,0:0:0:0:
265,95,162553,1,8,0:0:0:0:
265,95,162729,1,0,0:0:0:0:
265,95,162906,1,8,0:0:0:0:
265,95,163082,1,8,0:0:0:0:
265,95,163258,1,0,0:0:0:0:
265,95,163435,1,0,0:0:0:0:
265,95,163611,1,8,0:0:0:0:
265,95,163788,1,8,0:0:0:0:
394,237,164141,1,0,0:0:0:0:
265,95,164494,1,0,0:0:0:0:
265,95,164670,1,0,0:0:0:0:
316,187,164847,1,8,0:0:0:0:
316,187,165023,1,0,0:0:0:0:
316,187,165200,1,8,0:0:0:0:
316,187,165376,1,8,0:0:0:0:
316,187,165553,1,0,0:0:0:0:
316,187,165729,1,0,0:0:0:0:
316,187,165906,1,8,0:0:0:0:
316,187,166082,1,8,0:0:0:0:
316,187,166258,1,0,0:0:0:0:
316,187,166435,1,8,0:0:0:0:
316,187,166611,1,0,0:0:0:0:
300,131,166964,1,8,0:0:0:0:
316,187,167317,1,4,0:0:0:0:
316,187,167494,1,8,0:0:0:0:
316,187,167670,1,8,0:0:0:0:
316,187,167847,1,0,0:0:0:0:
316,187,168023,1,8,0:0:0:0:
316,187,168200,1,8,0:0:0:0:
316,187,168376,1,0,0:0:0:0:
316,187,168553,1,8,0:0:0:0:
316,187,168729,1,8,0:0:0:0:
316,187,168906,1,0,0:0:0:0:
316,187,169082,1,8,0:0:0:0:
316,187,169258,1,8,0:0:0:0:
316,187,169435,1,8,0:0:0:0:
159,142,169788,1,8,0:0:0:0:
316,187,170141,1,0,0:0:0:0:
316,187,170317,1,8,0:0:0:0:
316,187,170494,1,8,0:0:0:0:
316,187,170670,1,0,0:0:0:0:
316,187,170847,1,8,0:0:0:0:
316,187,171023,1,0,0:0:0:0:
316,187,171200,1,8,0:0:0:0:
316,187,171376,1,8,0:0:0:0:
316,187,171553,1,0,0:0:0:0:
316,187,171905,1,8,0:0:0:0:
316,187,172258,1,0,0:0:0:0:
165,89,172435,1,0,0:0:0:0:
165,89,172523,1,0,0:0:0:0:
165,89,172611,1,8,0:0:0:0:
165,89,172788,1,8,0:0:0:0:
165,89,172964,1,4,0:0:0:0:
165,89,173317,1,4,0:0:0:0:
165,89,173670,1,4,0:0:0:0:
165,89,174023,1,8,0:0:0:0:
